#TITLE:Dance in the Dark;
#SUBTITLE:;
#ARTIST:Lady Gaga;
#TITLETRANSLIT:;
#SUBTITLETRANSLIT:;
#ARTISTTRANSLIT:;
#GENRE:;
#CREDIT:;
#BANNER:Dance in the Dark.png;
#BACKGROUND:Dance in the Dark-bg.png;
#LYRICSPATH:;
#CDTITLE:;
#MUSIC:Dance in the Dark.ogg;
#OFFSET:0.000000;
#SAMPLESTART:63.463001;
#SAMPLELENGTH:18.500000;
#SELECTABLE:YES;
#DISPLAYBPM:121.000000;
#BPMS:0.000000=121.000000
;
#STOPS:
;
#BGCHANGES:;
#KEYSOUNDS:;
#ATTACKS:;

//---------------dance-single - Heavy----------------
#NOTES:
     dance-single:
     Heavy:
     Hard:
     7:
     0.403189,0.520025,0.226098,0.062372,0.070168,362.000000,333.000000,29.000000,8.000000,0.000000,0.000000,0.403189,0.520025,0.226098,0.062372,0.070168,362.000000,333.000000,29.000000,8.000000,0.000000,0.000000:
0000
0000
0000
0000
,
0000
0000
0000
0000
,
0000
0000
0000
0000
,
0000
0000
0000
0000
,
0000
0000
0000
0000
,
1000
0010
0100
0000
0010
0000
0010
0000
,
0100
0001
0010
0000
0001
0000
0001
0000
,
0001
1000
0001
0000
0200
0010
0000
0010
,
0000
0010
0000
0010
0000
0010
0300
0010
,
0110
0000
1010
0000
0010
1000
0100
0000
,
1100
0000
0011
0000
0001
0100
0010
0000
,
0101
0000
1010
0000
1000
0001
0100
0000
,
0001
0100
1000
0000
1000
0100
0001
0010
,
0001
0000
0001
0100
0010
0000
0010
1000
,
0000
1000
0000
1000
0000
1000
1000
0001
,
0010
0001
0010
0100
0010
0001
0000
0100
,
0000
0100
0000
0100
0000
0100
0000
0010
,
0110
0000
1001
0000
0001
0010
0100
0000
,
0100
0010
0001
1000
0010
0100
0010
1000
,
0001
0000
0001
0000
0000
0100
0000
0001
0000
0000
0001
0000
1000
0000
0000
0000
,
1000
0100
1000
0000
1000
0010
0100
0001
,
0010
0010
0001
0000
0010
0010
0100
0000
,
0010
0010
0001
1000
0100
0001
0100
1000
,
0001
0001
0100
0001
0000
0001
1000
0001
,
0001
0100
0010
1000
0200
0000
1000
1300
,
0001
0001
0101
0000
0001
0001
0011
0000
,
1000
1000
1100
0000
1000
1000
1000
0001
,
1000
1000
0001
1000
0001
0001
1000
0001
,
1000
0000
0101
0000
0011
0000
0001
0010
,
0100
0000
0100
0100
0010
0000
0010
0010
,
0100
0000
0010
0010
0001
1000
0001
0100
,
0001
0100
0001
0100
0001
0100
0000
0000
0010
1000
0100
1000
0010
1000
0010
1000
,
0100
0000
1100
0000
1000
1000
0001
0001
,
0101
0000
0001
0100
0010
0010
0100
0001
,
0010
0010
0001
0000
0001
0001
1000
0001
,
1000
0010
1000
0100
1000
0001
0010
0001
,
1000
0000
1001
0000
0001
0001
0101
0000
,
0011
0001
1100
1010
,
0010
0020
0000
0000
0130
0200
0000
0000
,
0301
0000
0001
0000
0001
0000
1000
0000
0001
0100
0010
0100
0000
0000
0001
1000
,
0001
0000
0101
0000
0001
0010
0100
1000
,
0001
0001
0101
0000
0010
0000
1100
0100
,
0100
0010
0001
0100
0001
0001
1000
1000
,
0100
0100
0010
0100
0010
0010
0001
0100
,
0010
0100
0101
0000
0001
0001
0011
0000
,
0010
0010
1000
1000
0010
0001
0100
1000
,
0020
0100
0130
0000
0200
0010
0310
0000
,
0010
0000
1000
0000
0100
0000
1000
0000
0001
0100
0010
0100
0000
0000
0001
0010
,
0001
0000
0101
0000
0100
0010
1000
0000
,
0100
0000
1100
0000
1000
0001
0100
0000
,
0001
0010
0001
0100
0001
1000
0001
0100
,
0001
1000
0001
0100
0001
1000
0001
0010
,
0001
0000
0011
0000
0001
0010
0100
0000
,
1000
0000
1100
0000
1000
0010
0100
0000
,
0100
0001
0100
0010
0000
1000
0000
0100
,
1000
0000
1000
0000
1000
0000
1000
0000
0001
1000
0001
1000
0000
0000
0001
0200
,
0020
0000
0000
0000
,
0000
0000
0000
0000
,
0330
0000
0000
0000
;
