#VERSION:0.83;
#TITLE:Cruel Summer;
#SUBTITLE:(Big Bonus Mix);
#ARTIST:Ace of Base;
#TITLETRANSLIT:;
#SUBTITLETRANSLIT:;
#ARTISTTRANSLIT:;
#GENRE:;
#ORIGIN:;
#CREDIT:;
#BANNER:;
#BACKGROUND:;
#PREVIEWVID:;
#JACKET:;
#CDIMAGE:;
#DISCIMAGE:;
#LYRICSPATH:;
#CDTITLE:;
#MUSIC:Cruel Summer (Big Bonus Mix).ogg;
#OFFSET:-0.162892;
#SAMPLESTART:51.519947;
#SAMPLELENGTH:12.000000;
#SELECTABLE:YES;
#BPMS:0.000=129.000;
#STOPS:;
#DELAYS:;
#WARPS:;
#TIMESIGNATURES:0.000=4=4;
#TICKCOUNTS:0.000=4;
#COMBOS:0.000=1;
#SPEEDS:0.000=1.000=0.000=0;
#SCROLLS:0.000=1.000;
#FAKES:;
#LABELS:0.000=Song Start;
#BGCHANGES:;
#KEYSOUNDS:;
#ATTACKS:
;

//---------------dance-single - ----------------
#NOTEDATA:;
#CHARTNAME:;
#STEPSTYPE:dance-single;
#DESCRIPTION:;
#CHARTSTYLE:;
#DIFFICULTY:Beginner;
#METER:1;
#RADARVALUES:0.094349,0.122039,0.007179,0.000000,0.000000,92.000000,91.000000,1.000000,0.000000,0.000000,0.000000,0.000000,0.000000,0.000000,0.094349,0.122039,0.007179,0.000000,0.000000,92.000000,91.000000,1.000000,0.000000,0.000000,0.000000,0.000000,0.000000,0.000000;
#CREDIT:;
#NOTES:
0000
0000
0000
0000
,
0000
0000
0000
0000
,
0000
0000
0000
0000
,
0000
0000
0000
0000
,
0001
0001
0000
0000
,
0010
0010
0000
0000
,
0100
0100
0000
0000
,
1000
1000
0000
0000
,
0010
0010
0000
0000
,
0100
0100
0000
0000
,
0001
0001
0000
0000
,
1000
1000
0000
0000
,
0001
0000
0001
0000
,
0010
0000
0010
0000
,
0100
0000
0100
0000
,
0000
0000
0000
0000
,
1000
0000
1000
0000
,
0010
0000
0010
0000
,
0100
0000
0000
0000
,
0000
0000
0000
0000
,
0001
0000
0001
0000
,
1000
0000
1000
0000
,
1000
0000
0100
0000
,
0010
0000
0000
0000
,
0010
0000
0010
0000
,
0001
0000
0001
0000
,
1000
0000
0000
0000
,
0000
0000
0000
0000
,
0001
0000
0000
0000
,
0100
0100
0000
0000
,
0010
0000
0000
0000
,
1000
0000
0000
0000
,
0100
0000
0000
0000
,
0010
0010
0000
0000
,
0001
0000
0000
0000
,
1000
0000
0000
0000
,
0010
0000
0000
0000
,
0100
0100
0000
0000
,
0001
0000
0000
0000
,
1000
0000
0000
0000
,
0100
0000
0000
0000
,
0010
0010
0000
0000
,
0001
0000
0000
0000
,
1000
0000
0000
0000
,
0010
0000
0000
0000
,
0100
0000
0000
0000
,
0001
0000
0000
0000
,
1000
0000
0000
0000
,
0100
0000
0100
0000
,
0010
0000
0010
0000
,
0001
0000
0001
0000
,
1000
0000
0000
0000
,
0010
0000
0000
0000
,
0100
0100
0000
0000
,
0001
0000
0000
0000
,
1000
0000
0000
0000
,
0100
0000
0000
0000
,
0010
0010
0000
0000
,
0001
0000
0000
0000
,
1000
0000
0000
0000
,
0010
0000
0000
0000
,
0100
0100
0000
0000
,
0001
0000
0000
0000
,
1000
0000
0000
0000
,
0100
0000
0000
0000
,
0010
0010
0000
0000
,
0001
0000
0000
0000
,
1000
0000
0000
0000
,
1001
0000
0000
0000
;

//---------------dance-single - ----------------
#NOTEDATA:;
#CHARTNAME:;
#STEPSTYPE:dance-single;
#DESCRIPTION:;
#CHARTSTYLE:;
#DIFFICULTY:Easy;
#METER:3;
#RADARVALUES:0.168188,0.226131,0.007179,0.050251,0.000000,164.000000,163.000000,1.000000,7.000000,0.000000,0.000000,0.000000,0.000000,0.000000,0.168188,0.226131,0.007179,0.050251,0.000000,164.000000,163.000000,1.000000,7.000000,0.000000,0.000000,0.000000,0.000000,0.000000;
#CREDIT:;
#NOTES:
0000
0000
0000
0000
,
0000
0000
0000
0000
,
0000
0000
0000
0000
,
0000
0000
0000
0000
,
1000
0000
0000
0000
,
0001
0000
0000
0000
,
0100
0000
0000
0000
,
0010
0000
0000
0000
,
1000
1000
0000
0100
,
0010
0010
0000
0000
,
0001
0001
0000
1000
,
0010
0010
0000
0000
,
0100
0100
0001
0001
,
0010
0100
0010
0100
,
1000
0001
1000
0000
,
0010
0000
0010
0000
,
0100
0100
0001
0001
,
1000
0100
0010
0100
,
1000
0000
0001
0000
,
0100
0000
0100
0000
,
0010
1000
0010
1000
,
0100
0010
0001
0001
,
0001
0000
0100
0000
,
0010
1000
0001
0000
,
1000
0100
0010
0001
,
0010
0100
0010
0100
,
1000
0000
0001
0000
,
0100
0100
0100
0000
,
0010
0000
0000
0010
,
1000
0100
0000
0100
,
0010
0000
0010
0000
,
0001
1000
0001
0000
,
1000
0000
0000
1000
,
0010
0100
0000
0100
,
0001
0000
0001
0000
,
0010
0100
1000
0000
,
0001
0000
0000
0001
,
1000
0100
0000
0100
,
1000
0000
0001
0000
,
0100
0010
1000
0000
,
0010
0000
0000
0100
,
0001
0010
0000
0010
,
0001
0000
0100
0000
,
0010
0010
0010
0000
,
2000
0000
0000
3000
,
0200
0000
0000
0300
,
0020
0000
0000
0030
,
0002
0000
0000
0003
,
1000
1000
0010
0010
,
0100
0001
0100
0001
,
0010
0010
0001
0001
,
2000
0000
0000
3000
,
1000
0000
0000
0010
,
0100
0100
0000
0100
,
0001
0000
0001
0000
,
0010
0100
1000
0000
,
0001
0000
0000
0100
,
0010
0010
0000
0010
,
1000
0000
1000
0000
,
0100
0010
0100
0000
,
1000
1000
0000
0001
,
0100
0100
0000
0000
,
0001
0001
0000
1000
,
0010
0010
0000
0000
,
1000
1000
0000
0100
,
0010
0010
0000
0000
,
0001
0001
0000
0010
,
0100
0100
0000
0000
,
2002
0000
0000
0000
,
0000
0000
0000
0000
,
3003
0000
0000
0000
;

//---------------dance-single - ----------------
#NOTEDATA:;
#CHARTNAME:;
#STEPSTYPE:dance-single;
#DESCRIPTION:;
#CHARTSTYLE:;
#DIFFICULTY:Medium;
#METER:6;
#RADARVALUES:0.239975,0.301508,0.028715,0.071788,0.000000,234.000000,230.000000,4.000000,10.000000,0.000000,0.000000,0.000000,0.000000,0.000000,0.239975,0.301508,0.028715,0.071788,0.000000,234.000000,230.000000,4.000000,10.000000,0.000000,0.000000,0.000000,0.000000,0.000000;
#CREDIT:;
#NOTES:
0000
0000
0000
0000
,
0000
0000
0000
0000
,
0000
0000
0000
0000
,
0000
0000
0000
0000
,
1000
0100
0000
0010
,
0001
1000
0000
0000
,
0001
0100
0000
0010
,
1000
0001
0000
0000
,
1000
0100
0010
0100
,
1000
0001
1000
0001
,
0100
0010
0100
0001
,
2002
0000
0000
3003
,
1000
0000
0100
0010
0000
0000
0010
0001
,
0000
0000
0001
0100
0000
0000
0100
0010
,
0000
0010
0000
1000
0000
0000
0000
0000
,
0001
0000
0001
0000
,
1000
0000
0010
0100
0000
0000
0100
0001
,
0000
0000
0001
0010
0000
0000
0010
0100
,
0100
1000
0001
0000
,
0001
1000
0001
0000
,
1000
0000
0010
0000
0100
0000
0001
0010
,
0000
0100
0000
0010
0000
0001
1000
0000
,
1000
0000
0000
0010
0000
0010
0000
0100
,
0000
0100
0001
0000
0001
0000
0000
0000
,
1000
0000
0100
0010
0000
0000
0010
0001
,
0000
0000
0001
0100
0000
0100
0010
1000
,
0001
0001
1000
0000
,
1000
0000
0010
0000
0200
0000
0301
0001
,
0000
0000
0000
0100
0000
0010
0000
0010
,
0000
1000
0000
0000
0000
0100
0010
0100
,
0000
0000
0000
0000
1000
0001
1000
0001
,
0000
0000
0001
0100
0000
0000
0100
0010
,
0000
0000
0000
1000
0000
0100
0000
0010
,
0000
0100
0000
0000
0000
1000
0001
1000
,
0000
0000
0000
0000
0001
0100
0001
0100
,
0000
0010
0000
0010
0000
0100
0001
1000
,
0000
0000
0000
0010
0000
0100
0000
0001
,
0000
1000
0000
0000
0000
0100
0010
0001
,
0000
0000
0000
0000
0001
0000
0100
0010
,
0000
0000
0010
1000
0000
0000
1000
0001
,
0000
0000
0000
0010
0000
0100
0000
1000
,
0000
0001
0000
0000
0000
1000
0010
0100
,
0000
0000
0000
0000
0010
1000
0100
0010
,
0000
0010
0000
0010
0000
0000
0000
0000
,
0002
0000
0000
0000
,
0203
0000
0000
0000
,
0320
0000
0000
0000
,
2030
0000
0000
0000
,
3100
0010
0001
0001
,
0100
0010
1000
1000
,
0100
0010
0100
1000
,
0002
0000
0000
0000
0000
1003
0010
0100
,
0001
0000
0000
0101
0000
0001
0000
0010
,
0000
0100
0000
0000
0000
0100
1000
0010
,
0000
0000
0100
0000
0010
0100
0001
0100
,
0000
0010
0000
0010
0000
1000
0100
0010
,
0000
0000
0000
1100
0000
0001
0000
0100
,
0000
0010
0000
0000
0000
0010
1000
0001
,
0000
0000
0010
0000
0001
0100
0010
0100
,
0000
0100
0000
0010
0000
0010
1000
0000
,
0001
0010
0100
0000
0010
0000
0100
0000
,
1000
1000
0000
0001
,
1000
0010
0100
0000
0010
0000
0100
0000
,
0001
0001
0000
1000
,
0001
0010
0100
0000
1000
0000
0001
0000
,
0100
0010
0000
1000
,
0001
0100
0010
0000
1000
0000
0001
0000
,
0010
0100
0000
1000
,
2002
0000
0000
0000
,
0000
0000
0000
0000
,
3003
0000
0000
0000
;

//---------------dance-single - ----------------
#NOTEDATA:;
#CHARTNAME:;
#STEPSTYPE:dance-single;
#DESCRIPTION:;
#CHARTSTYLE:;
#DIFFICULTY:Hard;
#METER:8;
#RADARVALUES:0.442006,0.502513,0.201005,0.215363,0.165111,431.000000,403.000000,28.000000,30.000000,0.000000,0.000000,0.000000,0.000000,0.000000,0.442006,0.502513,0.201005,0.215363,0.165111,431.000000,403.000000,28.000000,30.000000,0.000000,0.000000,0.000000,0.000000,0.000000;
#CREDIT:;
#NOTES:
// measure 0
0000
0000
0000
0000
,  // measure 1
0000
0000
0000
0000
,  // measure 2
0000
0000
0000
0000
,  // measure 3
0000
0000
0000
0000
,  // measure 4
1000
0000
0000
0000
1000
0000
0000
0000
0010
0000
0000
0200
0000
0000
0001
0000
,  // measure 5
0301
1000
0100
1000
,  // measure 6
0001
0000
0000
0000
0001
0000
0000
0000
0010
0000
0000
0200
0000
0000
1000
0000
,  // measure 7
1300
0001
0100
2001
,  // measure 8
3001
0000
0010
0000
0100
0000
1000
0000
0001
0000
1000
0200
0000
0000
0310
0000
,  // measure 9
0001
0001
1000
1000
0001
0000
1001
0000
,  // measure 10
1000
0000
0010
0000
0100
0000
0001
0000
1000
0000
0001
0200
0000
0000
0310
0000
,  // measure 11
1000
0000
1000
0000
0001
0000
0002
0000
1000
0000
0000
1000
0000
0000
1003
0000
,  // measure 12
0001
0100
0010
0100
0001
0010
0100
1000
,  // measure 13
0100
0010
0100
1000
0001
0100
0010
1000
,  // measure 14
0001
0101
0100
0110
,  // measure 15
0010
1010
1000
1100
,  // measure 16
1000
0100
0010
0001
0100
0010
0001
0010
,  // measure 17
1000
0100
0010
1000
0010
0001
0100
0010
,  // measure 18
1000
1100
0001
0101
,  // measure 19
0100
0010
1000
0100
,  // measure 20
1010
0000
0101
0000
0001
0010
0100
2000
,  // measure 21
0000
3002
0000
0203
0000
0310
0010
1000
,  // measure 22
0001
0000
0010
0200
0000
2300
0000
3002
,  // measure 23
0000
0103
0010
0100
0001
0000
1001
0000
,  // measure 24
1000
0100
0010
0001
0100
0010
0100
0001
,  // measure 25
0010
0100
1000
0100
0001
0100
0010
0001
,  // measure 26
1000
1000
0001
0001
,  // measure 27
0100
0000
0100
0000
0010
0000
0010
0000
0100
0010
0100
0010
0100
0000
0010
0000
,  // measure 28
1000
0000
0100
0010
0000
0001
0000
0101
,  // measure 29
0000
1100
0000
0001
0000
1000
0010
0100
,  // measure 30
0000
0100
0010
0000
1000
0100
0010
0001
,  // measure 31
0000
0001
1000
0010
0000
0010
0100
0001
,  // measure 32
1000
0010
0010
0100
0000
0001
0000
0011
,  // measure 33
0000
1010
0000
1000
0000
0001
1000
0010
,  // measure 34
0000
0010
0100
0000
0001
0010
0100
2000
,  // measure 35
0000
3020
0000
0230
0000
1300
0100
0001
,  // measure 36
0000
1000
0001
0010
0000
0001
0000
0110
,  // measure 37
0000
1001
0000
1000
0000
0100
0010
0100
,  // measure 38
0000
0100
1000
0000
0001
0100
1000
0200
,  // measure 39
0000
0301
0010
0200
0000
0301
0100
1000
,  // measure 40
0100
0010
0010
0001
0000
0001
0000
1010
,  // measure 41
0000
0011
0000
0010
0000
0100
1000
0002
,  // measure 42
0000
0000
0103
0000
0010
1000
0100
0020
,  // measure 43
0000
0000
0000
0230
0000
0000
0000
0000
0000
2300
0000
0000
0000
0000
0000
0000
0000
0000
0000
0000
3000
0000
0000
0000
,  // measure 44
0001
0000
0000
0100
0000
0000
0000
0010
0000
1000
0000
0010
0000
0000
0100
0000
,  // measure 45
0001
0000
0000
0010
0000
0000
0000
0100
0000
0100
0000
0000
1000
0000
0001
0000
,  // measure 46
0100
0000
0000
0010
0000
0000
0000
0100
0000
0001
0000
0100
0000
0000
0010
0000
,  // measure 47
0100
0000
0000
0001
0000
0010
0000
0010
0000
0100
0000
0100
1000
0000
0001
0000
,  // measure 48
0001
0000
0010
0100
0000
1000
0000
0001
0000
1000
0000
0100
0000
0010
0001
0000
,  // measure 49
1000
0000
0010
0100
0000
0001
0000
0100
0000
0010
0000
1000
0001
0000
1000
0000
,  // measure 50
0001
0000
0010
0100
0000
1000
0000
0100
0000
0001
0000
0100
0000
1000
0001
0000
,  // measure 51
1000
0000
1000
0000
0010
0000
0100
0000
0001
1000
0001
1000
0001
0000
0010
0000
,  // measure 52
0100
1000
0010
0100
0010
0100
0001
0010
,  // measure 53
0100
0000
1001
0000
1000
0001
0010
0001
,  // measure 54
0100
0000
0110
0000
0010
1000
0100
0010
,  // measure 55
0100
1000
0010
0100
0001
1000
0100
0010
,  // measure 56
0100
1000
0001
0100
0010
0100
0001
0010
,  // measure 57
0100
0000
0011
0000
1000
0010
0100
0010
,  // measure 58
1000
0000
1001
0000
0001
0010
0100
2000
,  // measure 59
0000
3020
0000
0230
0000
0301
1000
1000
,  // measure 60
0001
0000
0001
0000
0010
0000
0010
0000
0100
0000
0100
2000
0000
0000
3001
0000
,  // measure 61
1000
1000
0010
0100
0001
0000
1001
0000
,  // measure 62
1000
0000
1000
0000
0010
0000
0010
0000
0100
0000
0100
0002
0000
0000
1003
0000
,  // measure 63
0001
0001
0010
0100
1000
0000
1001
0000
,  // measure 64
1000
0000
0100
0000
0001
0000
0100
0000
1000
0000
0001
2000
0000
0000
3001
0000
,  // measure 65
1000
0010
0001
0010
1000
0000
1001
0000
,  // measure 66
0001
0000
0010
0000
1000
0000
0010
0000
0001
0000
1000
0002
0000
0000
1003
0000
,  // measure 67
0001
0100
1000
0100
0001
0000
1001
0000
,  // measure 68
0220
0000
0000
0000
,  // measure 69
0000
0000
0000
0000
,  // measure 70
0330
0000
0000
0000
;
