#TITLE:Blue Planet;
#SUBTITLE:;
#ARTIST:Trick Trap;
#TITLETRANSLIT:;
#SUBTITLETRANSLIT:;
#ARTISTTRANSLIT:;
#GENRE:;
#CREDIT:;
#BANNER:;
#BACKGROUND:;
#LYRICSPATH:;
#CDTITLE:;
#MUSIC:Blue Planet.ogg;
#OFFSET:-0.411000;
#SAMPLESTART:29.330000;
#SAMPLELENGTH:8.544000;
#SELECTABLE:YES;
#BPMS:0.000000=136.934998
,12.000000=136.860992
,14.500000=136.934998
;
#STOPS:10.500000=0.219000,
11.000000=0.219000,
11.500000=0.219000,
48.000000=0.219000,
62.250000=0.438000,
101.500000=0.219000,
105.000000=0.219000,
108.500000=0.219000,
112.000000=0.219000,
115.500000=0.219000,
119.000000=0.219000,
122.500000=0.219000,
130.000000=0.438000,
133.000000=0.439000,
139.000000=0.657000,
209.500000=0.219000
;
#BGCHANGES:;
#KEYSOUNDS:;
#ATTACKS:;

//---------------dance-single - ----------------
#NOTES:
     dance-single:
     :
     Hard:
     8:
     0.607817,0.607289,0.421458,0.100347,0.451562,424.000000,382.000000,42.000000,10.000000,0.000000,0.000000,0.607817,0.607289,0.421458,0.100347,0.451562,424.000000,382.000000,42.000000,10.000000,0.000000,0.000000:
// measure 0
0000
0000
0000
0000
,  // measure 1
0000
0000
0000
0000
0000
0000
0000
1000
,  // measure 2
0001
1000
0100
0010
0001
0010
0011
1001
,  // measure 3
0101
0000
0000
0000
0000
0010
1000
0010
,  // measure 4
0100
0000
0000
0001
0010
0000
0001
0000
1000
0000
0010
0000
0100
0000
0001
0000
,  // measure 5
0010
0000
0000
0001
1000
0000
0001
0000
0010
0000
0100
0000
0001
0000
0100
0000
,  // measure 6
1000
0000
0000
0010
1000
0000
0010
0000
0100
0000
1000
0000
0100
0000
0001
0000
,  // measure 7
0100
0000
0000
0001
0010
0000
0001
0000
1000
0000
0010
0100
0000
0010
0100
0000
,  // measure 8
0001
0000
0000
1000
0001
0000
1000
0000
0100
0000
0010
0001
0000
0010
0001
0000
,  // measure 9
0100
0000
0000
0010
1000
0000
0001
0000
1000
0000
0010
1000
0000
0010
1000
0000
,  // measure 10
0001
0000
0000
0100
0001
0000
0010
0000
0001
0000
0100
0010
0000
0100
0010
0000
,  // measure 11
1000
0000
0000
0001
1000
0000
0100
0000
0010
0000
0001
0000
0010
0000
0011
0000
,  // measure 12
0011
1001
0010
0100
0000
0000
1000
0010
,  // measure 13
1000
0000
0010
1000
0000
0010
0001
0000
0010
1000
0000
0000
0001
0000
0010
0000
,  // measure 14
0100
1000
0001
0010
0001
0100
0000
1010
,  // measure 15
0000
0000
1001
0000
0000
0000
0101
0000
0000
0011
0000
0000
1000
0001
0000
0010
,  // measure 16
0001
0010
0000
0001
1000
0000
0100
0000
0010
0000
0001
0000
0010
0000
1000
0000
,  // measure 17
0010
0000
0001
1000
0000
1000
0000
0010
0000
1001
0000
0000
0100
0000
0100
0000
,  // measure 18
0001
0000
1000
0000
1001
0000
1001
0000
0000
0000
0010
0000
0010
0000
1000
0010
,  // measure 19
0000
0100
0001
0000
0010
0001
0000
0000
1000
0001
1000
0001
0100
0000
0010
1000
,  // measure 20
0000
0010
0100
0000
0000
0000
1010
0000
0000
0000
1000
0000
0002
0000
0023
0000
,  // measure 21
0230
0000
2300
0000
3020
0000
0230
0000
0301
0000
1000
0000
0001
0000
1000
0010
,  // measure 22
1000
0000
1001
0000
0000
0000
0000
0000
0000
0000
0000
0000
0020
0000
0000
1000
,  // measure 23
0000
0000
0000
0000
0230
0000
0000
0001
0000
0000
0000
0000
0302
0000
0000
0010
,  // measure 24
0000
0000
0000
0000
0000
0000
0000
0000
0003
0000
0000
0000
0011
0000
0000
1010
,  // measure 25
0000
0000
0011
0000
0000
0000
1001
0000
0000
0000
1100
0000
0000
1010
0000
0000
,  // measure 26
1100
0000
0000
0000
1001
0000
0000
0000
0011
0000
0000
1001
0000
0000
1010
0000
,  // measure 27
0000
0000
0110
0000
0000
0000
1001
0000
0000
0011
0000
0000
1001
0000
0000
0000
,  // measure 28
1010
0000
0000
0000
0010
1000
0010
1000
0010
0000
0100
0000
0001
0000
0010
0000
,  // measure 29
0000
0000
0001
0010
0001
0010
0001
0000
1000
0000
0100
0000
0010
0000
0000
0000
,  // measure 30
0001
0100
0001
0010
0001
0000
0100
0000
0010
0000
1000
0000
0000
0000
0010
1000
,  // measure 31
0010
0100
0010
0000
1000
0000
0001
0000
0010
0000
0000
0000
0001
0000
0001
1000
,  // measure 32
0000
1000
0010
0000
0010
0100
0000
0100
0001
0000
1000
0100
0000
0100
0010
0000
,  // measure 33
0010
0001
0000
0001
0100
0000
0010
1000
0000
1000
0100
0000
0000
0000
0010
0001
,  // measure 34
0000
0001
0100
0000
0000
0000
1001
0000
0000
1001
0000
0000
1010
0000
0000
0000
,  // measure 35
1000
0000
0000
0001
1000
0000
0010
0000
0010
0000
0000
1000
0001
0000
0010
0000
,  // measure 36
0001
0010
0100
0001
0100
1000
0010
0001
,  // measure 37
0010
0000
0000
1000
0010
0000
0100
0000
0100
0000
0000
0010
1000
0000
0001
0000
,  // measure 38
0011
0000
0000
0000
0002
0000
0000
1000
0000
0000
0100
0000
0000
0013
0000
0000
,  // measure 39
0001
0010
0001
0100
1000
0100
0001
0000
,  // measure 40
1000
0010
0100
0001
0100
1000
0100
0001
,  // measure 41
0010
0100
0000
1000
0010
0100
0000
0000
,  // measure 42
1001
0010
0100
1000
0100
0010
0001
0100
,  // measure 43
0010
0000
1000
0001
0010
0100
1000
0010
,  // measure 44
1000
0001
0000
0001
1000
0000
0000
0000
0010
0000
1000
0000
0100
0000
1000
0000
,  // measure 45
0001
0010
0000
0010
0001
0000
0000
0000
1000
0000
0010
0000
0100
0000
1000
0000
,  // measure 46
0100
0001
0000
0001
0100
0000
0000
0000
0001
0000
0010
0000
0100
0000
1000
0000
,  // measure 47
0001
0010
0001
0100
0010
1000
0010
1001
,  // measure 48
0000
1000
0100
0010
0001
0100
0010
1000
,  // measure 49
0001
0010
0001
0010
0100
1000
0010
1000
0010
0100
0001
0010
,  // measure 50
0011
0000
0000
1001
0000
0000
1100
0000
0000
1001
0000
0000
0001
0000
0100
0000
,  // measure 51
1000
0000
0100
0001
0100
0000
0001
0010
0001
0000
1000
0001
1000
0000
0100
0000
,  // measure 52
0010
0000
0001
0000
0010
0000
1001
0000
0000
0010
0100
0000
0000
0000
0000
0000
;

//---------------dance-single - ----------------
#NOTES:
     dance-single:
     :
     Medium:
     6:
     0.445828,0.501673,0.361250,0.030104,0.130451,311.000000,275.000000,36.000000,3.000000,0.000000,0.000000,0.445828,0.501673,0.361250,0.030104,0.130451,311.000000,275.000000,36.000000,3.000000,0.000000,0.000000:
0000
0000
0000
0000
,
0000
0000
0000
0000
0000
0000
0000
1000
,
0001
1000
0000
0100
0010
0001
1000
0001
,
0010
0000
0000
0000
0000
1000
0000
0010
,
1000
0000
1000
0010
0000
0100
0000
0001
,
0010
0000
0010
0001
0000
1000
0000
0100
,
0001
0000
0001
0100
0000
1000
0000
0010
,
0001
0000
0001
0010
0000
1000
0100
0010
,
0001
0000
0100
0010
0000
1000
0010
0100
,
0001
0000
0010
0100
0000
1000
0100
0001
,
0100
0000
1000
0001
0000
0010
0001
0010
,
1000
0000
0010
0001
0000
1000
0000
0100
,
0100
0001
0100
0100
0000
0000
1000
0000
,
1100
0000
0000
1001
0000
0000
0101
0000
0000
1001
0000
0000
1000
0000
0000
0000
,
0100
0000
0010
0001
0010
0001
0000
0011
,
0000
0000
1001
0000
0000
0000
1010
0000
0000
1001
0000
0000
1000
0000
0000
0001
,
1000
0000
0000
0001
1000
0000
0010
0000
0100
0000
0001
0000
0000
0000
1000
0000
,
1000
0000
0000
0001
0000
0001
0000
0010
0000
0010
0000
0000
0000
0000
0001
0000
,
1000
0000
1000
0000
0010
0000
0100
0000
0000
0000
0000
0000
1001
0000
0000
0011
,
0000
0000
1001
0000
0000
1100
0000
0000
1000
0000
1000
0000
1010
0000
0000
1001
,
0000
0101
0000
1001
0000
0000
0010
0010
,
0001
0001
1000
1000
0100
0000
1000
0100
,
0010
0001
0000
0000
0000
0000
0002
0000
,
0000
0023
0000
0230
,
0000
0000
0000
0000
0000
0000
0000
0000
0300
0000
0000
0000
1000
0000
0000
0010
,
0000
0000
1000
0000
0000
0000
0010
0000
0000
0000
0100
0000
0000
0001
0000
0000
,
0100
0000
0000
0000
0001
0000
0000
0000
0010
0000
0000
0001
0000
0000
0010
0000
,
0000
0000
0001
0000
0000
0000
0010
0000
0000
1000
0000
0000
0010
0000
0000
0000
,
1000
0000
0010
0001
0010
0001
0000
1001
,
0000
1000
0010
1000
0010
0000
1010
0000
,
0001
0010
0100
1000
0000
1100
0000
1000
,
0010
0100
0001
0000
0101
0000
0000
1000
,
0000
1000
0000
0000
0001
0000
0000
0001
0000
0000
0100
0000
0000
0100
0000
0000
,
0010
0000
0000
0010
0000
0000
1010
0000
0000
1001
0000
0000
0000
0000
0011
0000
,
0000
1001
0000
0000
0000
0000
1001
0000
0000
0110
0000
0000
1001
0000
0000
0000
,
0001
0000
1000
0100
0010
0000
0001
0010
,
0010
0000
0001
0000
1000
0000
0001
0100
,
0010
0000
1000
1000
0010
0000
1000
0001
,
1001
0000
0110
0000
1000
0100
0010
0001
,
0010
0000
0001
0000
1000
0001
1000
0000
,
0010
1000
0000
0001
1000
0000
0001
0100
,
0100
0001
0000
0100
0100
1000
0000
0000
,
0100
0001
0100
0001
0010
0100
1000
0010
,
1000
0000
0001
0000
1000
0100
0010
0001
,
0011
0000
1001
0000
1000
0010
1000
0000
,
1010
0000
1001
0000
0001
0100
0001
0000
,
0011
0000
1001
0000
1000
0100
0010
0001
,
0010
0000
0001
0000
1000
0100
0001
0100
,
1000
0000
0001
0000
0100
0010
1000
0010
,
0100
0000
0100
0001
0000
0001
0010
0000
0010
0001
0000
0000
,
1000
0100
0010
0001
0100
0010
1000
0000
,
0001
0001
0010
0010
0100
0100
1000
0000
,
0001
1000
0001
1000
0000
0110
0000
0000
;

//---------------dance-single - ----------------
#NOTES:
     dance-single:
     :
     Easy:
     3:
     0.255169,0.289063,0.190660,0.010035,0.010035,178.000000,159.000000,19.000000,1.000000,0.000000,0.000000,0.255169,0.289063,0.190660,0.010035,0.010035,178.000000,159.000000,19.000000,1.000000,0.000000,0.000000:
0000
0000
0000
0000
,
0000
0000
0000
0000
0000
0000
0000
1000
,
0000
0001
0000
1000
0000
0100
0100
0100
,
0100
0000
0000
0000
0000
1000
0000
0100
,
0000
1000
0000
0100
0000
0010
0000
0001
,
0000
0010
0000
0001
0000
1000
0000
0001
,
0000
1000
0000
0001
0000
1000
0000
0010
,
0000
1000
0000
0010
0000
1000
0000
0100
,
0000
0010
0000
0001
0000
0100
0000
0001
,
0000
0010
0000
0001
0000
0010
0000
0100
,
0000
1000
0000
0100
0000
0001
0000
0100
,
0000
1000
0000
0000
0000
0001
0000
0001
,
0000
1000
1000
0000
,
1010
0000
0000
1001
0000
0000
0011
0000
,
0001
0000
1000
0000
0001
0000
0000
0010
,
0000
0010
0000
0010
0000
0000
0001
0000
,
0001
1000
0100
0010
,
0000
0000
0000
0011
0000
0000
0000
0011
0000
0000
0000
0000
0001
0000
0000
0000
,
0001
0001
0000
1010
,
0000
1010
0000
0000
0001
0000
0011
0000
,
0000
0011
0000
0000
0000
0000
1000
0000
,
0001
1000
0100
1000
,
0000
1001
0000
0000
0000
0000
0002
0000
,
0000
0010
0000
0013
,
0000
0000
0000
1000
,
0000
0000
1000
0000
0000
0001
0000
0000
,
0000
0001
0000
0000
0100
0000
0000
0000
,
0100
0000
0000
0010
0000
0000
0000
0010
,
0000
1000
1000
1000
,
0000
0001
0000
0010
0000
0001
0000
0000
,
1000
0000
0001
0000
1000
0000
0000
0001
,
0000
0010
0000
0100
0000
0000
0000
1000
,
0000
0000
0000
1000
0000
0001
0000
0000
,
0000
0001
0000
1010
0000
0000
0000
0011
,
0000
0000
0000
1001
0000
0000
1001
0000
,
1000
0000
1000
0000
,
0001
0010
0100
1000
,
0001
0000
0001
1000
,
1000
1010
0000
0000
,
0001
0010
0001
1000
,
0100
0001
0100
1000
,
0001
0000
1000
0000
,
0001
0010
0100
1000
,
0010
0000
1000
0100
,
0010
0011
0000
0001
,
1000
1001
0000
1000
,
0010
1010
0000
0000
,
0001
1000
0001
0100
,
0010
1000
0001
1000
,
0010
0000
0010
0000
,
1000
0001
1000
0001
,
1000
0100
0010
0001
,
1000
0000
0000
1001
0000
0000
0000
0000
;

//---------------dance-single - ----------------
#NOTES:
     dance-single:
     :
     Beginner:
     2:
     0.153388,0.236506,0.180625,0.000000,0.000000,107.000000,89.000000,18.000000,0.000000,0.000000,0.000000,0.153388,0.236506,0.180625,0.000000,0.000000,107.000000,89.000000,18.000000,0.000000,0.000000,0.000000:
0000
0000
0000
0000
,
0000
0000
0000
0000
0000
0000
0000
1000
,
0000
1000
0000
1000
0000
1000
0000
0000
,
0000
0000
0000
0000
0000
0010
0000
0000
,
0000
0000
0000
0000
0000
1000
0000
0000
,
0000
0000
0000
0000
0000
0001
0000
0000
,
0000
0000
0000
0000
0000
1000
0000
0000
,
0000
0000
0000
0000
0000
0100
0000
0000
,
0000
0100
0000
0000
0000
1000
0000
0000
,
0000
0001
0000
0000
0000
0100
0000
0000
,
0000
0100
0000
0000
0000
1000
0000
0000
,
0000
0001
0000
0000
0000
0001
0000
0001
,
0000
1000
0000
0000
,
0010
0000
0010
0000
,
1001
0000
0000
0000
,
0001
0000
0001
0000
,
0000
1000
0000
1000
,
0000
1001
0000
0000
,
0000
0110
0000
0001
,
0000
0001
0000
1000
,
0000
1000
0000
0010
,
0010
0010
0010
0010
,
0000
0000
0000
1000
,
0000
0001
0000
1001
,
0000
0000
0000
1000
,
0000
0000
0000
0000
0000
0001
0000
0000
,
0000
0000
0100
0000
,
0000
0000
0000
0010
0000
0000
0000
0000
,
0000
1000
0000
1000
,
0000
0001
0000
0000
0000
0001
0000
0000
,
1001
0000
0000
0000
1001
0000
0000
0110
,
0000
0000
0000
0110
0000
0000
0000
1000
,
0000
0000
0000
0000
0000
0001
0000
0000
,
0000
0000
0000
1001
0000
0000
0000
1001
,
0000
0000
0000
0110
0000
0000
0000
0000
,
1000
0000
1000
0000
,
0001
0001
0001
0000
,
0100
0000
0010
0000
,
1001
0000
0000
0000
,
0001
0000
1000
0000
,
0001
0000
1000
0000
,
0010
0000
0100
0000
,
0110
0000
0000
0000
,
1000
0000
0001
0000
,
1001
0000
0000
0000
,
0110
0000
0000
0000
,
1001
0000
0000
0000
,
1000
0000
1000
0000
,
0010
0000
0100
0000
,
0010
0010
0010
0010
,
0010
0000
0100
0000
,
0110
0000
0000
0000
,
0000
0000
0000
1001
0000
0000
0000
0000
;
