#TITLE:Bad Girls;
#SUBTITLE:;
#ARTIST:M.I.A.;
#TITLETRANSLIT:;
#SUBTITLETRANSLIT:;
#ARTISTTRANSLIT:;
#GENRE:;
#CREDIT:;
#BANNER:Bad Girls.png;
#BACKGROUND:Bad Girls-bg.png;
#LYRICSPATH:;
#CDTITLE:cdtitle.png;
#MUSIC:Bad Girls.ogg;
#OFFSET:-0.800000;
#SAMPLESTART:46.869995;
#SAMPLELENGTH:13.359999;
#SELECTABLE:YES;
#DISPLAYBPM:0.000000:143.000000;
#BPMS:0.000000=143.300003
,76.000000=71.650002
,77.000000=143.300003
,165.000000=141.209000
,165.500000=137.046005
,166.000000=132.882996
,166.500000=128.720001
,167.000000=124.556992
,167.500000=120.393990
,168.000000=116.231003
,168.500000=112.068001
,169.000000=100.000000
,170.000000=71.650002
,171.000000=143.300003
;
#STOPS:199.000000=1.250000
;
#BGCHANGES:;
#KEYSOUNDS:;
#ATTACKS:;

//---------------dance-single - ----------------
#NOTES:
     dance-single:
     :
     Hard:
     9:
     0.501345,0.584450,0.380130,0.767048,0.061092,517.000000,461.000000,56.000000,113.000000,0.000000,0.000000,0.501345,0.584450,0.380130,0.767048,0.061092,517.000000,461.000000,56.000000,113.000000,0.000000,0.000000:
// measure 0
0000
0000
0000
0000
,  // measure 1
0000
0000
0000
0000
,  // measure 2
0000
0000
0000
0000
,  // measure 3
0000
0000
2100
3002
,  // measure 4
0203
0000
0320
0000
2030
3000
2000
3000
,  // measure 5
0001
0010
0001
0000
0102
0000
2003
0000
,  // measure 6
3200
0000
0320
0000
0230
0300
0200
0300
,  // measure 7
1000
0001
1000
0000
0021
0000
0130
1000
,  // measure 8
1001
0000
1000
0010
1000
1000
0010
0100
,  // measure 9
0001
0000
0001
0100
1020
0000
0130
0001
,  // measure 10
1001
0000
1000
0100
0010
0010
0001
0100
,  // measure 11
1000
0100
0001
0000
2002
0000
3003
0000
,  // measure 12
0000
0010
0202
0303
,  // measure 13
0000
0000
1000
0010
0001
0010
0100
0001
,  // measure 14
1000
0000
1000
0001
0020
0000
0030
0000
,  // measure 15
0000
0001
2020
3030
,  // measure 16
0000
0001
0220
0330
,  // measure 17
0000
0000
1000
0100
0010
0100
1000
0010
,  // measure 18
0100
0001
1000
0100
0010
0000
0000
0000
,  // measure 19
0200
0000
1300
0001
0100
0001
1000
0000
,  // measure 20
0001
0000
0100
1000
0100
0001
0010
0100
,  // measure 21
1000
0000
0011
0000
1000
0010
0100
0000
,  // measure 22
0020
0030
2000
3000
0100
0010
0001
0010
,  // measure 23
0100
0000
1000
0001
0010
0001
1000
0000
,  // measure 24
1000
0000
0001
0100
1000
0100
0010
0100
,  // measure 25
0002
0003
1000
0100
0010
0001
1000
0010
,  // measure 26
0100
0000
1000
0000
0100
0000
0010
0000
1000
0000
0100
0000
0010
0000
0001
0100
,  // measure 27
0001
0100
0001
0100
0002
0000
0000
0000
2003
0000
0000
0000
3020
0000
0000
0000
,  // measure 28
0230
0000
0302
0003
0002
0003
1000
0100
,  // measure 29
1000
2010
3002
0023
,  // measure 30
0230
0000
0320
0030
0020
0030
0001
1000
,  // measure 31
0001
1020
0032
0023
,  // measure 32
2030
3000
1000
0010
0110
0100
0101
0000
,  // measure 33
1000
0021
2030
3020
,  // measure 34
0230
0000
0300
0000
0200
0000
0300
0000
2000
0000
3000
0000
0010
0000
1000
0001
,  // measure 35
1000
0001
1000
0001
2000
0000
0000
0000
3001
0000
0010
0000
0110
0000
0000
0000
,  // measure 36
0010
0001
0100
0100
0001
0010
0100
0000
,  // measure 37
0100
0010
1002
0000
1003
0010
0110
0000
,  // measure 38
0010
1000
0100
0100
1000
0010
0100
0010
,  // measure 39
1000
0000
0021
0000
0130
1000
1001
0000
,  // measure 40
1000
0010
1000
1000
0010
0100
0001
0000
,  // measure 41
0001
0100
1020
0000
0130
0001
1001
0000
,  // measure 42
1000
0100
0010
0020
0000
0030
2200
0000
,  // measure 43
3300
1000
0010
0000
0100
0000
1001
0100
,  // measure 44
0101
0100
0110
0000
1000
0100
0001
0100
,  // measure 45
0010
0001
1000
0000
1000
0001
0200
0010
,  // measure 46
0300
0000
0010
0000
0100
0000
0001
0010
0001
0010
0001
0010
0002
0000
0000
0000
,  // measure 47
0003
0100
1000
0000
0100
0000
1020
0100
,  // measure 48
0030
0100
1010
0000
1000
0010
0100
0001
,  // measure 49
1000
0100
0010
0001
0100
1000
0100
0000
,  // measure 50
0001
0010
0100
1000
1010
0000
2000
3000
,  // measure 51
0002
1003
1010
0010
0110
0100
0001
0100
,  // measure 52
0010
1000
0100
1000
1010
0000
0010
1000
,  // measure 53
0001
0000
1000
0000
0100
0000
1000
0000
0001
0000
0100
0010
0100
0010
0100
0010
,  // measure 54
0100
0001
0010
0100
1100
0000
0002
0000
,  // measure 55
0203
0300
2000
3000
0002
0003
0020
0030
2000
0000
0000
0000
3001
0000
0000
0000
,  // measure 56
1010
1000
0001
0010
0200
0000
0301
0100
,  // measure 57
0010
0001
0100
0010
0002
0000
0013
0000
,  // measure 58
2001
0000
3002
0000
0203
0000
0310
1000
,  // measure 59
0200
0300
0100
1000
0020
0030
0010
0100
,  // measure 60
1001
0100
0010
0001
0100
0020
0000
0130
,  // measure 61
0002
0000
1003
0100
0020
0000
0130
1000
,  // measure 62
1001
0010
2000
0000
3200
0000
2300
3000
,  // measure 63
2000
3000
0010
0100
0002
0003
0020
0030
,  // measure 64
1001
0001
0100
1000
0200
0000
1300
0100
,  // measure 65
0001
0010
2000
0000
3020
0000
0031
0000
,  // measure 66
0202
0000
0303
0001
0010
0000
0100
0000
,  // measure 67
1001
0100
1100
0100
0110
0000
0001
0100
,  // measure 68
1000
0100
0010
1000
0001
0000
0001
1000
,  // measure 69
0200
0010
0300
0010
1100
0000
0001
0000
,  // measure 70
0220
0000
0330
0001
1010
0000
0100
0000
,  // measure 71
1010
1000
1001
0001
0011
0000
0001
0010
,  // measure 72
0100
1000
0001
0100
0010
1000
0100
0001
,  // measure 73
0100
0000
1000
0000
0000
0000
1000
0000
0011
0000
0001
1000
0001
1000
0001
1000
,  // measure 74
0002
2003
3020
0230
,  // measure 75
0302
0003
0002
0003
1000
0100
1000
0000
,  // measure 76
2010
3002
0023
0230
,  // measure 77
0320
0030
0020
0030
0001
1000
0001
0000
,  // measure 78
1200
0302
0023
2030
,  // measure 79
3001
0100
0110
0010
1010
0000
0100
0000
,  // measure 80
0201
2300
3020
0032
,  // measure 81
2003
0000
3000
0000
2000
0000
3000
0000
0011
0000
0001
0100
0001
0100
0001
0100
,  // measure 82
0001
0000
0000
0000
;
