#VERSION:0.83;
#TITLE:Ain't My Fault;
#SUBTITLE:;
#ARTIST:Zara Larsson;
#TITLETRANSLIT:;
#SUBTITLETRANSLIT:;
#ARTISTTRANSLIT:;
#GENRE:;
#ORIGIN:;
#CREDIT:;
#BANNER:[Prime Time] - Ain't My Fault.png;
#BACKGROUND:[Prime Time] - Ain't My Fault-bg.png;
#PREVIEWVID:;
#JACKET:[Prime Time] - Ain't My Fault-jacket.png;
#CDIMAGE:;
#DISCIMAGE:;
#LYRICSPATH:;
#CDTITLE:;
#MUSIC:[Prime Time] - Ain't My Fault.ogg;
#OFFSET:1.648213;
#SAMPLESTART:15.153000;
#SAMPLELENGTH:13.400000;
#SELECTABLE:YES;
#BPMS:0.000=141.000;
#STOPS:166.000=0.426;
#DELAYS:;
#WARPS:;
#TIMESIGNATURES:0.000=4=4;
#TICKCOUNTS:0.000=4;
#COMBOS:0.000=1;
#SPEEDS:0.000=1.000=0.000=0;
#SCROLLS:0.000=1.000;
#FAKES:;
#LABELS:0.000=Song Start;
#BGCHANGES:;
#KEYSOUNDS:;
#ATTACKS:
;

//---------------dance-single - ----------------
#NOTEDATA:;
#CHARTNAME:;
#STEPSTYPE:dance-single;
#DESCRIPTION:;
#CHARTSTYLE:;
#DIFFICULTY:Hard;
#METER:9;
#RADARVALUES:0.499397,0.710850,0.187098,0.059084,0.162480,355.000000,336.000000,19.000000,6.000000,0.000000,0.000000,0.000000,0.000000,0.000000,0.499397,0.710850,0.187098,0.059084,0.162480,355.000000,336.000000,19.000000,6.000000,0.000000,0.000000,0.000000,0.000000,0.000000;
#CREDIT:;
#NOTES:
// measure 0
0000
0000
0000
0000
,  // measure 1
0000
0000
0000
0000
,  // measure 2
0000
0000
0000
0000
,  // measure 3
0000
0000
0000
0000
,  // measure 4
0000
0000
0000
0000
,  // measure 5
0000
0000
0000
0000
,  // measure 6
0001
0100
0010
1000
0100
0100
0100
0000
,  // measure 7
0010
0000
0001
1000
0010
0000
0100
0000
,  // measure 8
0010
0000
1000
0000
0100
0000
0010
0000
0001
0010
0001
0010
0001
0000
0000
0000
,  // measure 9
0000
0000
0000
0000
,  // measure 10
0001
1000
0000
1001
0000
0001
0010
0000
,  // measure 11
0001
0100
1000
0000
0100
0000
0101
0000
,  // measure 12
0001
0100
0000
0110
0000
1000
0100
0000
,  // measure 13
0010
0001
0100
0000
0010
0000
1000
0000
,  // measure 14
1000
0001
0000
1001
0000
1000
0010
0000
,  // measure 15
1000
0100
0001
0000
0100
0000
1100
0000
,  // measure 16
1000
0100
0000
0110
0000
0001
0100
0000
,  // measure 17
0010
0000
1000
0001
0000
1000
0001
0000
0010
0000
0100
0000
1000
0000
0010
0100
,  // measure 18
0001
0000
0010
0000
0100
0000
0000
0000
1000
0100
0010
0000
0001
0000
0100
0001
,  // measure 19
0100
0000
0010
1000
0010
0000
1000
0100
1000
0000
0001
0000
0010
0000
0001
0100
,  // measure 20
0001
0000
0100
0000
0010
0000
0000
0000
1000
0100
1000
0100
0010
0001
0010
0001
,  // measure 21
0100
0010
1000
0100
0010
0100
1000
0000
0001
0000
0100
0000
0010
0000
0000
0000
,  // measure 22
0101
0010
1000
0000
1100
0010
0001
0000
,  // measure 23
0101
0000
0010
0000
1100
0000
0010
0000
0101
0000
0010
0000
1100
0000
0010
0001
,  // measure 24
0100
0010
1000
0000
0001
0010
0100
1000
,  // measure 25
0010
0000
1000
0010
0000
0100
0001
0000
0100
0000
0001
0000
0010
0000
0100
1000
,  // measure 26
0100
0000
0000
1000
0010
0010
0010
0010
,  // measure 27
0000
0100
0001
1000
0100
0010
0100
0000
,  // measure 28
1000
0000
0000
0001
0010
0010
0010
0010
,  // measure 29
0000
0100
1000
0001
0100
0010
0100
0000
,  // measure 30
0001
0000
0000
1000
0100
0100
0100
0100
,  // measure 31
0000
0010
0001
1000
0010
0100
0001
0000
,  // measure 32
1000
0000
0000
0001
0010
0100
1000
0000
,  // measure 33
0000
0000
0000
0000
0000
0001
0100
0010
,  // measure 34
1000
1000
0001
0001
,  // measure 35
0010
0100
1000
0000
2200
0000
3300
0000
,  // measure 36
0001
0001
1000
1000
,  // measure 37
0010
0100
0001
0000
0202
0000
0303
0000
,  // measure 38
1000
0000
0000
0001
0100
0100
0100
0100
,  // measure 39
0000
0010
1000
0100
0010
0001
1000
0000
,  // measure 40
1000
0000
0000
0001
0100
0010
1000
0000
,  // measure 41
0001
0010
0100
1000
0001
0000
1001
0000
,  // measure 42
0001
1000
0010
1000
0001
0000
1000
0000
,  // measure 43
0100
0010
0001
0000
0011
0000
0001
1000
,  // measure 44
0100
0000
1000
0000
0010
0100
0001
0100
0001
0000
0010
0000
0100
0000
0000
0000
,  // measure 45
0010
0000
0001
0100
0010
1000
0100
1000
,  // measure 46
0001
0100
0001
1000
0001
0000
1000
0000
,  // measure 47
0100
0010
0001
0000
1100
0000
1000
0010
,  // measure 48
0100
0000
0001
0000
0010
0100
1000
0100
1000
0000
0010
0000
0100
0000
0010
1000
,  // measure 49
0000
0010
1000
0000
0001
0000
0010
0000
0100
0000
1000
0001
0100
0000
0010
0000
,  // measure 50
1000
0100
0010
0001
0010
0000
0100
0000
,  // measure 51
1000
0010
0100
0000
0101
0000
0001
0100
,  // measure 52
0010
0000
1000
0000
0001
0010
0001
0010
0100
0000
1000
0000
0010
0000
1000
0000
,  // measure 53
0001
0010
0100
1000
0100
0000
0010
0001
,  // measure 54
0100
0010
1000
0001
0010
0000
0100
0000
,  // measure 55
1000
0001
0100
0000
1010
0000
1000
0000
,  // measure 56
0002
0000
0000
0000
0013
0000
0000
0000
2000
0000
0000
0000
3010
0000
0100
0001
,  // measure 57
0000
1000
0100
0000
1000
0000
0010
0000
0100
0000
0001
0010
0100
0000
0000
0000
;
