#TITLE:Water Me;
#SUBTITLE:;
#ARTIST:Lizzo;
#TITLETRANSLIT:;
#SUBTITLETRANSLIT:;
#ARTISTTRANSLIT:;
#CREDIT:SupremeX;
#BANNER:Water Me-bn.png;
#BACKGROUND:Water Me-bg.png;
#LYRICSPATH:;
#CDTITLE:cdtitle.png;
#MUSIC:Water Me.ogg;
#OFFSET:-0.009;
#SAMPLESTART:50.960;
#SAMPLELENGTH:12.000;
#SELECTABLE:YES;
#BPMS:0.000=113.010;
#STOPS:;
#BGCHANGES:;

//---------------dance-single - ----------------
#NOTES:
     dance-single:
     :
     Hard:
     7:
     0.462,0.421,0.327,0.062,0.062: // measure 1
0000
0000
0000
0000
,  // measure 2
0000
0000
0000
0000
,  // measure 3
0000
0000
0000
0000
,  // measure 4
0000
0000
0000
0000
,  // measure 5
1000
0000
0010
0000
0100
0000
0010
0000
1001
0000
0000
1001
0000
0000
0100
0000
,  // measure 6
0010
0000
1000
0000
0001
0000
1000
0000
0110
0000
0000
0110
0000
0000
0000
0000
,  // measure 7
0001
0000
0001
0000
1000
0000
0000
0010
0100
0000
0000
0100
0000
0000
0010
0000
,  // measure 8
1000
0000
0100
0000
0010
0000
0001
0000
1000
0000
0000
1010
0000
0000
0202
0000
,  // measure 9
0303
0000
0010
0100
0100
0000
1000
0100
,  // measure 10
1000
0001
1000
0100
1000
0000
0001
0100
,  // measure 11
0010
0100
0010
1000
1000
0000
0001
0100
,  // measure 12
0010
1000
0100
0010
0001
0010
0010
0100
,  // measure 13
1000
1100
0000
0010
0001
0010
0100
0000
,  // measure 14
1001
1001
0000
0100
0010
1000
0001
0100
,  // measure 15
0110
0000
0000
0110
0000
0000
0010
0000
0010
0000
0000
0000
1000
0000
0100
0000
,  // measure 16
1000
0100
1000
1000
0100
0010
0011
0100
,  // measure 17
0100
1000
0100
1000
0100
1000
1000
1000
,  // measure 18
0100
0010
0001
0010
0001
0001
0001
1000
,  // measure 19
0010
0100
0010
1000
0010
0010
0010
0000
,  // measure 20
0101
1010
1001
0110
,  // measure 21
0001
0100
0001
1000
0010
0100
0010
0000
,  // measure 22
1000
0100
1000
0100
0010
0001
0010
0001
,  // measure 23
0000
1000
0001
0100
0010
1000
0001
0100
,  // measure 24
0101
1010
1001
1001
,  // measure 25
0100
0000
0010
0000
0100
0000
0000
0000
0110
0000
0000
0110
0000
0000
0001
0000
,  // measure 26
0010
0000
0100
0000
1000
0000
0000
0000
1100
0000
0000
1100
0000
0000
0000
0000
,  // measure 27
0010
0001
0010
0000
0100
1000
0100
0000
,  // measure 28
0010
0000
0001
0000
0010
0000
0100
0000
1000
0000
0000
1001
0000
0000
0000
0000
,  // measure 29
0100
0000
0010
0000
0100
0000
0000
0000
0101
0000
0000
1010
0000
0000
0001
0000
,  // measure 30
0100
0000
0001
0000
1000
0000
0000
0000
0110
0000
0000
0110
0000
0000
0000
0000
,  // measure 31
0001
1000
0001
0000
1000
0100
1000
0000
,  // measure 32
0010
0100
0001
0100
0010
0100
0001
1000
,  // measure 33
0001
0000
0100
0010
0010
0000
1000
0001
,  // measure 34
0001
0100
0010
0100
0010
0000
1000
0001
,  // measure 35
0100
0000
0010
0010
1000
0000
0001
0100
,  // measure 36
0010
1000
0010
0100
0001
0000
1000
0100
,  // measure 37
0100
1000
0100
0010
0001
0001
0100
0010
,  // measure 38
1000
1000
0001
0100
0010
0010
1000
0001
,  // measure 39
0002
0000
0000
0003
0000
0000
1000
0000
0100
0000
1000
0000
0000
0000
0010
0000
,  // measure 40
0020
0000
0000
0030
0000
0000
0100
0000
0200
0000
0000
0300
0010
0000
1000
0000
,  // measure 41
0010
0100
0001
1000
0100
0100
0010
0001
,  // measure 42
0010
0100
1000
0010
0100
0100
0001
1000
,  // measure 43
2000
0000
0000
3000
0000
0000
0001
0000
1000
0000
0010
0000
0000
0000
0100
0000
,  // measure 44
0200
0000
0000
0300
0000
0000
0010
0000
0020
0000
0000
0030
0000
0000
1000
0001
,  // measure 45
0000
0100
0010
1000
0010
0100
0100
0100
,  // measure 46
0000
0001
1000
0100
0010
0001
0001
0001
,  // measure 47
0000
1000
0010
0100
0010
1000
1000
1000
,  // measure 48
0000
0100
0010
0100
0010
0010
0010
0000
,  // measure 49
0001
1000
0001
0100
0010
1000
0010
0000
,  // measure 50
0100
0001
1000
0001
0100
0010
0100
0000
,  // measure 51
0001
1000
0100
1000
0100
0010
0001
0000
,  // measure 52
0101
0000
1010
0000
0101
0001
1001
0000
,  // measure 53
0100
0000
0010
0000
0100
0000
0000
0000
1001
0000
0000
1001
0000
0000
0010
0000
,  // measure 54
0100
0000
0001
0000
1000
0000
0000
0000
1100
0000
0000
1100
0000
0000
0000
0000
,  // measure 55
0010
0001
0010
0000
0100
1000
0100
0000
,  // measure 56
0010
0001
1000
0010
0100
0001
1000
0100
,  // measure 57
1000
0000
0100
0000
0010
0000
0000
0000
0011
0000
0000
0011
0000
0000
0100
0000
,  // measure 58
1000
0000
0100
0000
0010
0000
0000
0000
1001
0000
0000
1001
0000
0000
0000
0000
,  // measure 59
0100
0010
0100
0000
0001
1000
0100
1000
,  // measure 60
0100
0010
0001
0010
0001
1000
0100
1000
,  // measure 61
1001
0000
0000
0000
;

//---------------dance-single - ----------------
#NOTES:
     dance-single:
     :
     Medium:
     5:
     0.288,0.351,0.117,0.000,0.062:
0000
0000
0000
0000
,
0000
0000
0000
0000
,
0000
0000
0000
0000
,
0000
0000
0000
0000
,
1000
0000
0000
0000
0001
0000
0000
0000
1000
0000
0000
1000
0000
0000
0000
0000
,
0010
0000
0000
0000
0100
0000
0000
0000
0010
0000
0000
0010
0000
0000
0000
0000
,
1000
0000
0000
0000
0001
0000
0000
0000
0100
0000
0000
0100
0000
0000
0000
0000
,
0010
0000
1000
0000
0010
0000
1000
0000
0010
0000
0000
0010
0000
0000
0100
0000
,
0000
1000
0010
0100
,
0001
1000
0001
0000
1000
0000
0010
0000
,
0100
0001
0100
0000
0010
0000
1000
0000
,
0010
0000
0100
0000
0001
1000
0001
0000
,
1000
1000
0000
0000
0010
0000
0100
0000
,
0001
0001
0000
0000
1000
0000
0010
0000
,
0100
0000
0000
0100
0000
0000
0000
0000
0001
0000
0000
0000
1000
0000
0000
0000
,
0010
0100
0010
0000
1000
1000
1000
0000
,
0001
0100
0010
1000
,
0000
0001
0100
0010
,
0000
1000
0010
0100
,
0000
0001
1000
0000
0110
0000
0110
0000
,
0000
0001
0001
0001
,
0000
1000
1000
1000
,
0000
0010
0010
0010
,
0100
0101
0010
1010
,
0001
0000
0000
0000
0100
0000
0000
0000
0010
0000
0000
0010
0000
0000
0000
0000
,
1000
0000
0000
0000
0001
0000
0000
0000
0100
0000
0000
0100
0000
0000
0000
0000
,
0010
0000
0000
0000
1000
0000
0000
0000
0001
0000
0000
0001
0000
0000
0000
0000
,
1000
0000
0010
0000
0100
0001
0100
0000
,
0010
0000
0000
0000
1000
0000
0000
0000
0001
0000
0000
0001
0000
0000
0000
0000
,
1000
0000
0000
0000
0010
0000
0000
0000
1000
0000
0000
1000
0000
0000
0000
0000
,
0001
0000
0000
0000
0100
0000
0000
0000
0010
0000
0000
0010
0000
0000
0000
0000
,
1000
0000
0000
0000
0001
0000
0000
0000
0100
0000
0000
0110
0000
0000
0000
0000
,
0010
0000
0000
1000
1000
0000
0001
0000
,
0100
0010
1000
0000
0001
0100
0010
0000
,
1000
0000
0001
0001
0001
0000
1000
0000
,
0010
0000
0100
0010
0100
0000
0001
0000
,
1000
0000
0001
1000
0001
0000
1000
0000
,
0010
0000
0100
0010
0100
0000
0010
0000
,
1000
0000
0000
0001
0001
0001
0000
1000
,
1000
0000
0000
0010
0010
0000
0100
0000
,
0001
0000
0100
0010
0100
0000
0001
0000
,
1000
0000
0010
1000
0010
0000
0100
0000
,
0001
0000
0000
1000
1000
1000
0000
0010
,
0010
0000
0000
0100
0100
0000
0000
0001
,
0000
0000
1000
0000
0001
0000
1000
1000
,
0000
0000
0010
0000
0100
0000
0010
0010
,
0000
0000
1000
0000
0001
0000
1000
1000
,
0000
0000
0001
0000
0100
0010
0100
0000
,
0001
1000
1010
1010
,
0001
0100
0101
0101
,
0010
1000
1010
1010
,
0001
1000
0010
0100
,
0001
0000
1000
0000
0001
0000
0000
0000
1000
0000
0000
1000
0000
0000
0000
0000
,
0010
0000
0100
0000
0010
0000
0000
0000
0100
0000
0000
0100
0000
0000
0000
0000
,
0001
1000
0010
0000
0100
0001
0100
0000
,
0010
1000
0010
0100
,
0001
0000
0000
0000
1000
0000
0000
0000
0001
0000
0000
0001
0000
0000
0000
0000
,
1000
0000
0000
0000
0010
0000
0000
0000
0100
0000
0000
0100
0000
0000
0000
0000
,
0001
1000
0001
0000
0100
0010
0100
0000
,
0001
1001
1010
0101
,
1001
0000
0000
0000
;

//---------------dance-single - ----------------
#NOTES:
     dance-single:
     :
     Easy:
     3:
     0.234,0.281,0.117,0.000,0.066:
0000
0000
0000
0000
,
0000
0000
0000
0000
,
0000
0000
0000
0000
,
0000
0000
0000
0000
,
1000
0000
0000
0000
0010
0000
0000
0000
0100
0000
0000
0100
0000
0000
0000
0000
,
0001
0000
0000
0000
1000
0000
0000
0000
0010
0000
0000
0010
0000
0000
0000
0000
,
1000
0000
0000
0000
0001
0000
0000
0000
1000
0000
0000
1000
0000
0000
0000
0000
,
0010
0100
0001
1000
,
0010
0100
0001
0001
,
1000
1000
0010
0000
,
0100
0001
1000
0010
,
0100
0001
0001
0001
,
1000
0000
0010
0100
,
0001
0000
1000
0000
,
0010
0010
0100
0100
,
0001
1000
0001
0000
,
1000
1000
1000
1000
,
0010
0010
0010
0010
,
0100
0100
0100
0100
,
0001
1001
1000
1001
,
0010
0010
0010
0010
,
0100
0100
0100
0100
,
0001
0001
0001
0001
,
1000
1001
0001
1001
,
0010
0000
0000
0000
0100
0000
0000
0000
0010
0000
0000
0010
0000
0000
0000
0000
,
1000
0000
0000
0000
0001
0000
0000
0000
1000
0000
0000
1000
0000
0000
0000
0000
,
0001
0000
0000
0000
0100
0000
0000
0000
0001
0000
0000
0001
0000
0000
0000
0000
,
1000
0000
0000
0000
0010
0000
0000
0000
0100
0000
0000
0100
0000
0000
0000
0000
,
0001
0000
0000
0000
1000
0000
0000
0000
0010
0000
0000
0010
0000
0000
0000
0000
,
1000
0000
0000
0000
0001
0000
0000
0000
0100
0000
0000
0100
0000
0000
0000
0000
,
0010
0000
0000
0000
1000
0000
0000
0000
1000
0000
0000
1000
0000
0000
0000
0000
,
0001
0000
0000
0000
0100
0000
0000
0000
0001
0000
0000
0001
0000
0000
0000
0000
,
1000
0000
0110
0000
,
0001
1000
0001
0000
,
1000
0000
1001
0000
,
0001
1000
0001
0100
,
0010
0000
1000
0000
,
0001
0100
0010
0000
,
1000
0000
0001
0000
,
1001
0000
1001
0000
,
0010
0100
0010
0000
,
1000
0001
1000
0000
,
0110
0000
0110
0000
,
1001
0000
1001
0000
,
0001
0000
0000
0100
,
0000
0010
0000
1000
,
0000
0001
0000
0100
,
0000
0010
1000
0010
,
0100
0100
0100
0100
,
0001
0001
0001
0001
,
1000
1000
1000
1000
,
0001
1000
0001
1000
,
0001
0000
0000
0000
1000
0000
0000
0000
0010
0000
0000
0010
0000
0000
0000
0000
,
0100
0000
0000
0000
0001
0000
0000
0000
1000
0000
0000
1000
0000
0000
0000
0000
,
0010
0000
0000
0000
0100
0000
0000
0000
0001
0000
0000
0001
0000
0000
0000
0000
,
1000
0010
0100
0001
,
1000
0000
0000
0000
0010
0000
0000
0000
0100
0000
0000
0100
0000
0000
0000
0000
,
0001
0000
0000
0000
1000
0000
0000
0000
0010
0000
0000
0010
0000
0000
0000
0000
,
1000
0000
0000
0000
0001
0000
0000
0000
0100
0000
0000
0100
0000
0000
0000
0000
,
0010
1010
0001
0101
,
1001
0000
0000
0000
;

//---------------dance-single - Copied from----------------
#NOTES:
     dance-single:
     Copied from:
     Beginner:
     1:
     0.110,0.117,0.000,0.023,0.000:
0000
0000
0000
0000
,
0000
0000
0000
0000
,
0000
0000
0000
0000
,
0000
0000
0000
0000
,
0010
0000
0000
0000
,
0100
0000
0000
0000
,
0010
0000
0000
0000
,
0100
0000
0000
0000
,
0000
0001
0000
0000
,
0000
0001
0000
0000
,
0000
1000
0000
0000
,
0000
1000
0000
0000
,
0010
0000
0000
0000
,
0100
0000
0000
0000
,
0010
0000
0000
0000
,
0100
0000
0000
0000
,
0001
0000
0001
0000
,
1000
0000
1000
0000
,
0001
0000
0001
0000
,
1000
0000
1000
0000
,
0010
0000
0010
0000
,
0100
0000
0100
0000
,
0010
0000
0010
0000
,
0100
0000
0100
0000
,
0001
0000
1000
0000
,
0001
0000
1000
0000
,
0001
0000
1000
0000
,
0010
0000
0100
0000
,
0001
0000
1000
0000
,
0001
0000
1000
0000
,
0001
0000
1000
0000
,
0010
0000
0100
0000
,
0001
0000
1000
0000
,
0010
0000
0100
0000
,
0001
0000
1000
0000
,
0010
0000
0100
0000
,
0001
0000
0001
0000
,
0001
0000
0001
0000
,
0100
0000
0100
0000
,
0010
0000
0010
0000
,
1000
0000
1000
0000
,
1000
0000
1000
0000
,
0010
0000
0010
0000
,
0100
0000
0100
0000
,
0002
0000
0000
0003
,
2000
0000
0000
3000
,
0000
0002
0000
0003
,
0000
1000
1000
1000
,
0000
0000
0010
0000
,
0000
0000
0100
0000
,
0000
0000
0010
0000
,
0100
0000
0100
0000
,
0001
0000
1000
0000
,
0001
0000
1000
0000
,
0001
0000
1000
0000
,
0010
0000
0100
0000
,
0001
0000
1000
0000
,
0001
0000
1000
0000
,
0010
0000
0100
0000
,
0010
0000
0100
0000
,
0010
0000
0000
0000
;
