#TITLE:Troll the Cowardly;
#SUBTITLE:(Sick Candy Terror of Feryquitous);
#ARTIST:Feryquitous;
#TITLETRANSLIT:;
#SUBTITLETRANSLIT:;
#ARTISTTRANSLIT:;
#GENRE:Jazzy Electro;
#CREDIT:;
#BANNER:[Keyboardmania] - Troll the Cowardly (Sick Candy Terror of Feryquitous).png;
#BACKGROUND:[Keyboardmania] - Troll the Cowardly (Sick Candy Terror of Feryquitous)-bg.png;
#LYRICSPATH:;
#CDTITLE:cdtitle.png;
#MUSIC:[Keyboardmania] - Troll the Cowardly (Sick Candy Terror of Feryquitous).ogg;
#OFFSET:-0.048048;
#SAMPLESTART:13.289427;
#SAMPLELENGTH:13.241379;
#SELECTABLE:YES;
#BPMS:0.000000=145.000000
;
#STOPS:
;
#BGCHANGES:;
#KEYSOUNDS:;
#ATTACKS:;

//---------------dance-single - ----------------
#NOTES:
     dance-single:
     12-17:
     Challenge:
     12:
     1.015148,1.029125,0.434394,0.098353,1.585949,867.000000,814.000000,53.000000,12.000000,0.000000,0.000000,1.015148,1.029125,0.434394,0.098353,1.585949,867.000000,814.000000,53.000000,12.000000,0.000000,0.000000:
// measure 0
0000
0000
0000
0000
,  // measure 1
0000
0000
0000
0000
,  // measure 2
0000
0000
0000
0000
,  // measure 3
0000
0000
0000
0000
,  // measure 4
1000
0000
0000
0000
0010
0000
0100
0000
0000
0000
0010
0000
0000
0000
0010
0000
0000
0000
1000
0000
0000
0000
0001
1000
0001
0000
0000
0000
0010
0000
0000
0000
,  // measure 5
0100
0000
1000
0100
0000
0100
0000
0010
0000
0010
0001
1000
0001
1000
0010
0100
,  // measure 6
0001
0000
0000
0000
0010
0000
0100
0000
0000
0000
0010
0000
0000
0000
0010
0000
0000
0000
0001
0000
0000
0000
1000
0001
1000
0000
0000
0000
0010
0000
0000
0000
,  // measure 7
0100
0001
1000
0001
0010
0000
0001
1000
0010
0000
0010
1000
0001
0000
0000
0000
,  // measure 8
1000
0000
0010
0100
0000
0010
0000
0001
0000
0010
0100
0100
0001
0000
0010
0000
,  // measure 9
0100
0000
0001
0100
0000
0010
0001
0001
1000
0000
0001
0100
0010
1000
0100
0010
,  // measure 10
0001
0000
0100
0010
0000
0100
0000
1000
0000
0100
0010
0010
1000
0000
0001
0000
,  // measure 11
0010
0001
1000
0001
0100
0000
0010
1000
0100
0000
0010
0001
0100
0000
0001
1000
,  // measure 12
0001
0000
0010
0100
0000
0010
0000
1000
0000
0010
0100
0100
1000
0000
0010
0000
,  // measure 13
0100
0000
1000
0100
0000
0010
1000
1000
0001
0000
1000
0100
0010
0001
0100
0010
,  // measure 14
1000
0000
0100
0010
0000
0100
0000
0001
0000
0100
0010
0010
0001
0000
1000
0000
,  // measure 15
0010
1000
0001
1000
0100
0000
0010
0001
0100
0000
0010
1000
0100
0000
1000
0001
,  // measure 16
1000
0000
0000
0000
0000
0000
0010
0000
0000
0000
0000
0000
0100
0000
0001
0000
0100
0000
0001
0000
0000
1000
0000
0000
0000
0000
0000
1000
0000
0000
0001
0000
0000
0100
0000
0000
0001
0000
0000
0010
0000
0000
0000
0000
0000
0010
0000
0000
,  // measure 17
0001
0000
0000
0000
0000
0000
1000
0000
0000
0000
0000
0000
0001
0000
0100
0000
0001
0000
0100
0000
0000
0010
0000
0000
1000
0000
0000
0000
0000
0000
0010
0000
0000
1000
0000
0000
0100
0000
0000
0010
0000
0000
0100
0000
0000
0010
0000
0000
,  // measure 18
0001
0000
0000
0000
0100
0000
0000
0000
0001
0000
0000
0000
1000
0000
0001
0000
0000
0000
0001
0000
0000
0000
0001
1000
0100
0000
0000
0000
0010
0000
0000
0000
,  // measure 19
0100
0000
0000
0000
0000
0000
0001
0000
0000
0000
0000
0000
0100
0000
0000
0000
0000
0000
0010
0000
0000
0001
0000
0000
1000
0000
0010
0000
1000
0000
0010
0000
0000
0100
0000
0000
0001
0000
0000
0100
0000
0000
0010
0000
0000
1000
0000
0000
,  // measure 20
0001
0000
0000
0000
0000
0000
0010
0000
0000
0000
0000
0000
0100
0000
1000
0000
0100
0000
1000
0000
0000
0001
0000
0000
0000
0000
0000
0001
0000
0000
1000
0000
0000
0100
0000
0000
1000
0000
0000
0010
0000
0000
0000
0000
0000
0010
0000
0000
,  // measure 21
1000
0000
0000
0000
0000
0000
0001
0000
0000
0000
0000
0000
1000
0000
0100
0000
1000
0000
0100
0000
0000
0010
0000
0000
0001
0000
0000
0000
0000
0000
0010
0000
0000
0001
0000
0000
0100
0000
0000
0010
0000
0000
0100
0000
0000
0010
0000
0000
,  // measure 22
1000
0000
0000
0000
0100
0000
0000
0000
1000
0000
0000
0000
0001
0000
1000
0000
0000
0000
1000
0000
0000
0000
1000
0001
0100
0000
0000
0000
0010
0000
0000
0000
,  // measure 23
0100
0000
0000
0000
0000
0000
1000
0000
0000
0000
0000
0000
0100
0000
0000
0000
0000
0000
0010
0000
0000
1000
0000
0000
0001
0000
0010
0000
0001
0000
0010
0000
0000
0100
0000
0000
1000
0000
0000
0100
0000
0000
0010
0000
0000
0001
0000
0000
,  // measure 24
1000
0010
1000
0010
1000
0000
0001
0010
0000
0010
0001
1000
0000
1000
0001
0100
,  // measure 25
0001
1000
0001
1000
0001
0000
1000
0010
0000
0010
1000
0001
0000
0001
1000
0100
,  // measure 26
1000
0001
1000
0001
1000
0000
0010
0100
0000
0001
0010
0100
1000
0000
1100
0000
,  // measure 27
0001
0000
0100
0000
0010
0000
0100
0000
1000
0000
0000
0000
1000
0000
0100
0000
0010
0000
0100
0000
0001
0000
0000
0000
0000
0000
0001
1000
0001
0000
1000
0000
,  // measure 28
0001
0010
0000
0011
0000
0010
0001
1000
0001
0100
0000
0101
0000
0100
0001
0010
,  // measure 29
0001
0000
1000
0000
0000
0000
1001
0000
0000
0000
1000
0001
1000
0000
0010
0000
0100
0000
0010
0000
1000
0000
0001
0000
1000
0000
0100
0000
0010
0000
0100
0000
,  // measure 30
1000
0010
0000
1010
0000
0010
1000
0001
1000
0100
0000
1100
0000
0100
1000
0010
,  // measure 31
1000
0000
0000
0000
0000
0000
0000
0000
0000
0000
0000
0000
0001
0000
0000
0000
0000
0000
0000
0000
0000
0000
0000
0000
0000
0000
0000
0000
0000
0000
0000
0000
0000
0000
0000
0000
1001
0000
0000
0000
0000
0000
0000
0000
0000
0000
0000
0000
0000
0000
0000
0000
0000
0000
0000
0000
0000
0000
0000
0000
0001
0000
0000
0000
0000
0000
1000
0000
0000
0000
0000
0000
0001
0000
0000
0000
0000
0000
0000
0000
0000
0000
0000
0000
0010
0000
0000
0000
0000
0000
0000
0000
0000
0000
0000
0000
0100
0000
0000
0000
0000
0000
0000
0000
0000
0000
0000
0000
0010
0000
0000
0000
0000
0000
0000
0000
0000
0000
0000
0000
0100
0000
0000
0000
0000
0000
0000
0000
0010
0000
0000
0000
0000
0000
0000
0000
0100
0000
0000
0000
0000
0000
0000
0000
0010
0000
0000
0000
0000
0000
0000
0000
0100
0000
0000
0000
0000
0000
0000
0000
0010
0000
0000
0000
0000
0000
0000
0000
0100
0000
0000
0000
0000
0000
0000
0000
0010
0000
0000
0000
0000
0000
0000
0000
0100
0000
0000
0000
0000
0000
0000
0000
,  // measure 32
0010
0001
1000
0010
0000
0001
0000
0010
0000
0010
1000
0001
0000
0001
1000
0100
,  // measure 33
0010
0000
0100
0000
0000
0000
1100
0000
0000
0000
0001
0010
0001
0000
1000
0000
0001
0000
0100
0000
0010
0000
1000
0000
0100
0000
0010
0000
0001
0000
1000
0000
,  // measure 34
0010
1000
0001
0010
0000
1000
0000
0010
0000
0010
0001
1000
0000
1000
0001
0100
,  // measure 35
0010
0000
0000
0100
0000
0000
1000
0000
0000
0000
0000
0000
0100
0000
0000
0010
0000
0000
0100
0000
0000
0001
0000
0000
1000
0000
0100
0000
1000
0000
0100
0000
0000
0010
0000
0000
0001
0000
0000
0100
0000
0000
0001
0000
0000
0100
0000
0000
,  // measure 36
0101
0000
0000
0000
0000
0000
0001
0000
0100
0000
0001
1000
0200
0000
0000
0000
0000
0000
0302
0000
0000
0000
0000
0000
0103
0000
1000
0000
0001
0000
0100
0000
,  // measure 37
0101
0000
1010
0000
0101
0000
1000
0100
1000
0010
1000
0001
1000
1000
0100
0010
,  // measure 38
0001
0100
0001
0100
0010
1000
0100
0100
0010
0000
0011
0000
1100
0000
1000
0100
,  // measure 39
0010
0000
0001
0000
0100
0000
0010
0000
0000
0000
0010
0000
0000
0000
0100
0000
0010
0000
0100
0010
0100
0000
0000
0000
2002
0000
0000
0000
3003
0000
0000
0000
,  // measure 40
1100
0000
0000
0000
0100
0000
1000
0000
0100
0000
1000
0001
0200
0000
0000
0000
0000
0000
2300
0000
0000
0000
0000
0000
3100
0000
0001
0000
1000
0000
0100
0000
,  // measure 41
1100
0000
0011
0000
1100
0000
0001
0100
0001
0010
0001
1000
0001
0001
0100
0010
,  // measure 42
1000
0100
1000
0100
0010
0001
0100
0100
0010
0000
1010
0000
0101
0000
0001
0100
,  // measure 43
0010
0000
1000
0000
0100
0000
0010
0000
0000
0000
0010
0000
0000
0000
0100
0000
0010
0000
0100
0010
0100
0000
0000
0000
0010
0000
0001
0000
0100
0000
0010
0000
,  // measure 44
1000
0000
0010
0001
0000
0010
0000
1000
0000
0001
0000
0200
0000
0000
0310
0000
,  // measure 45
1000
0000
0100
0010
0000
0100
0000
0001
0000
0100
0010
0100
1000
0001
1000
0001
,  // measure 46
0100
0000
0010
1000
0000
0010
0000
0001
0000
0010
0000
2000
0000
0000
3001
0000
,  // measure 47
1000
0100
0010
0001
1000
0000
0001
0100
0010
0000
1000
0100
0010
0000
0000
0000
,  // measure 48
0001
0000
0100
0010
0000
0101
0000
1010
0000
1000
0100
0100
0010
0000
0001
0000
,  // measure 49
0100
0000
1000
0100
0000
0010
1000
1000
0100
0000
0010
0100
0001
0100
0010
0001
,  // measure 50
1000
0000
0010
0100
0000
1010
0000
0101
0000
0001
0010
0010
0100
0000
0010
0000
,  // measure 51
1000
0010
0001
0100
1000
0000
0100
0001
0010
0000
0100
1000
0010
0000
1000
0001
,  // measure 52
1000
0000
0100
0010
0000
1100
0000
0011
0000
0001
0100
0100
0010
0000
1000
0000
,  // measure 53
0100
0000
0001
0100
0000
0010
0001
0001
0100
0000
0010
0100
1000
0100
0010
1000
,  // measure 54
0001
0000
0010
0100
0000
0011
0000
1100
0000
1000
0010
0010
0100
0000
0010
0000
,  // measure 55
0001
0010
1000
0100
0001
0000
0100
1000
0010
0000
0100
0001
0010
0000
0001
1000
,  // measure 56
0001
0000
0000
0000
0000
0000
0101
0000
0000
0000
0000
0000
1000
0000
0010
0000
1000
0000
0010
0000
0000
0100
0000
0000
0000
0000
0000
0001
0000
0000
0100
0000
0000
1000
0000
0000
0100
0000
0000
0001
0000
0000
0000
0000
0000
0001
0000
0000
,  // measure 57
0010
0000
0000
0000
0000
0000
0011
0000
0000
0000
0000
0000
1000
0000
0100
0000
1000
0000
0100
0000
0000
0010
0000
0000
0001
0000
0000
0000
0000
0000
0010
0000
0000
0100
0000
0000
0001
0000
0000
0100
0000
0000
0010
0000
0000
0100
0000
0000
,  // measure 58
1000
0000
0000
0000
1001
0000
0000
0000
1000
0000
0000
0000
0001
0000
0100
0000
0000
0000
0110
0000
0000
0000
0100
0001
1000
0000
0000
0000
0100
0000
0000
0000
,  // measure 59
0010
0000
0000
0000
0000
0000
0011
0000
0000
0000
0000
0000
1000
0000
0000
0000
0000
0000
0001
0000
0000
0100
0000
0000
0010
0000
1000
0000
0010
0000
1000
0000
0000
0100
0000
0000
0010
0000
0000
0001
0000
0000
0100
0000
0000
0010
0000
0000
,  // measure 60
1000
0000
0000
0000
0000
0000
1100
0000
0000
0000
0000
0000
0001
0000
0010
0000
0001
0000
0010
0000
0000
0100
0000
0000
0000
0000
0000
1000
0000
0000
0100
0000
0000
0001
0000
0000
0100
0000
0000
1000
0000
0000
0000
0000
0000
1000
0000
0000
,  // measure 61
0010
0000
0000
0000
0000
0000
1010
0000
0000
0000
0000
0000
0001
0000
0100
0000
0001
0000
0100
0000
0000
0010
0000
0000
1000
0000
0000
0000
0000
0000
0010
0000
0000
0100
0000
0000
1000
0000
0000
0100
0000
0000
0010
0000
0000
0100
0000
0000
,  // measure 62
0001
0000
0000
0000
1001
0000
0000
0000
0001
0000
0000
0000
1000
0000
0100
0000
0000
0000
0110
0000
0000
0000
0100
1000
0001
0000
0000
0000
0100
0000
0000
0000
,  // measure 63
0010
0010
0010
0110
,  // measure 64
1001
0000
0001
1000
0001
0000
0101
0000
0120
0000
1030
0010
1000
0010
0001
0010
,  // measure 65
1000
0000
0110
0000
0001
1000
0100
0000
0110
0000
0001
0001
0010
0100
1000
0000
,  // measure 66
1100
0000
0000
0000
0101
0000
0000
0000
0020
0000
0000
0000
0130
0000
0000
0000
1001
0000
0000
0000
0001
0000
0000
0000
0100
0000
0010
0000
0100
0000
0010
1000
,  // measure 67
0001
0010
0000
0010
0000
0010
0100
0000
2100
0000
0001
0000
3010
0000
0000
0000
,  // measure 68
0101
0000
0100
0100
0001
1000
0100
0000
0120
0000
0000
0000
0031
0010
1000
0010
,  // measure 69
0001
0000
0110
0000
1000
0010
0100
0010
1000
0001
0100
0000
0100
0100
0010
1000
,  // measure 70
0001
0010
0100
1000
1100
0000
0011
0000
1000
0001
0100
0000
1000
0100
0010
0100
,  // measure 71
0001
0010
0100
1000
0001
0000
0010
0001
0100
0000
0010
1000
0100
0000
0000
0000
;

//---------------dance-single - ----------------
#NOTES:
     dance-single:
     10-15:
     Hard:
     10:
     0.811416,0.793896,0.295060,0.081961,1.081887,693.000000,657.000000,36.000000,10.000000,0.000000,0.000000,0.811416,0.793896,0.295060,0.081961,1.081887,693.000000,657.000000,36.000000,10.000000,0.000000,0.000000:
0000
0000
0000
0000
,
0000
0000
0000
0000
,
0000
0000
0000
0000
,
0000
0000
0000
0000
,
1000
0000
0000
0001
0000
0001
0000
0001
0000
0000
1000
0000
0100
0000
0010
0000
,
0100
0000
0000
1000
0000
1000
0000
1000
0000
0000
1010
0000
0000
0110
0000
0000
,
0101
0000
0000
1000
0000
1000
0000
1000
0000
0000
0001
0000
0010
0000
0100
0000
,
0020
0000
0000
0000
0130
0000
0000
0110
0000
0000
0000
0000
0000
0000
0000
0000
,
1000
0000
0010
0100
0000
0010
0000
0001
0000
0010
0000
0010
0100
0000
0010
0000
,
1000
0000
0100
0010
0000
0100
0000
1000
0001
0000
0100
0000
0010
1000
0010
1000
,
0010
0000
1000
0100
0000
0010
0000
0100
0000
0001
0000
0001
0100
0000
0010
0000
,
0100
1000
0100
1000
0001
0000
1000
0010
1000
0000
0001
0010
0001
0000
0000
0000
,
0001
0000
0010
0100
0000
0010
0000
1000
0000
0010
0000
0010
0100
0000
0010
0000
,
0001
0000
0100
0010
0000
0100
0000
0001
1000
0000
0100
0000
0010
0001
0010
0001
,
0010
0000
0001
0100
0000
0010
0000
0100
0000
1000
0000
1000
0100
0000
0010
0000
,
0100
0001
0100
0001
1000
0000
0001
0010
0001
0000
1000
0010
1000
0000
0000
0000
,
1000
0000
0010
0000
0100
0001
0100
0001
0000
0001
1000
0000
1000
0100
0000
0010
,
0100
0000
0001
0000
0100
0010
0100
0010
0100
0000
1000
0000
0010
1000
0010
1000
,
0000
1000
0010
0000
1000
0000
0001
0010
0000
0100
0000
0100
0010
0000
0001
0000
,
0100
0000
1000
0000
0100
0000
0001
0000
1000
0010
1000
0000
0001
0010
0001
0010
,
0001
0000
0010
0000
0100
1000
0100
1000
0000
1000
0001
0000
0001
0100
0000
0010
,
0100
0000
1000
0000
0100
0010
0100
0010
0100
0000
0001
0000
0010
0001
0010
0001
,
0000
0001
0010
0000
0001
0000
1000
0010
0000
0100
0000
0100
0010
0000
1000
0000
,
0100
0000
0001
0000
0100
0000
1000
0000
0001
0010
0001
0000
1000
0010
0100
0001
,
1000
0010
0100
0000
0100
0010
1000
0000
,
0001
0010
0100
0000
0100
0010
0001
0000
,
1000
0010
0001
0000
0001
0010
1000
0100
,
0001
0000
0000
0000
0110
0000
1000
0000
0001
1000
0001
0000
0000
0000
1000
0000
,
0010
1000
0000
1000
0000
0100
0010
0000
0100
1000
0000
1000
0000
0010
0100
0000
,
1000
0100
0000
0100
0000
0100
0001
0100
0010
0000
1000
0000
0100
0010
0100
0000
,
0010
0001
0000
0001
0000
0100
0010
0000
0100
0001
0000
0001
0000
0010
0100
0000
,
0001
0100
0000
0100
0000
0100
1000
0001
0100
0000
0001
0100
0010
1000
0100
0010
,
0001
0000
1000
0100
0000
0010
0000
1000
0000
0010
0200
0000
0000
0000
1300
0000
,
0001
0100
0000
0100
0000
0100
0010
1000
0100
0000
0010
0000
0001
0010
0001
0000
,
1000
0000
0001
0100
0000
0010
0000
0001
0000
0010
0200
0000
0000
0000
0301
0000
,
0010
0100
0010
0000
0100
0000
1000
0000
0001
0100
0001
0000
1000
0100
0010
0001
,
1000
0000
0000
0000
0001
1000
0010
0000
0000
0110
0000
0000
1000
0001
0100
0001
,
1000
0000
0100
0000
0001
0000
0100
0001
0100
0000
1000
0000
0010
1000
0010
1000
,
0001
0000
0000
0000
0101
0000
1000
0010
1000
0000
0100
0000
0100
0000
0010
0000
,
0001
1000
0010
0100
0000
0100
0000
0010
0100
0010
0100
0000
2002
0000
3003
0000
,
0001
0000
0001
0000
1000
0001
0010
0000
0000
0110
0000
0000
0001
1000
0100
1000
,
0001
0000
0100
0000
1000
0000
0100
1000
0100
0000
0001
0000
0010
0001
0010
0001
,
1000
0000
0000
0000
1100
0000
0001
0010
0001
0000
0100
0000
0100
0000
0010
0000
,
1000
0001
0010
0100
0000
0100
0000
0010
0100
1000
0001
0000
1000
0010
0100
0001
,
1000
0000
0001
0010
0000
0100
0000
0010
0000
0100
0000
2000
0000
0000
3001
0000
,
1000
0000
0010
0100
0000
0010
0000
0100
0000
0001
0100
0000
0001
1000
0001
1000
,
0001
0000
1000
0100
0000
0010
0000
0100
0000
0010
0000
0002
0000
0000
1003
0000
,
0001
0100
0010
1000
0001
0000
1000
0100
1000
0000
0001
0100
0001
0000
0000
0000
,
0001
0000
0010
0100
0000
0010
0000
0011
0000
1001
0000
0001
0100
0000
0010
0000
,
0001
0000
0010
0100
0000
0110
0000
1010
0000
1000
0100
0000
0010
0001
1000
0001
,
0100
0000
0001
0100
0000
0010
0000
1010
0000
1001
0000
1000
0100
0000
0001
0000
,
0100
0010
0100
1000
0100
0000
1000
0010
0100
0000
0001
0010
0100
0000
0000
0000
,
1000
0000
0010
0100
0000
0010
0000
1010
0000
1001
0000
1000
0100
0000
0010
0000
,
1000
0000
0010
0100
0000
0110
0000
0011
0000
0001
0100
0000
0010
1000
0001
1000
,
0100
0000
1000
0100
0000
0010
0000
0011
0000
1001
0000
0001
0100
0000
1000
0000
,
0100
0010
0100
0001
0100
0000
0001
0010
0100
0000
1000
0010
0100
0000
0000
0000
,
0001
0000
0011
0000
0100
1000
0001
1000
0000
0001
0100
0000
1000
0100
0000
0100
,
0001
0000
0110
0000
1000
0010
0100
0010
1000
0000
0100
0000
0010
0001
1000
0010
,
0000
0010
1000
0000
0001
0000
0100
0001
0000
1001
0000
1000
0100
0000
0010
0000
,
0100
0000
1001
0000
0010
0000
1000
0000
0001
0100
0010
0000
1000
0100
0010
0001
,
1000
0000
1010
0000
0100
0001
1000
0001
0000
1000
0100
0000
0001
0100
0000
0100
,
1000
0000
0110
0000
0001
0010
0100
0010
0001
0000
0100
0000
0010
1000
0001
0010
,
0000
0010
0001
0000
1000
0000
0100
1000
0000
1001
0000
0001
0100
0000
0010
0000
,
0100
0100
0100
1001
,
1000
0000
0001
0100
0001
0000
0110
0000
1002
0000
1003
0100
0010
0001
0010
0100
,
1000
0000
0001
0000
0010
0001
0100
0000
0010
0000
0100
0010
0100
0010
1000
0000
,
0001
0000
0010
0000
1000
0000
0010
0000
0001
0000
0100
0000
0010
0100
0001
0100
,
0010
1000
0000
1000
0000
1000
0100
0000
0120
0000
0001
0000
0130
0000
0000
0000
,
0100
0000
1000
0000
0001
1000
0001
0000
0201
0000
0000
0000
0310
1000
0010
1000
,
0100
0000
0010
0000
0100
1000
0001
0100
0010
0000
0100
0000
0010
0100
0010
0100
,
0001
0000
0000
0000
0011
0000
1100
0000
0001
0100
0001
0000
0100
0000
0010
0000
,
1000
0100
0010
0001
1000
0000
0001
0100
0010
0000
1000
0010
0100
0000
0000
0000
;

//---------------dance-single - ----------------
#NOTES:
     dance-single:
     08-11:
     Medium:
     8:
     0.522210,0.499861,0.229491,0.114746,0.385217,446.000000,418.000000,28.000000,14.000000,0.000000,0.000000,0.522210,0.499861,0.229491,0.114746,0.385217,446.000000,418.000000,28.000000,14.000000,0.000000,0.000000:
0000
0000
0000
0000
,
0000
0000
0000
0000
,
0000
0000
0000
0000
,
0000
0000
0000
0000
,
1000
0000
0010
1000
0001
0000
0100
0001
,
1000
0000
0001
1000
0100
0000
0010
0001
,
1000
0000
0010
1000
0100
0000
0010
0001
,
0200
0000
0000
0000
0310
0000
0000
0110
0000
0000
0000
0000
0000
0000
0000
0000
,
1000
0000
0000
0010
0000
1000
0000
0001
0000
0000
0001
0000
0001
0000
1000
0000
,
0100
0000
0000
0010
0000
0100
0000
1000
0000
0000
0001
0000
0100
0000
0010
0000
,
1000
0000
0000
0010
0000
1000
0000
0001
0000
0000
0001
0000
0001
0000
0010
0000
,
1000
0010
0001
0000
1100
0000
0101
0000
,
0001
0000
0000
0010
0000
0001
0000
1000
0000
0000
1000
0000
1000
0000
0001
0000
,
0100
0000
0000
0010
0000
0100
0000
0001
0000
0000
1000
0000
0100
0000
0010
0000
,
0001
0000
0000
0010
0000
0001
0000
1000
0000
0000
1000
0000
1000
0000
0010
0000
,
0001
0010
1000
0000
0101
0000
1100
0000
,
1000
0000
0010
0000
0100
0000
0000
0001
0000
0000
0010
0000
0100
0000
0000
0100
,
0000
0000
0010
0000
0001
0000
0000
1000
0000
0000
0010
0000
0100
0000
0000
0001
,
0000
0000
0001
0000
1000
0000
0000
0100
0000
0100
0000
0000
0100
0000
0010
0000
,
0001
0000
1001
0000
0000
0000
0001
0000
0100
0000
0010
0000
1000
0000
0000
0001
,
0000
0000
0010
0000
0100
0000
0000
1000
0000
0000
0010
0000
0100
0000
0000
0100
,
0000
0000
0010
0000
1000
0000
0000
0001
0000
0000
0010
0000
0100
0000
0000
1000
,
0000
0000
1000
0000
0001
0000
0000
0100
0000
0100
0000
0000
0100
0000
0010
0000
,
1000
1001
0000
0001
0010
0100
1000
0001
,
0100
0100
0010
0010
,
1000
1000
0001
0001
,
0010
0010
0100
0100
,
1000
0000
0001
0100
0010
0010
0000
0000
,
1000
0000
0000
1100
0000
0000
0001
0000
0100
0000
0000
0101
0000
0000
0010
0000
,
1000
0000
0000
1100
0000
0000
0100
0000
0010
0000
0100
0000
1000
0000
0000
0000
,
0001
0000
0000
0011
0000
0000
1000
0000
0010
0000
0000
1010
0000
0000
0100
0000
,
0001
0000
0000
0011
0000
0000
1000
0000
0010
0000
0100
0000
0001
0000
0000
0000
,
0010
0000
0000
0001
0000
0001
0000
0200
0000
0000
0320
0000
0000
0000
1030
0000
,
0100
0000
0000
1100
0000
0000
0010
0000
0001
0000
0100
0000
0010
0000
0100
0000
,
0010
0000
0000
1000
0000
1000
0000
0200
0000
0000
0320
0000
0000
0000
0031
0000
,
1000
1001
0000
0001
0100
0010
1000
0001
,
1001
0000
0000
0000
1000
0000
0200
0000
0000
0010
0000
0000
1000
0000
1300
0000
,
0100
0010
0001
1000
0010
0000
0100
0100
,
0010
0000
1000
0010
0001
0010
1000
0000
,
0100
0000
0000
0010
0000
0010
0000
0010
0200
0000
0300
0000
2002
0000
3003
0000
,
1000
0000
1000
0000
0001
0000
0200
0000
0000
0010
0000
0000
0001
0000
0301
0000
,
0100
0010
1000
0001
0010
0000
0100
0100
,
0010
0000
0001
0010
1000
0010
0001
0000
,
0100
0000
0000
0010
0000
0010
0000
0010
0200
0000
0000
0000
0310
0000
1000
0000
,
0001
0000
0000
0010
0000
0000
0000
0001
0000
0000
0000
0010
0000
0000
0001
0000
,
1000
0000
0000
0100
0000
0000
0000
1000
0000
0000
0100
0000
1000
0000
0001
0000
,
0100
0000
0000
0010
0000
0000
0000
0100
0000
0000
0000
0010
0000
0000
1000
0000
,
0001
1000
0100
0000
0110
0000
1001
0000
,
1000
0000
0000
0010
0000
1000
0000
0100
0000
0000
0010
0000
0010
0000
0100
0000
,
0001
0000
0000
0001
0000
0100
0000
1000
0000
0000
0001
0000
0100
0000
0010
0000
,
1000
0000
0000
0010
0000
1000
0000
0100
0000
0000
0100
0000
0100
0000
0010
0000
,
0001
0100
1000
0000
1010
0000
0011
0000
,
0001
0000
0000
0010
0000
0001
0000
0100
0000
0000
0010
0000
0010
0000
0100
0000
,
1000
0000
0000
1000
0000
0100
0000
0001
0000
0000
1000
0000
0100
0000
0010
0000
,
0001
0000
0000
0010
0000
0001
0000
0100
0000
0000
0100
0000
0100
0000
0010
0000
,
1000
0100
0001
0000
0011
0000
1010
0000
,
1000
0000
0010
0000
0001
0000
0000
0001
0000
0000
0010
0000
1000
0000
0000
1000
,
0000
0000
1000
0000
0100
0000
0000
0010
0000
0000
0001
0000
0100
0000
0000
0010
,
0000
0000
0010
0000
0100
0000
0000
0001
0000
0001
0000
0000
1000
0000
0100
0000
,
0010
0000
0011
0000
0000
0000
0001
0000
0100
0000
0010
0000
1000
0000
0000
0001
,
0000
0000
0010
0000
1000
0000
0000
1000
0000
0000
0010
0000
0001
0000
0000
0001
,
0000
0000
0001
0000
0100
0000
0000
0010
0000
0000
1000
0000
0100
0000
0000
0010
,
0000
0000
0010
0000
0100
0000
0000
1000
0000
1000
0000
0000
0001
0000
0100
0000
,
0010
0010
0010
0110
,
1001
0000
1000
0010
0002
0000
0013
0010
,
1000
0001
1000
0100
0010
0001
0001
0000
,
1000
0100
0001
0100
1000
1000
0001
0000
,
0100
0000
0000
0010
0000
0100
0010
0000
0200
0000
0000
0000
0310
0000
1000
0000
,
0100
1000
0100
0010
0002
0000
1003
1000
,
0100
0001
0100
1000
0010
0000
0100
0100
,
0001
0100
1000
0100
0001
0010
0100
1000
,
0001
0010
1000
0000
1010
0000
0011
0000
;

//---------------dance-single - ----------------
#NOTES:
     dance-single:
     05-07:
     Easy:
     5:
     0.394584,0.411650,0.172118,0.081961,0.000000,337.000000,316.000000,21.000000,10.000000,0.000000,0.000000,0.394584,0.411650,0.172118,0.081961,0.000000,337.000000,316.000000,21.000000,10.000000,0.000000,0.000000:
0000
0000
0000
0000
,
0000
0000
0000
0000
,
0000
0000
0000
0000
,
0000
0000
0000
0000
,
1000
0010
0100
0010
,
1000
1000
0100
0010
,
0001
0100
0010
0100
,
0001
1001
0100
0000
,
0001
0000
0010
0000
0100
0010
0100
0000
,
1000
0000
1000
0000
0001
0100
0001
0000
,
1000
0000
0010
0000
0100
0010
0100
0000
,
0001
1000
0100
0000
0110
0000
0011
0000
,
1000
0000
0010
0000
0100
0010
0100
0000
,
0001
0000
0001
0000
1000
0100
1000
0000
,
0001
0000
0010
0000
0100
0010
0100
0000
,
1000
0001
0100
0000
0110
0000
1010
0000
,
0001
0010
0100
0000
0010
0000
0001
0000
,
1000
0010
0100
0000
0001
0000
0001
0000
,
1000
0100
1000
0000
0001
0100
0001
0000
,
1010
0000
0101
0000
0001
0010
0001
0000
,
1000
0010
0100
0000
0010
0000
1000
0000
,
0001
0010
0100
0000
1000
0000
1000
0000
,
0001
0100
0001
0000
1000
0100
1000
0000
,
0011
0000
1100
0000
1000
0010
1000
0000
,
0001
0010
0001
0010
,
0100
1000
0100
1000
,
0010
1000
0010
1000
,
0001
0000
0100
0000
0001
0100
0000
0000
,
0001
0001
1000
1000
,
0001
0000
0001
0000
0010
0100
0010
0000
,
0001
0001
1000
1000
,
0001
0000
0001
0000
0100
0010
0100
0010
,
0100
0010
2000
3000
,
0100
0001
0100
1000
,
0100
0010
0002
0003
,
0100
0010
0100
0000
1000
0000
0100
0000
,
0001
0000
0001
0020
0000
0000
0130
0000
,
1000
0001
0100
0000
0010
0000
0020
0000
,
1030
0000
0010
1000
0100
0000
0010
0000
,
0100
0010
0001
0000
1000
0000
1001
0000
,
0001
0000
1000
0020
0000
0000
0130
0000
,
0001
1000
0100
0000
0010
0000
0020
0000
,
0031
0000
0010
0001
0100
0000
0010
0000
,
0100
0010
1000
0000
0001
0000
1001
0000
,
1000
0100
0001
0010
,
0001
0100
1000
0010
,
0001
0100
0001
0010
,
1000
0000
0000
0000
,
1000
0000
0010
0000
0001
0010
0001
0000
,
0010
0000
1000
0000
1000
0100
0010
0000
,
0001
0000
0010
0000
1000
0010
1000
0000
,
0010
0001
0100
0000
0110
0000
1010
0000
,
0001
0000
0100
0000
1000
0100
1000
0000
,
0100
0000
0001
0000
0001
0010
0100
0000
,
1000
0000
0100
0000
0001
0100
0001
0000
,
0100
1000
0010
0000
0110
0000
0101
0000
,
1000
0010
0100
0000
1000
0000
0100
0000
,
0010
1000
0100
0000
0001
0000
0100
0000
,
1000
0100
1000
0000
0010
1000
0010
0000
,
0011
0000
1010
0000
1000
0001
1000
0000
,
0001
0010
0100
0000
0001
0000
0100
0000
,
0010
0001
0100
0000
1000
0000
0100
0000
,
0001
0100
0001
0000
0010
0001
0010
0001
,
0000
0000
0000
0000
,
1001
0000
0001
1000
0020
0000
0130
0000
,
0010
0100
0001
0000
1000
0000
0200
0000
,
0310
0000
0001
0000
0010
0001
0100
0000
,
0010
0010
0100
1001
,
1000
0000
0001
1000
0200
0000
0310
0000
,
0100
0010
0001
0000
1000
0000
0020
0000
,
0130
0000
0010
0100
0001
1000
0100
0000
,
0010
0100
0010
0000
0110
0000
1001
0000
;

//---------------dance-single - ----------------
#NOTES:
     dance-single:
     02-03:
     Beginner:
     2:
     0.187340,0.203673,0.024588,0.016392,0.000000,160.000000,157.000000,3.000000,2.000000,0.000000,0.000000,0.187340,0.203673,0.024588,0.016392,0.000000,160.000000,157.000000,3.000000,2.000000,0.000000,0.000000:
0000
0000
0000
0000
,
0000
0000
0000
0000
,
0000
0000
0000
0000
,
0000
0000
0000
0000
,
1000
0000
1000
0000
,
0001
0000
0001
0000
,
1000
0000
0001
0000
,
1001
0000
0000
0000
,
0001
0001
0001
0000
,
0010
0010
0010
0000
,
0100
0100
0100
0000
,
0010
0000
0001
0000
,
1000
1000
1000
0000
,
0010
0010
0010
0000
,
0100
0100
0100
0000
,
0010
0000
1000
0000
,
0001
0001
0001
0000
,
0010
0010
0010
0000
,
0100
0000
0100
0000
,
1000
0000
0010
0000
,
1000
1000
1000
0000
,
0010
0010
0010
0000
,
0100
0000
0100
0000
,
0001
0000
0010
0000
,
0001
0000
0001
0000
,
1000
0000
1000
0000
,
0001
0000
1000
0000
,
1001
0000
0000
0000
,
0001
0000
0001
0000
,
0001
0000
0100
0000
,
0010
0000
0010
0000
,
0010
0000
1000
0000
,
0100
0100
0100
0000
,
0010
0000
0001
0000
,
0100
0100
0100
0000
,
0010
0000
1000
0000
,
0002
0000
0000
0003
0000
0000
0000
0000
,
0010
0000
0001
0001
,
0001
0000
0100
0000
,
0010
0010
0010
0000
,
2000
0000
0000
3000
0000
0000
0000
0000
,
0010
0000
1000
1000
,
1000
0000
0100
0000
,
0010
0010
0010
0000
,
0100
0000
0000
0000
,
1000
0000
0000
0000
,
0001
0000
0000
0000
,
0100
0000
0000
0000
,
0001
0010
0001
0000
,
1000
0100
1000
0000
,
0001
0010
0001
0000
,
1000
0000
0010
0000
,
1000
0010
1000
0000
,
0001
0100
0001
0000
,
1000
0010
1000
0000
,
0001
0000
0010
0000
,
0100
0010
0100
0000
,
0010
0100
0010
0000
,
0001
0000
0001
0000
,
1000
0000
0001
0000
,
0100
0010
0100
0000
,
0010
0100
0010
0000
,
1000
0000
0001
0000
,
0010
0000
0000
0000
,
0001
1000
0001
0000
,
1000
0000
0010
0010
,
0010
0000
0100
0000
,
0010
0010
0010
0000
,
1000
0001
1000
0000
,
0001
0000
0010
0010
,
0010
0000
0100
0000
,
0110
0000
0000
0000
;
