#TITLE:Summer Reflection;
#SUBTITLE:;
#ARTIST:はるなば;
#TITLETRANSLIT:;
#SUBTITLETRANSLIT:;
#ARTISTTRANSLIT:haru_naba;
#GENRE:;
#CREDIT:;
#BANNER:[Keyboardmania] - Summer Reflection.png;
#BACKGROUND:[Keyboardmania] - Summer Reflection-bg.png;
#LYRICSPATH:;
#CDTITLE:;
#MUSIC:[Keyboardmania] - Summer Reflection.ogg;
#OFFSET:-0.044000;
#SAMPLESTART:14.574048;
#SAMPLELENGTH:15.000000;
#SELECTABLE:YES;
#BPMS:0.000000=132.000000
,128.000000=66.000000
,136.000000=132.000000
,159.000000=170.000000
;
#STOPS:159.000000=1.912000
;
#BGCHANGES:;
#KEYSOUNDS:;
#ATTACKS:;

//---------------dance-single - ----------------
#NOTES:
     dance-single:
     :
     Hard:
     8:
     0.505022,0.523640,0.134530,0.209269,0.313904,427.000000,18.000000,28.000000,0.000000,0.000000,0.000000,0.505022,0.523640,0.134530,0.209269,0.313904,427.000000,18.000000,28.000000,0.000000,0.000000,0.000000:
// measure 0
0000
0000
0000
0000
,  // measure 1
0000
0000
0000
0000
,  // measure 2
0000
0000
0000
0000
,  // measure 3
0000
0000
0000
0000
,  // measure 4
2000
0000
0000
0000
0000
0000
0000
0000
0000
0000
0000
0000
3000
0001
0000
0002
,  // measure 5
0000
0000
0000
0003
,  // measure 6
0200
0000
0000
0000
0000
0000
0000
0000
0000
0000
0000
0000
0300
0010
0000
0020
,  // measure 7
0000
0000
0000
0030
,  // measure 8
1000
0000
0000
0100
0000
0010
0000
0100
0000
0000
1000
0000
0000
0001
0000
0001
,  // measure 9
0000
0000
0001
0000
0100
0000
0010
0000
0000
0100
0000
0000
0001
0000
0010
0000
,  // measure 10
0100
0000
0000
1000
0000
0001
0000
1000
0000
0000
0010
0000
0000
1000
0000
0001
,  // measure 11
0000
0000
0010
0000
0100
0000
0010
0000
0000
0001
0000
0000
1000
0000
1000
0000
,  // measure 12
0001
0000
0000
0100
0000
0010
0000
0100
0000
0000
0001
0000
0000
1000
0000
1000
,  // measure 13
0000
0000
1000
0000
0100
0000
0010
0000
0000
0100
0000
0000
1000
0000
0001
0000
,  // measure 14
0100
0000
0000
0101
0000
0000
0010
0000
0000
1100
0000
0000
1000
0001
0000
0220
,  // measure 15
0000
0000
0000
0330
,  // measure 16
1000
0000
0100
0010
0000
0100
1000
0002
,  // measure 17
0100
0000
0000
0000
0100
0000
0000
0000
0000
0000
0000
0000
0003
0000
0001
0010
,  // measure 18
0001
0000
1000
0010
0000
1000
0001
0200
,  // measure 19
0010
0000
0000
0001
0000
0000
0300
0001
,  // measure 20
1000
0000
0010
0100
0000
0010
1000
0002
,  // measure 21
0000
0000
0000
0000
0103
0000
0020
0000
0000
0000
0100
0000
0030
0000
1000
0010
,  // measure 22
1000
0100
0010
0002
0000
0000
0013
0000
,  // measure 23
0101
0000
0000
1010
0000
0000
1100
0000
0000
0110
0000
0000
2001
0000
0000
0000
,  // measure 24
3100
0000
1000
0100
0000
0010
0000
0001
0000
0000
0010
0000
0100
0000
0010
0000
,  // measure 25
0001
0000
0100
0010
0000
1000
0000
0010
0000
0000
0100
0001
1000
0001
1000
0000
,  // measure 26
0010
0000
0100
0001
0000
1000
0000
0100
0000
0000
1000
0000
0001
0000
0100
0000
,  // measure 27
0010
0000
1000
0010
0000
0010
1000
0000
0001
0010
0000
0010
0001
0000
0100
0000
,  // measure 28
0001
0000
1000
0001
0000
0010
0000
0001
0000
0000
0100
0000
0010
1000
0010
0000
,  // measure 29
1000
0000
0001
1000
0000
0010
0000
1000
0000
0100
0000
1000
0001
0000
0010
0000
,  // measure 30
0001
0000
0010
0100
0000
0010
0000
1000
0000
0000
0010
0000
0001
0000
0100
0000
,  // measure 31
1000
0000
0000
0000
0100
0000
0001
1000
0020
0000
0000
0000
0030
0000
0000
0000
,  // measure 32
2000
0000
0000
3001
0000
0000
1000
0100
0020
0000
0000
0000
0000
0000
0030
0000
,  // measure 33
0002
0000
0000
1003
0000
0000
1000
0010
0200
0000
0000
0000
0320
0000
0000
0000
,  // measure 34
1030
0010
0100
0001
0000
0001
1000
0100
,  // measure 35
0010
0000
0000
0000
0001
0000
1000
0100
2000
0000
0000
0000
3000
0000
0001
0000
,  // measure 36
1000
0100
0010
0100
0000
0010
0001
0020
,  // measure 37
0000
0000
0030
0001
1000
0001
0100
0010
,  // measure 38
2000
0000
3200
0000
,  // measure 39
0320
0000
0032
0003
,  // measure 40
1000
0000
1000
0000
1000
0001
0010
0100
,  // measure 41
1000
0000
0001
0000
1000
0010
0100
0010
,  // measure 42
1000
0000
0000
0001
0000
0000
0001
0000
0100
0000
0001
0000
0010
0000
0000
0000
,  // measure 43
0001
0000
0100
0010
0000
0000
0000
0000
0100
0000
0001
0000
0010
0000
0001
0000
,  // measure 44
1000
0100
0010
0100
1000
0001
0100
1000
,  // measure 45
0100
0102
1000
0013
,  // measure 46
1000
0010
0100
0001
0100
0010
1000
0100
,  // measure 47
0010
0001
0010
0100
1000
0001
1000
0010
,  // measure 48
0100
0100
0000
0001
1000
1000
0000
1000
,  // measure 49
0001
0001
0000
0010
0100
0100
0000
0000
,  // measure 50
0010
0010
0100
0010
0001
0001
0000
0001
,  // measure 51
1000
1000
0000
0010
0100
0100
0000
0000
,  // measure 52
0001
0001
0100
0001
0010
0010
0100
1000
,  // measure 53
0100
0100
0010
0001
1000
1000
0010
0100
,  // measure 54
0001
0001
0010
0001
1000
1000
0001
0100
,  // measure 55
0010
0010
1000
0001
0010
0010
0100
1000
,  // measure 56
0010
0000
0000
1010
0000
0000
1000
0000
0001
0000
0000
0000
0101
0000
0000
0000
,  // measure 57
1000
0000
0000
0001
0000
0000
0020
0000
0000
0000
0100
0000
0130
0000
0000
0000
,  // measure 58
0010
0000
0000
0110
0000
0000
0100
0000
1000
0000
0000
0000
0001
0000
0000
0000
,  // measure 59
0100
0001
0010
0001
1000
0010
1000
0100
,  // measure 60
0010
0000
0000
0011
0000
0000
0100
0000
1000
0000
0000
0000
1100
0000
0000
0000
,  // measure 61
1000
0001
0101
0000
0001
1000
1010
0000
,  // measure 62
1000
0001
0001
0100
0010
0100
0001
1000
,  // measure 63
0200
1000
0310
0001
,  // measure 64
1000
0000
0000
1100
0000
0000
0100
0000
0010
0000
0001
0000
0010
0100
0010
0000
,  // measure 65
0001
0000
1000
0000
0010
0100
0010
0000
1000
0000
0001
0000
0010
0100
0010
0000
,  // measure 66
0001
0000
0000
0101
0000
0000
0100
0000
0001
0000
0010
0000
0100
1000
0100
0000
,  // measure 67
1000
0000
0010
0000
0100
0001
0100
0000
0001
0000
0010
0000
0100
1000
0100
0000
,  // measure 68
1000
0000
0001
0000
0100
0000
0010
0000
0100
0000
0001
0000
1000
0010
1000
0000
,  // measure 69
0100
0000
1000
0000
0001
0010
0001
0000
0100
0000
0001
0000
1000
0010
1000
0000
,  // measure 70
0001
0000
0100
0000
0010
1000
0000
1000
0010
0000
1000
0000
0001
0010
0000
0010
,  // measure 71
0100
0010
0001
0100
0010
1000
0100
0010
,  // measure 72
0002
0000
0000
0000
,  // measure 73
0000
0000
0000
0003
;

//---------------dance-single - ----------------
#NOTES:
     dance-single:
     :
     Beginner:
     1:
     0.096093,0.107624,0.022422,0.000000,0.000000,87.000000,3.000000,0.000000,0.000000,0.000000,0.000000,0.096093,0.107624,0.022422,0.000000,0.000000,87.000000,3.000000,0.000000,0.000000,0.000000,0.000000:
0000
0000
0000
0000
,
0000
0000
0000
0000
,
0000
0000
0000
0000
,
0000
0000
0000
0000
,
1000
0000
0000
0000
,
1000
0000
0000
0000
,
0001
0000
0000
0000
,
0001
0000
0000
0000
,
1000
0000
0000
0000
,
0100
0000
0000
0000
,
0001
0000
0000
0000
,
0100
0000
0000
0000
,
1000
0000
0000
0000
,
0010
0000
0000
0000
,
0001
0000
0000
0000
,
0010
0000
0000
0000
,
1000
0000
0100
0000
,
0100
0000
0000
0000
,
1000
0000
0010
0000
,
0010
0000
0000
0000
,
0001
0000
0100
0000
,
0100
0000
0000
0000
,
0001
0000
0010
0000
,
0001
0000
0000
0000
,
1000
0000
0000
0000
,
0010
0000
0000
0000
,
1000
0000
0000
0000
,
0001
0000
0000
0000
,
0010
0000
0000
0000
,
0001
0000
0000
0000
,
0100
0000
0000
0000
,
0010
0000
0000
0000
,
1001
0000
0000
0000
,
1001
0000
0000
0000
,
1000
0000
0100
0000
,
1000
0000
0000
0000
,
0001
0000
0100
0000
,
0001
0000
0100
0000
,
0010
0000
0100
0000
,
0100
0000
0010
0000
,
1000
0000
1000
0000
,
1000
0000
0000
0000
,
0001
0000
0001
0000
,
0001
0000
0000
0000
,
1000
0000
1000
0000
,
0100
0000
0000
0000
,
0001
0000
0001
0000
,
0010
0000
0000
0000
,
0001
0000
0000
0000
,
0100
0000
0000
0000
,
0010
0000
0000
0000
,
1000
0000
0000
0000
,
1000
0000
0000
0000
,
0100
0000
0000
0000
,
0010
0000
0000
0000
,
0001
0000
0000
0000
,
1000
0000
0000
0000
,
0001
0000
0000
0000
,
1000
0000
1000
0000
,
0010
0000
0000
0000
,
0001
0000
0000
0000
,
1000
0000
0000
0000
,
0001
0000
0001
0000
,
0010
0000
0000
0000
,
0001
0000
0000
0000
,
1001
0000
0000
0000
,
1000
0000
0000
0000
,
1000
0000
0100
0000
,
0010
0000
0000
0000
,
0010
0000
0001
0000
,
0010
0000
0000
0000
,
0001
0000
1000
0000
,
0010
0000
0000
0000
;

//---------------dance-single - ----------------
#NOTES:
     dance-single:
     :
     Easy:
     3:
     0.207134,0.220480,0.044843,0.201795,0.000000,161.000000,6.000000,27.000000,0.000000,0.000000,0.000000,0.207134,0.220480,0.044843,0.201795,0.000000,161.000000,6.000000,27.000000,0.000000,0.000000,0.000000:
0000
0000
0000
0000
,
0000
0000
0000
0000
,
0000
0000
0000
0000
,
0000
0000
0000
0000
,
2000
0000
0000
3000
,
0002
0000
0000
0003
,
0200
0000
0000
0300
,
0020
0000
0000
0030
,
1000
0000
1000
0100
,
1000
0000
1000
0001
,
1000
0000
1000
0010
,
0100
0000
0100
0000
,
0001
0000
0001
0100
,
0001
0000
0001
1000
,
0001
0000
0001
0010
,
0200
0000
0000
0300
,
1000
0000
1000
0000
,
1001
0000
0000
0000
,
0100
0000
0100
0000
,
0110
0000
0000
0000
,
0001
0000
0001
0000
,
1001
0000
0000
0000
,
0010
0000
0010
0000
,
0110
0000
0000
1001
,
0001
0000
0100
0000
,
0010
0000
0100
0000
,
0001
0000
0010
0000
,
0100
0000
0010
0001
,
1000
0000
0010
0000
,
1000
0000
0100
0000
,
1000
0000
0010
0000
,
0100
0000
0001
0000
,
2000
0000
3100
0000
,
0002
0000
0103
0001
,
1000
0000
0100
0000
,
0100
0000
0010
0000
,
0001
0000
0100
0000
,
0010
0000
0010
0000
,
0200
0300
0002
0003
,
2000
3000
0020
0030
,
1000
0000
1000
0100
,
0200
0300
0100
1000
,
0001
0001
0100
0100
,
0020
0030
0100
0010
,
1000
0100
1000
0001
,
1000
0010
0010
0010
,
0100
0000
0100
0000
,
0001
1000
0001
1000
,
0001
0000
0100
0000
,
0010
0000
1000
0000
,
0100
0000
1000
0000
,
0001
0000
0010
0000
,
0001
0000
1000
0000
,
0010
0000
0100
0000
,
0010
0000
1000
0000
,
0001
0000
0100
0000
,
1001
0000
1000
0100
,
0200
0300
0020
0030
,
0001
0000
0001
0100
,
0020
0000
0030
0010
,
1000
0000
1000
0100
,
2000
3000
0002
0003
,
0100
0001
0100
0001
,
1000
0000
0010
0000
,
2000
3000
1000
1000
,
0020
0030
0010
0010
,
0200
0300
0100
0100
,
0002
0003
0001
1000
,
0002
0003
0001
0001
,
2000
3000
1000
1000
,
0200
0300
0020
0030
,
0100
1000
0001
0010
,
0002
0000
0000
0000
,
0000
0000
0000
0003
;

//---------------dance-single - ----------------
#NOTES:
     dance-single:
     :
     Medium:
     5:
     0.348070,0.440960,0.067265,0.336325,0.052317,272.000000,9.000000,45.000000,0.000000,0.000000,0.000000,0.348070,0.440960,0.067265,0.336325,0.052317,272.000000,9.000000,45.000000,0.000000,0.000000,0.000000:
0000
0000
0000
0000
,
0000
0000
0000
0000
,
0000
0000
0000
0000
,
0000
0000
0000
0000
,
1000
0000
0000
0000
0000
0000
0000
0000
0000
0000
0000
0000
0000
0001
0000
0001
,
0000
0000
0000
0000
,
0100
0000
0000
0000
0000
0000
0000
0000
0000
0000
0000
0000
0000
0010
0000
0010
,
0000
0000
0000
0000
,
1000
0000
1000
0100
1000
0000
0001
0000
,
1000
0000
1000
0100
1000
0000
0010
0100
,
0001
0000
0001
0100
0001
0000
1000
0000
,
0010
0010
0100
0100
,
0001
0000
0001
0010
0001
0000
1000
0000
,
0001
0000
0001
0010
0001
0000
0100
0010
,
1000
0000
1000
0010
1000
0000
1000
0001
,
0020
0000
0230
0000
,
1300
0000
0000
0100
0000
0000
1000
0020
,
0000
0000
0000
0000
0000
0000
0030
0100
,
0001
0000
0000
1000
0000
0000
0010
0200
,
0000
0000
0000
0300
,
0001
0000
0000
0100
0000
0000
0001
2000
,
0000
0000
3001
0020
0000
0000
0030
0001
,
1000
0000
0001
0200
0000
0000
0310
0000
,
1000
0000
0000
1000
0000
0000
0001
0000
0000
0001
0000
0000
0110
0000
0000
0000
,
2000
0000
3000
0000
1000
0000
0100
1000
,
0010
0000
0010
0100
0001
0000
1000
0000
,
0002
0000
0003
0000
0001
0000
0100
0001
,
0010
1100
0010
0101
,
2000
0000
3000
0000
0100
0010
0001
0000
,
0002
0000
0003
0000
0100
0010
0100
0001
,
1000
0100
0001
0100
,
2000
0000
3000
0001
0020
0000
0030
0000
,
0002
0000
0000
0103
0000
0000
0001
1000
0020
0000
0000
0000
0000
0000
0000
0000
,
2030
0000
0000
3100
0000
0000
1000
0001
0200
0000
0000
0000
0320
0000
0000
0000
,
1030
0000
0001
0000
1000
0000
0100
0010
,
0100
0000
1000
0001
0100
0000
0000
0001
,
0100
0010
1000
0010
0000
1000
0001
0020
,
0000
0000
0030
0010
0001
1000
0100
1000
,
0002
0003
0200
0300
,
0020
0030
2000
3000
,
1000
1000
0100
1000
,
0020
0000
0030
0000
1000
0001
1000
0000
,
0001
0100
0010
1000
,
0001
0001
1000
1000
,
0100
1000
0001
0100
,
0010
1010
1001
0101
,
0100
0001
1000
0010
,
1000
0100
0010
0001
,
1000
1000
0000
0000
0100
0100
0000
0000
,
1000
1000
0000
0000
0010
0010
0000
0000
,
0100
0100
0000
0000
0001
0001
0000
0000
,
0100
0100
0000
0000
0010
0010
0000
0000
,
1000
0100
0000
0000
1000
0001
0000
0000
,
0100
0001
0000
0000
0100
0010
0000
0000
,
0010
1000
0000
0000
0010
0100
0000
0000
,
0001
0100
0000
0000
0001
0010
0000
0000
,
0100
0000
0000
1000
0000
0000
0100
0000
0010
0000
0000
0000
0100
0000
0000
0000
,
1000
0000
0000
0001
0000
0000
0020
0000
0000
0000
0000
0000
0030
0000
0000
0000
,
0001
0000
0000
0100
0000
0000
0010
0000
1000
0000
0000
0000
0001
0000
0000
0000
,
0200
0000
0300
0100
,
0010
0000
0000
1000
0000
0000
0001
0000
0010
0000
0000
0000
0100
0000
0000
0000
,
2000
0000
3002
0000
,
0003
0100
0001
0100
0000
0001
1000
0010
,
0200
0320
2030
3002
,
0023
0100
0001
1000
,
0032
0100
0010
0100
,
2003
0100
0001
0010
,
3200
1000
0001
1000
,
0310
0001
0010
0000
2001
0000
3100
0000
,
1000
0010
1000
0000
1002
0000
0013
0000
,
0220
0000
0330
0000
0001
0010
0001
1000
,
0200
2300
3020
0230
,
0302
0000
0000
0000
,
0000
0000
0000
0003
;
