#VERSION:0.83;
#TITLE:Stay the Night (feat. Hayley Williams of Paramore);
#SUBTITLE:;
#ARTIST:Zedd;
#TITLETRANSLIT:;
#SUBTITLETRANSLIT:;
#ARTISTTRANSLIT:;
#GENRE:;
#ORIGIN:;
#CREDIT:hooky;
#BANNER:Stay the Night (feat. Hayley Williams of Paramore).png;
#BACKGROUND:Stay the Night (feat. Hayley Williams of Paramore)-bg.png;
#PREVIEWVID:;
#JACKET:Stay the Night (feat. Hayley Williams of Paramore)-jacket.png;
#CDIMAGE:;
#DISCIMAGE:;
#LYRICSPATH:;
#CDTITLE:cdtitle.png;
#MUSIC:Stay the Night (feat. Hayley Williams of Paramore).ogg;
#OFFSET:0.000000;
#SAMPLESTART:91.871002;
#SAMPLELENGTH:15.000000;
#SELECTABLE:YES;
#DISPLAYBPM:128.000000;
#BPMS:0.000=128.000;
#STOPS:156.000=2.812;
#DELAYS:;
#WARPS:;
#TIMESIGNATURES:0.000=4=4;
#TICKCOUNTS:0.000=4;
#COMBOS:0.000=1;
#SPEEDS:0.000=1.000=0.000=0;
#SCROLLS:0.000=1.000;
#FAKES:;
#LABELS:0.000=Song Start;
#BGCHANGES:0.000=[Keyboardmania] - Stay the Night.avi=1.000=0=0=0=StretchNoLoop====,
99999=-nosongbg-=1.000=0=0=0 // don't automatically add -songbackground-
;
#KEYSOUNDS:;
#ATTACKS:
;

//---------------dance-single - hooky----------------
#NOTEDATA:;
#CHARTNAME:hooky;
#STEPSTYPE:dance-single;
#DESCRIPTION:hooky;
#CHARTSTYLE:;
#DIFFICULTY:Hard;
#METER:8;
#RADARVALUES:0.398664,0.625030,0.181827,0.173921,0.086961,353.000000,330.000000,23.000000,22.000000,0.000000,0.000000,0.000000,0.000000,0.000000,0.398664,0.625030,0.181827,0.173921,0.086961,353.000000,330.000000,23.000000,22.000000,0.000000,0.000000,0.000000,0.000000,0.000000;
#CREDIT:hooky;
#DISPLAYBPM:128.000000;
#NOTES:
0000
0000
0000
0000
,
0000
0000
0000
0000
,
0000
0000
0000
0000
,
0000
0000
0000
0000
,
0000
0000
0000
0000
,
0001
1000
0000
1000
0010
0000
0010
0100
,
0000
0100
0001
0010
0001
1000
0002
0000
,
0103
0000
0000
0100
0000
0000
0200
0000
,
0000
0010
0000
0000
1000
0000
0301
0000
,
1010
0000
1000
1100
0000
1000
1001
0000
,
0101
0000
0001
0011
0000
0010
0110
0000
,
0011
0000
0001
0101
0000
0100
0011
0001
,
1001
0000
1000
0010
0000
0100
0001
0010
,
0001
0000
1000
0001
0000
0001
0010
0001
,
0100
0000
0001
0100
0000
0001
0100
1000
,
0100
0000
0001
0000
0010
0000
0001
0000
0000
0000
1000
0000
0001
0000
0000
0001
,
0100
0000
0001
0100
0001
0010
0001
0000
,
2000
0000
0000
0000
0000
0000
0000
3200
,
0000
0000
0000
0320
0000
0000
0000
0000
,
0032
0000
0000
0000
0000
0000
0000
0203
,
0000
0000
0000
0320
0000
0000
0030
0000
,
1000
0100
0000
0100
0010
0000
0010
0001
,
0000
0001
1000
0001
0100
0000
0100
0000
,
0020
0000
0000
2000
,
0000
0000
3030
1100
,
1001
0001
0100
0000
0100
0010
1000
0000
,
1000
0100
0010
0000
0001
0100
0001
0010
,
0001
0001
1000
0000
1000
1000
0001
0000
,
0001
0100
0010
1000
0100
0100
1000
0000
,
1001
0000
0000
1000
0000
0000
1000
0000
0001
0000
0000
0001
0000
0000
0001
0000
,
0100
0000
0000
0100
0000
0000
0100
0000
0001
0000
0000
0001
0000
0000
0001
0000
,
0010
0000
0000
0010
0000
0000
0010
0000
0100
0000
0000
0100
0000
0000
0100
0000
,
1000
0000
0000
0001
0000
0000
0100
0000
0001
0000
0000
0010
0000
0000
0100
0000
,
1000
0001
0100
0000
0100
0001
0010
0000
,
0010
0001
1000
0010
0100
0010
1000
0000
,
0001
0010
0100
0000
1000
0010
0100
0000
,
0001
1000
0010
0100
0001
0001
1000
0000
,
0001
0001
1000
1000
0001
0001
1000
1000
,
0001
0000
0010
0000
1000
0000
0010
0000
0001
1000
0001
1000
0001
1000
0001
1000
,
0001
0000
1001
0000
0110
0010
1000
0001
,
0100
0001
0010
0100
1000
0001
1000
0001
,
0100
0010
1000
0100
1000
1000
0001
0001
,
1000
1000
0001
0100
0010
1000
1000
0100
,
1000
1000
0001
1000
0001
0001
0010
0010
,
0100
0100
1000
1000
0001
0001
0100
0100
,
0010
0010
0100
0100
0001
1000
0001
1000
,
0010
0100
0001
0100
0010
0010
0010
0010
,
0010
0010
0110
0000
1001
0001
1000
0100
,
1000
0001
0100
0010
1000
0010
1000
0100
,
1000
0001
0010
0000
0001
0100
1000
0100
,
0001
0010
1000
0010
0001
1000
0001
1000
,
0001
0000
0100
0000
0101
0000
0000
0000
1010
0000
0000
0010
0100
0010
0100
0001
,
0010
0000
0000
0001
1000
0010
0100
0010
1000
0000
0000
0100
1000
0010
0100
0001
,
0010
0001
1001
0000
0100
0010
1000
0010
,
0001
0010
1000
0001
0200
0000
0001
0000
,
0301
0101
2002
0000
,
0000
0003
0000
0200
0000
0300
0000
0002
,
0000
3003
0202
0000
,
0000
0300
0000
2000
0000
3000
0000
0020
,
0000
0000
0033
0000
0001
1000
0000
1000
,
0100
0000
0010
0001
0000
1000
0020
0000
,
0100
0000
0130
0000
0002
0000
0000
1003
,
0000
2000
0000
0100
,
0100
3000
0000
0000
;

//---------------dance-single - hooky----------------
#NOTEDATA:;
#CHARTNAME:;
#STEPSTYPE:dance-single;
#DESCRIPTION:hooky;
#CHARTSTYLE:;
#DIFFICULTY:Medium;
#METER:5;
#RADARVALUES:0.224742,0.351400,0.094866,0.110677,0.000000,199.000000,187.000000,12.000000,14.000000,0.000000,0.000000,0.000000,0.000000,0.000000,0.224742,0.351400,0.094866,0.110677,0.000000,199.000000,187.000000,12.000000,14.000000,0.000000,0.000000,0.000000,0.000000,0.000000;
#CREDIT:;
#DISPLAYBPM:128.000000;
#NOTES:
0000
0000
0000
0000
,
0000
0000
0000
0000
,
0000
0000
0000
0000
,
0000
0000
0000
0000
,
0000
0000
0000
0000
,
1000
1000
0001
0000
,
0001
0001
0100
0000
,
0010
0000
0000
1000
0000
0000
0200
0000
,
0000
0000
0010
0310
,
0001
0000
0000
1000
0000
0000
0001
0000
,
0100
0000
0000
0010
0000
0000
0100
0000
,
0010
0000
0000
1000
0000
0000
0100
0000
,
1000
0000
0000
0001
0000
0000
0001
0000
,
0100
0000
0000
0001
0000
0000
0010
0000
,
0001
0000
0000
0001
0000
0000
1000
0000
,
0001
0000
0000
0100
0000
0000
0100
0000
,
0010
0100
0100
0000
,
0220
0000
0000
0000
,
0000
0000
0000
0330
,
2020
0000
0000
0000
,
0000
0000
0000
3030
,
0010
1000
0000
1000
0100
0000
0100
1000
,
0000
1000
0002
0003
0100
0000
0100
0000
,
0002
0000
0000
0020
,
0000
0000
0033
1001
,
0001
0100
0001
0001
,
0010
0001
0010
0010
,
0001
1000
0010
0010
,
0010
0100
0010
0010
,
0010
1000
0100
0000
1000
0000
0000
0000
,
0001
0100
0010
0000
0100
0000
0000
0000
,
0001
0100
0010
0010
,
0000
1000
1010
0000
,
0010
0100
0010
0010
,
1000
0100
1000
1000
,
0001
0100
0001
0001
,
0010
0001
0010
0010
,
0001
1000
0001
0000
0100
0000
0100
0000
,
0010
1000
0100
0000
1000
0000
0001
0000
,
0101
0110
1001
0010
,
1000
0100
1000
1000
,
0001
0001
0100
0010
,
1000
1000
0100
1000
,
0001
0000
0001
0000
0001
0100
0010
0000
,
0010
1000
0100
0000
0100
1000
0001
0000
,
0100
0010
1000
0000
0100
1000
0001
0000
,
0100
0010
0100
0001
0010
0000
0010
0000
,
0001
0101
0010
1000
,
0100
0100
1000
0010
,
0100
0000
0100
0001
,
0010
0001
1000
1000
,
0001
0000
0000
0000
0001
0100
0000
0000
,
0100
0000
0000
0000
0010
1000
0100
0000
,
1000
0000
0000
0000
0001
0000
0000
1000
,
0000
1001
0000
0100
,
0110
0000
2020
0000
,
0000
0000
0000
0000
,
0000
3030
0202
0000
,
0000
0000
0000
0000
,
0000
0000
0303
0000
0001
0010
0000
0100
,
1000
0000
1000
0001
0000
0001
1000
0000
,
0010
0100
0002
0000
,
0000
0020
0000
0000
,
0000
0000
0033
0000
;

//---------------dance-single - hooky----------------
#NOTEDATA:;
#CHARTNAME:;
#STEPSTYPE:dance-single;
#DESCRIPTION:hooky;
#CHARTSTYLE:;
#DIFFICULTY:Easy;
#METER:3;
#RADARVALUES:0.152463,0.300014,0.071150,0.126488,0.000000,135.000000,126.000000,9.000000,16.000000,0.000000,0.000000,0.000000,0.000000,0.000000,0.152463,0.300014,0.071150,0.126488,0.000000,135.000000,126.000000,9.000000,16.000000,0.000000,0.000000,0.000000,0.000000,0.000000;
#CREDIT:;
#DISPLAYBPM:128.000000;
#NOTES:
0000
0000
0000
0000
,
0000
0000
0000
0000
,
0000
0000
0000
0000
,
0000
0000
0000
0000
,
0000
0000
0000
0000
,
2000
0000
0000
3000
,
0002
0000
0000
0003
,
0200
0000
0000
0300
,
0020
0000
0000
0030
,
0010
0000
1000
0000
,
0100
0000
0000
0000
,
1000
0000
0001
0000
,
0100
0000
0000
0000
,
0010
0000
1000
0000
,
0100
0000
1000
0000
,
0002
0000
0100
0000
,
1000
0000
0000
0003
,
0200
0000
0000
0000
,
0000
0000
0300
0000
,
0020
0000
0000
0000
,
0000
0000
0030
0000
,
1000
0000
0000
0001
0000
0000
1000
0000
,
0000
0001
0000
0000
0100
0000
0000
0000
,
0020
0000
0000
0200
,
0000
0000
0330
0110
,
1001
0000
0001
0000
,
0010
0000
0001
0001
,
1000
0000
1000
0000
,
0010
0000
0100
0100
,
0001
0000
1000
0000
,
0001
0000
1000
0010
,
0100
0000
0000
0010
0000
0000
0010
0000
,
0000
0100
0001
0000
,
0001
0000
1000
0000
,
0001
0000
1000
0000
,
0010
0000
0100
0000
,
0010
0000
0100
0000
,
0001
0010
0100
1000
,
0010
0100
0001
1000
,
1001
0110
1001
0001
,
0010
0100
1000
0001
,
1000
0001
1000
0010
,
0100
0001
0010
0010
,
0001
1000
0010
0010
,
0100
0000
0100
0100
,
0010
0000
1000
0001
,
1000
0010
0100
0001
,
1000
0110
0010
1000
,
0100
0100
0100
1000
,
0010
0010
0100
0100
,
0001
0000
0001
0010
,
0100
0000
1000
0000
,
0001
0000
1000
0000
,
0010
0010
0200
0000
,
0000
0010
0000
0310
,
0110
0000
2020
0000
,
0000
0000
0000
0000
,
0000
3030
0202
0000
,
0000
0000
0000
0000
,
0000
0303
0001
0000
,
1000
0000
0010
0000
,
0100
0000
0002
0000
,
0000
0200
0000
0000
,
0000
0303
0000
0000
;

//---------------dance-single - hooky----------------
#NOTEDATA:;
#CHARTNAME:;
#STEPSTYPE:dance-single;
#DESCRIPTION:hooky;
#CHARTSTYLE:;
#DIFFICULTY:Beginner;
#METER:2;
#RADARVALUES:0.108418,0.175008,0.023717,0.071150,0.000000,96.000000,93.000000,3.000000,9.000000,0.000000,0.000000,0.000000,0.000000,0.000000,0.108418,0.175008,0.023717,0.071150,0.000000,96.000000,93.000000,3.000000,9.000000,0.000000,0.000000,0.000000,0.000000,0.000000;
#CREDIT:;
#DISPLAYBPM:128.000000;
#NOTES:
// measure 0
0000
0000
0000
0000
,  // measure 1
0000
0000
0000
0000
,  // measure 2
0000
0000
0000
0000
,  // measure 3
0000
0000
0000
0000
,  // measure 4
0000
0000
0000
0000
,  // measure 5
1000
0000
0001
0000
,  // measure 6
1000
0000
0000
0000
,  // measure 7
0010
0000
0100
0000
,  // measure 8
0010
0000
0000
0000
,  // measure 9
1000
0000
0001
0000
,  // measure 10
0010
0000
0001
0000
,  // measure 11
1000
0000
0010
0000
,  // measure 12
0100
0100
0100
0000
,  // measure 13
0001
0000
1000
0000
,  // measure 14
0001
0000
0000
0000
,  // measure 15
0010
0000
0100
0000
,  // measure 16
1000
0000
0000
0000
,  // measure 17
0002
0000
0000
0000
,  // measure 18
0000
0000
0000
0003
,  // measure 19
2000
0000
0000
0000
,  // measure 20
0000
0000
0000
3000
,  // measure 21
0020
0000
0000
0000
,  // measure 22
0000
0000
0000
0030
,  // measure 23
0200
0000
0000
0000
,  // measure 24
0000
0000
0000
0300
,  // measure 25
0001
0000
1000
0000
,  // measure 26
0001
0000
0001
0000
,  // measure 27
1000
0000
0010
0000
,  // measure 28
1000
0000
1000
0000
,  // measure 29
0100
0000
1000
0000
,  // measure 30
0001
0000
0100
0000
,  // measure 31
0001
0000
0010
0000
,  // measure 32
0001
0000
1000
0000
,  // measure 33
0001
0000
0001
0000
,  // measure 34
1000
0000
1000
0000
,  // measure 35
0001
0000
1000
0000
,  // measure 36
0001
0000
0001
0000
,  // measure 37
0010
0000
0000
0000
,  // measure 38
0100
0000
0010
0000
,  // measure 39
1001
0100
0100
0000
,  // measure 40
0010
0000
0001
0000
,  // measure 41
0001
0000
1000
0000
,  // measure 42
0010
0000
0100
0000
,  // measure 43
0100
0000
0001
0001
,  // measure 44
0001
0000
1000
1000
,  // measure 45
1000
0000
0010
0000
,  // measure 46
0100
0000
0101
0000
,  // measure 47
0000
1001
0001
0000
,  // measure 48
0010
0000
0100
0000
,  // measure 49
0100
0000
0001
0000
,  // measure 50
1000
0000
0001
0001
,  // measure 51
0001
0000
1000
0000
,  // measure 52
0010
0000
1000
1000
,  // measure 53
1000
0000
0200
0000
,  // measure 54
0000
0300
0000
1000
,  // measure 55
1000
0000
0020
0000
,  // measure 56
0000
0000
0000
0000
,  // measure 57
0000
0030
0200
0000
,  // measure 58
0000
0000
0000
0000
,  // measure 59
0000
0300
0002
0000
,  // measure 60
0000
0000
0000
0000
,  // measure 61
0000
0003
2000
0000
,  // measure 62
0000
0000
0000
0000
,  // measure 63
0000
3000
0000
0000
;
