#TITLE:Prelude/Angry Young Man;
#SUBTITLE:;
#ARTIST:Billy Joel;
#TITLETRANSLIT:;
#SUBTITLETRANSLIT:;
#ARTISTTRANSLIT:;
#GENRE:;
#CREDIT:;
#BANNER:Prelude - Angry Young Man-bn.png;
#BACKGROUND:Prelude - Angry Young Man-bg.png;
#LYRICSPATH:;
#CDTITLE:;
#MUSIC:Prelude - Angry Young Man.ogg;
#OFFSET:0.000000;
#SAMPLESTART:41.141998;
#SAMPLELENGTH:20.000000;
#SELECTABLE:YES;
#DISPLAYBPM:177.000000:192.000000;
#BPMS:0.000000=191.000000
,16.000000=186.000000
,40.000000=187.000000
,56.000000=184.000000
,64.000000=177.000000
,80.000000=179.000000
,96.000000=184.000000
,112.000000=188.000000
,128.000000=182.000000
,140.000000=184.000000
,144.000000=186.000000
,160.000000=189.000000
,182.000000=182.000000
,214.000000=186.000000
,234.000000=184.000000
,246.000000=187.000000
,254.000000=183.000000
,280.000000=190.000000
,296.000000=192.000000
,328.000000=188.000000
,344.000000=179.000000
,372.000000=181.000000
,376.000000=189.000000
;
#STOPS:
;
#BGCHANGES:;
#KEYSOUNDS:;
#ATTACKS:;

//---------------dance-single - X Scale 13----------------
#NOTES:
     dance-single:
     :
     Hard:
     9:
     0.679668,0.687794,0.543953,0.390727,0.015323,621.000000,550.000000,71.000000,51.000000,0.000000,0.000000,0.679668,0.687794,0.543953,0.390727,0.015323,621.000000,550.000000,71.000000,51.000000,0.000000,0.000000:
0000
0000
0000
0000
,
0000
0000
0000
0000
,
0000
0000
0000
0000
,
0000
0000
0000
0000
,
1002
0000
0010
0000
1000
1000
1000
0000
,
0100
0000
0000
0010
0000
0000
0103
0000
,
2001
0000
0100
0000
0001
0001
0001
0000
,
3010
0000
0000
1000
0100
0000
0010
0000
0001
0000
0100
0000
0001
0000
1000
0000
,
0100
0000
2100
0000
0010
0010
3010
0000
,
0102
0000
1003
2100
0000
0001
3001
0100
,
0010
0000
1020
0000
0100
0100
0130
0000
,
0201
0000
0310
0120
0000
1000
1030
0001
,
0100
0000
0210
0000
0001
0001
0301
0000
,
0012
0000
1003
1200
0000
1000
1300
0010
,
0100
0000
2001
0000
0100
0100
3100
0000
,
1001
0000
0010
0001
0100
0010
1000
0000
,
0110
0000
0010
0000
0010
1000
0010
1000
,
0001
0000
0001
0000
0001
0010
0001
0010
,
0100
0000
0100
0000
0100
1000
0100
1000
,
0010
0000
0010
0000
0010
0100
0010
0100
,
0001
0000
0001
0100
0001
1000
0001
0010
,
0100
0000
0100
1000
0001
0100
0010
1000
,
0100
0000
0100
0010
0001
0100
0001
1000
,
0010
0000
0010
1000
0100
0010
0001
0100
,
0020
0000
1030
2010
0000
3100
1000
0001
,
0100
0101
0000
2100
0000
0001
3001
0000
,
1002
0000
0103
0102
0000
0013
0012
0000
,
1003
0000
0000
0001
0100
0000
0001
0000
0010
0000
0100
0000
1000
0000
0010
0000
,
0200
0000
0301
0102
0000
1003
0100
0010
,
0001
0011
0000
1020
0000
0100
0130
0000
,
2001
0000
3010
2010
0000
3100
2100
0000
,
0000
0001
0000
0001
0000
3001
1000
0001
,
1000
0100
0010
0001
0100
0010
1000
0001
,
0010
0100
1000
0000
1000
0000
1000
0001
,
0010
0001
0100
0000
1000
0100
0010
0001
,
0100
0010
1000
0001
0000
0001
0010
0100
,
1000
0010
0100
0001
0000
1000
0100
0010
,
0000
0001
0100
0001
0000
1000
0100
1000
,
0010
1000
0100
0010
0000
0001
1000
0001
,
0000
0100
0010
0100
0000
0010
1000
0100
,
1000
0001
1000
0001
0100
0010
0100
0010
,
1000
0100
0010
0001
0100
0000
0010
1000
,
0100
1000
0100
1000
0001
0010
0001
0010
,
0001
1000
0010
0100
0001
0000
1000
0100
,
1000
0100
0010
0001
0100
0010
1000
0001
,
0010
0100
1000
0000
2001
0000
3100
0120
,
0000
1030
0001
0010
0100
1100
0000
0012
,
0000
1000
1003
0000
2001
0000
3010
2010
,
0000
0000
3001
0000
0201
0000
0000
0000
0310
0000
0000
0100
0001
0000
1000
0000
,
0100
0010
0001
1000
2010
0000
3001
0012
,
0000
1003
0010
0100
0001
1001
0000
0120
,
0000
1000
1030
0000
2001
0000
0010
0000
,
0010
0010
0010
0010
,
3010
1000
0001
1000
0001
0010
0100
1000
,
0001
0100
0010
1000
0100
0010
0001
0000
,
0001
0000
0001
0100
0010
1000
0001
0100
,
0001
1000
0100
0010
0001
1000
0001
0100
,
0010
0000
0010
1000
0100
0010
0001
0100
,
0000
0010
1000
0001
0000
1000
0100
0010
,
0001
0000
1000
0100
1000
0010
0100
0001
,
0000
0010
0100
1000
0000
1000
0010
1000
,
0100
0000
1000
0001
1000
0010
1000
0010
,
0100
0001
0100
0001
0000
0100
0010
1000
,
0000
0100
0010
0001
0100
0010
0100
0010
,
1000
0001
1000
0001
0000
1000
0100
0010
,
0000
0100
0010
0001
1000
0001
0010
0100
,
1000
0010
0100
0001
1000
0001
0100
0000
,
1002
0000
1003
0201
0000
0310
0100
0001
,
0120
0000
1030
2100
0000
0001
3001
0000
,
0110
0000
0000
0101
0000
0000
2002
0000
,
3000
0000
0100
0000
1000
1000
1000
0000
,
0010
0000
0000
0100
0000
0000
0010
0000
,
0000
0000
1000
0000
0010
0010
0010
0000
,
0100
0000
0000
1000
0000
0000
0103
0000
,
2001
0000
0100
0000
0001
0001
0001
0000
,
0010
0000
0000
0100
0000
0000
3010
0000
,
1002
0000
1000
0000
0100
0100
0100
0000
,
1003
0000
0000
0001
1000
0000
0100
0000
0010
0000
0001
0000
0100
0000
0010
0000
,
0100
0000
1002
0000
0010
0010
0013
0000
,
0101
0000
1000
0100
0010
0001
0100
0000
,
0010
0000
2010
0000
0001
0001
3001
0000
,
1100
0000
0010
0100
0001
1000
0100
0000
,
0001
0000
1200
0000
0010
0010
0310
0000
,
1100
0000
0001
1000
0100
0010
0001
0000
,
0100
0000
0021
0000
1000
1000
1030
0000
,
0011
0000
0100
0001
1000
0001
0010
0000
,
1001
0000
0010
0000
1000
0100
0010
0001
,
0100
0000
0010
0000
1000
0001
1000
0100
,
0010
0000
0001
0000
1000
0001
1000
0100
,
1000
0000
0001
0000
0100
0010
1000
0000
,
1100
0000
1100
0000
1000
0001
1000
0001
,
0101
0000
0101
0000
0100
0010
0100
0010
,
1010
0000
1010
0000
0001
0010
0001
0010
,
0011
0000
0011
0000
0010
0100
0010
0100
,
2100
0000
3001
0201
0000
0310
1000
0100
,
0010
0011
0000
2100
0000
0001
3001
0000
,
1010
0000
0000
0101
0000
0000
2002
0000
,
0000
0000
0000
0000
,
0000
0000
0000
0000
,
0000
0000
0000
3003
;

//---------------dance-single - X scale 18----------------
#NOTES:
     dance-single:
     :
     Challenge:
     10:
     1.025521,1.260956,0.681857,0.122581,0.796776,937.000000,848.000000,89.000000,16.000000,0.000000,0.000000,1.025521,1.260956,0.681857,0.122581,0.796776,937.000000,848.000000,89.000000,16.000000,0.000000,0.000000:
0000
0000
0000
0000
,
0000
0000
0000
0000
,
0000
0000
0000
0000
,
0000
0000
0000
0000
,
1000
0001
1000
0001
0100
0001
1000
0001
1000
0001
0010
0001
1000
0001
1000
0001
,
0100
0001
1000
0001
1000
0001
0010
0001
1000
0001
1000
0001
0100
0001
1000
0001
,
1000
0001
1000
0001
0010
0001
1000
0001
1000
0001
0100
0001
1000
0001
1000
0001
,
0010
0001
1000
0001
1000
0001
0100
0001
1000
0001
1000
0001
0010
0001
0100
0001
,
1000
0000
1010
0100
0010
0001
1000
0010
,
0001
0000
1000
0100
1000
0000
0010
0000
0100
0001
0100
0000
0001
0000
0010
0000
,
0100
0000
1100
0001
0100
0010
1000
0001
,
1000
0100
1000
0000
0010
0000
0100
0001
0100
0000
0001
0000
0010
1000
0010
0000
,
0100
0000
0011
0100
1000
0010
0100
0001
,
1000
0000
0010
0100
0010
0000
1000
0000
0001
0010
0001
0000
0100
0000
0001
0000
,
0010
0000
0101
0001
1000
0010
1000
0100
,
0010
0001
0010
0000
0100
0000
1000
0001
1000
0000
0010
0000
0100
0000
0000
0000
,
1001
0000
1001
0000
1001
0100
0010
0100
,
1001
0000
1001
0000
1001
0100
0010
0100
,
0110
0000
0110
0000
0110
0010
1000
0010
,
0110
0000
0110
0000
0110
0100
0001
0100
,
0101
0000
0101
0000
0101
1000
0100
1000
,
1100
0000
1100
0000
1100
0001
0010
0001
,
0011
0000
0011
0000
0011
1000
0010
1000
,
1010
0000
1010
0000
1010
0100
0010
0100
,
0010
0000
1000
0000
0100
0000
0012
0000
0000
0000
0100
0000
0103
0001
1000
0000
,
0010
1010
1000
1002
0000
0100
0103
0000
,
0010
1000
0010
0000
0100
0000
0001
1000
0001
0000
1000
0000
0100
0000
0000
0000
,
0001
0000
0000
1000
0100
0000
0010
0000
0001
0000
0100
0000
1001
0000
0000
0000
,
1000
0000
0001
0000
0100
0000
1020
0000
0000
0000
1000
0000
1030
0001
0010
0000
,
0001
0101
0100
0120
0000
1000
1030
0000
,
0001
1000
0100
0000
1000
0000
0010
0100
0001
0000
0010
0000
1100
0000
0000
0000
,
1000
1000
0100
0100
0010
0010
0001
0001
,
0100
0000
0001
0010
0001
0000
1000
0010
1000
0000
0001
0100
0001
0000
1000
0100
,
1000
0000
0010
1000
0010
0000
0100
0001
0100
0000
0010
0001
0010
0000
0100
1000
,
0100
0000
1000
0001
1000
0000
0010
0100
0010
0000
0100
0010
0100
0000
0001
1000
,
0001
0000
0010
0001
0010
0000
0100
0001
0100
0000
0010
1000
0010
0000
0100
1000
,
0100
0000
1000
0001
0100
0000
0001
1000
0100
0000
0010
0001
0100
0000
0010
1000
,
0100
0000
1000
0001
0010
0000
0100
0010
0001
0000
0100
0010
1000
0000
0100
1000
,
0001
0000
0010
0100
1000
0000
0100
0010
0001
0000
0100
0001
1000
0000
0100
1000
,
0010
0000
1000
0001
0010
0000
0001
0100
0010
0000
1000
0001
0010
0000
0100
1000
,
0010
0000
1000
0100
0010
0000
0100
1000
0001
0000
0010
0001
1000
0000
0010
1000
,
0100
0000
1000
0010
0001
0000
1000
0100
0001
0000
0010
0100
1000
0000
0010
0100
,
0001
0000
1000
0010
1000
0000
0100
0010
0100
0000
0010
0001
0010
0000
0001
0100
,
0001
0000
1000
0010
0001
0000
1000
0100
0001
0000
0100
0010
1000
0000
0001
1000
,
0100
0000
1000
0100
1000
0000
0001
0100
0001
0000
1000
0010
1000
0000
0001
0010
,
0001
0100
1000
0000
1001
1000
0010
0210
,
0000
0000
0001
0000
0301
0100
0010
0000
1000
0000
1100
0000
0001
0000
2001
0000
,
0000
0000
0100
0000
3100
0000
0000
0000
1000
0000
0010
0100
0010
0000
1000
0000
,
0100
0010
0001
0000
0101
0000
0000
0000
1010
0000
0000
0001
1000
0000
0100
0000
,
0010
0001
1000
0010
0110
0100
0001
2001
,
0000
0000
0100
0000
3100
1000
0001
0000
0010
0000
0011
0000
0001
0000
2100
0000
,
0000
0000
0010
0000
3010
0000
0000
0000
0100
0000
0001
1000
0001
0000
1000
0001
,
1000
0000
0001
1000
0001
0000
1000
0001
1000
0100
1000
0100
1000
0001
1000
0001
,
0100
0001
0100
0001
0100
0010
0100
0010
0100
0000
0001
0100
0001
0000
0100
0001
,
0100
0000
0010
1000
0010
0000
1000
0010
1000
0000
0100
1000
0100
0000
1000
0100
,
1000
0000
0001
0010
0001
0000
0010
0001
0010
0000
0001
1000
0001
0000
1000
0001
,
1000
0000
0010
0100
0010
0000
0100
0010
0100
0000
0001
0100
0001
0000
1000
0100
,
1000
0000
0001
0010
0001
0000
1000
0010
1000
0000
0001
1000
0100
0000
1000
0001
,
0100
0000
0001
1000
0010
0000
1000
0001
0010
0000
0100
0010
0001
0000
0100
0010
,
1000
0000
0010
0100
0001
0000
0010
0100
1000
0000
0001
0100
1000
0000
0001
0010
,
1000
0000
0100
1000
0001
0000
0100
0001
1000
0000
0010
1000
0001
0000
0100
0001
,
1000
0000
0010
0100
0010
0000
0100
0010
0100
0000
0010
1000
0100
0000
0010
0001
,
0100
0000
1000
0010
0001
0000
1000
0100
0001
0000
0100
0001
1000
0000
0100
1000
,
0010
0000
0100
0010
0001
0000
1000
0001
0010
0000
0100
1000
0100
0000
0010
0001
,
0010
0000
0001
1000
0001
0000
1000
0100
1000
0000
0010
0100
0010
0000
1000
0100
,
0010
0000
0100
0010
0001
0000
1000
0001
0100
0000
0001
1000
0100
0000
1000
0100
,
0001
0000
0100
0001
0010
0000
0100
1000
0001
0000
0100
0000
0010
0000
0000
0000
,
1001
0010
0100
0102
0000
1000
1003
0000
,
1100
0010
0100
0210
0000
0001
0301
0000
,
0011
0000
0000
0101
0000
0000
2002
0000
,
3000
0000
0100
0000
0000
0010
0000
0000
,
0100
0000
0000
0010
0000
0000
0100
0000
,
0000
0000
0010
0000
0000
0100
0000
0000
,
0010
0000
0000
0100
0000
0000
0010
0000
,
1003
0001
1000
0001
0100
0001
1000
0001
1000
0001
0010
0001
1000
0001
1000
0001
,
0100
0001
1000
0001
1000
0001
0010
0001
1000
0001
1000
0001
0100
0001
1000
0001
,
1000
0001
1000
0001
0010
0001
1000
0001
1000
0001
0100
0001
1000
0001
1000
0001
,
0010
0001
1000
0001
1000
0001
0100
0001
1000
0001
1000
0001
0010
0001
0100
0001
,
1000
0000
1100
0100
0010
0001
0100
0010
,
1010
0000
1000
0001
0100
0001
1000
0000
,
0010
0000
0101
1000
0100
0010
0001
0100
,
0110
0000
0010
1000
0001
1000
0100
0000
,
0011
0000
0100
0001
1000
0100
0010
0001
,
1001
0000
0010
0100
0010
0001
1000
0000
,
0001
0000
0011
0001
1000
0100
1000
0010
,
0110
0000
0000
1000
0001
0000
0100
0000
0001
0000
1000
0000
0101
0000
0000
0000
,
1001
0000
1001
0000
1001
0100
0010
0100
,
1001
0000
1001
0000
1001
0010
0100
0010
,
0110
0000
0110
0000
0110
0100
0001
0100
,
0110
0000
0110
0000
0110
0010
1000
0010
,
1010
0000
1010
0000
1010
1000
0100
1000
,
1100
0000
1100
0000
1100
0001
0100
0001
,
0101
0000
0101
0000
0101
0001
0010
0001
,
0011
0000
0011
0000
0011
0100
1000
0010
,
0100
0000
0001
1000
0001
0000
0200
0000
0000
0000
0010
0000
0310
1000
0010
0000
,
1000
1100
0001
0102
0000
0010
0013
0000
,
0001
0010
0001
0010
0001
0000
1000
0010
1000
0010
1000
0000
2002
0000
0000
0000
,
0000
0000
0000
0000
,
0000
0000
0000
0000
,
0000
0000
0000
3003
;

//---------------dance-single - X Scale 11----------------
#NOTES:
     dance-single:
     :
     Medium:
     7:
     0.501269,0.611372,0.727824,0.061290,0.000000,458.000000,363.000000,95.000000,8.000000,0.000000,0.000000,0.501269,0.611372,0.727824,0.061290,0.000000,458.000000,363.000000,95.000000,8.000000,0.000000,0.000000:
// measure 0
0000
0000
0000
0000
,  // measure 1
0000
0000
0000
0000
,  // measure 2
0000
0000
0000
0000
,  // measure 3
0000
0000
0000
0000
,  // measure 4
1001
0000
0100
0000
0000
0010
0000
0000
,  // measure 5
1000
0000
0000
0100
0000
0000
0001
0000
,  // measure 6
0000
0000
0010
0000
0000
0100
0000
0000
,  // measure 7
0001
0000
1000
0100
0010
0001
0100
0010
,  // measure 8
0000
0000
1100
0000
0000
0110
0000
0000
,  // measure 9
0011
0000
0000
1100
0000
0000
0101
0000
,  // measure 10
0000
0000
0110
0000
0000
1010
0000
0000
,  // measure 11
0101
0000
0000
0011
0000
0000
1100
0000
,  // measure 12
0000
0000
1001
0000
0000
0110
0000
0000
,  // measure 13
1010
0000
0000
0110
0000
0000
0101
0000
,  // measure 14
0000
0000
1100
0000
0000
0101
0000
0000
,  // measure 15
0110
0000
0000
1010
0000
1001
0000
0000
,  // measure 16
0010
0010
0010
0010
,  // measure 17
0010
0010
0010
0010
,  // measure 18
1000
1000
1000
1000
,  // measure 19
1000
1000
1000
1000
,  // measure 20
0100
0100
0100
0100
,  // measure 21
0100
0100
0100
0100
,  // measure 22
0001
0001
0001
0001
,  // measure 23
0001
0001
0001
0001
,  // measure 24
1001
0000
0000
1010
0000
0001
1000
0100
,  // measure 25
0010
0110
0000
1100
0000
1000
0001
0000
,  // measure 26
1100
0000
0000
1010
0000
0000
1002
0000
,  // measure 27
0000
0100
0000
1000
0000
0103
0000
0000
,  // measure 28
0011
0000
0000
0110
0000
0010
0001
1000
,  // measure 29
0100
1100
0000
0101
0000
0001
0010
0000
,  // measure 30
0011
0000
0000
0101
0000
0000
2001
0000
,  // measure 31
0000
0001
0000
0001
0000
3001
1000
0001
,  // measure 32
1000
0000
0100
0000
0010
0001
0100
0000
,  // measure 33
0010
1000
0100
0000
1001
0000
0000
0000
,  // measure 34
0010
0000
1000
0000
0100
0010
0001
0000
,  // measure 35
0100
0010
1000
0000
0110
0000
0000
0000
,  // measure 36
1000
0000
0001
0000
0010
0100
1000
0000
,  // measure 37
0010
0100
0001
0000
0101
0000
0000
0000
,  // measure 38
0100
0000
0001
0000
1000
0100
0010
0000
,  // measure 39
0100
0010
0001
0000
1100
0000
0000
0000
,  // measure 40
0010
0000
0100
0000
0010
1000
0100
0000
,  // measure 41
1000
0001
0010
0000
0011
0000
0000
0000
,  // measure 42
0100
0000
0010
0000
1000
0100
0001
0000
,  // measure 43
1000
0010
0001
0000
1010
0000
0000
0000
,  // measure 44
0010
0000
0100
0000
0001
0010
0001
0000
,  // measure 45
1000
0100
1000
0000
1001
0000
0000
1100
,  // measure 46
0000
0000
0010
0100
0010
1010
0000
0101
,  // measure 47
0000
1000
0001
0000
0101
0000
0000
0110
,  // measure 48
0000
0000
1020
0000
0000
0001
0000
1000
,  // measure 49
0000
0031
0000
0000
1100
0000
0000
0011
,  // measure 50
0000
0000
0110
0000
1001
0000
0000
0101
,  // measure 51
0000
0100
1002
0010
,  // measure 52
0010
0010
0010
0010
,  // measure 53
0010
0000
0013
0001
0100
0010
1000
0000
,  // measure 54
0100
0010
0001
0000
1000
0001
0100
0000
,  // measure 55
0110
0000
0000
0000
0010
1000
0100
0000
,  // measure 56
0010
0001
0100
0000
0010
1000
0001
0000
,  // measure 57
0101
0000
0000
0000
0100
0001
0010
0000
,  // measure 58
0100
0010
1000
0000
0010
1000
0010
0000
,  // measure 59
1010
0000
0000
0000
1000
0100
0001
0000
,  // measure 60
1000
0010
0001
0000
0100
0010
0001
0000
,  // measure 61
0011
0000
0000
0000
0001
0100
0001
0000
,  // measure 62
0010
0100
0010
0000
1000
0100
1000
0000
,  // measure 63
1100
0000
0000
0000
1000
0001
1000
0000
,  // measure 64
0010
0001
0010
0000
0100
0001
0100
0000
,  // measure 65
1001
0000
0000
0000
0010
1000
0100
0000
,  // measure 66
0010
0001
0100
0000
0001
0100
1000
0000
,  // measure 67
1100
0000
0000
0101
0000
0100
0010
0000
,  // measure 68
1010
0000
0000
0011
0000
0001
1000
0000
,  // measure 69
1001
0000
0000
0110
0000
0000
2002
0000
,  // measure 70
3000
0000
0100
0000
0000
0010
0000
0000
,  // measure 71
1000
0000
0000
0010
0000
0000
0103
0000
,  // measure 72
0000
0000
0001
0000
0000
1000
0000
0000
,  // measure 73
0100
0000
0000
1000
0000
0000
0001
0000
,  // measure 74
1001
0000
0010
0000
0000
0100
0000
0000
,  // measure 75
0001
0000
0000
1000
0000
0000
1000
0000
,  // measure 76
0000
0000
0100
0000
0000
0010
0000
0000
,  // measure 77
0001
0000
1000
0001
0100
0001
0010
0100
,  // measure 78
0000
0000
1100
0000
0000
1100
0000
0000
,  // measure 79
1100
0000
0000
1100
0000
0000
1100
0000
,  // measure 80
0000
0000
0101
0000
0000
0101
0000
0000
,  // measure 81
0101
0000
0000
0101
0000
0000
0101
0000
,  // measure 82
0000
0000
0011
0000
0000
0011
0000
0000
,  // measure 83
0011
0000
0000
0011
0000
0000
0011
0000
,  // measure 84
0000
0000
1010
0000
0000
1010
0000
0000
,  // measure 85
1010
0000
0000
1001
0000
0110
0000
0000
,  // measure 86
1000
1000
1000
1000
,  // measure 87
0010
0010
0010
0010
,  // measure 88
0001
0001
0001
0001
,  // measure 89
0100
0100
0100
0100
,  // measure 90
1000
1000
1000
1000
,  // measure 91
0100
0100
0100
0100
,  // measure 92
0001
0001
0001
0001
,  // measure 93
0010
0010
0010
0010
,  // measure 94
1100
0000
0000
0011
0000
0100
0010
1000
,  // measure 95
0001
0101
0000
1010
0000
0100
1000
0000
,  // measure 96
1001
0000
0000
0110
0000
0000
2002
0000
,  // measure 97
0000
0000
0000
0000
,  // measure 98
0000
0000
0000
0000
,  // measure 99
0000
0000
0000
3003
;

//---------------dance-single - X Scale 7----------------
#NOTES:
     dance-single:
     :
     Easy:
     5:
     0.333814,0.420319,0.137904,0.628227,0.000000,305.000000,287.000000,18.000000,82.000000,0.000000,0.000000,0.333814,0.420319,0.137904,0.628227,0.000000,305.000000,287.000000,18.000000,82.000000,0.000000,0.000000:
0000
0000
0000
0000
,
0000
0000
0000
0000
,
0000
0000
0000
0000
,
0000
0000
0000
0000
,
2002
0000
0000
3000
,
0100
0000
0000
0100
0000
0000
0100
0000
,
0000
0020
0000
0003
,
0100
0000
0000
0100
0000
0000
0130
0000
,
0000
0000
2000
0000
0000
3002
0000
0000
,
0203
0000
0000
0302
0000
0000
2003
0000
,
0000
0000
3020
0000
0000
0230
0000
0000
,
0302
0000
0000
0203
0000
0000
0320
0000
,
0000
0000
0230
0000
0000
0320
0000
0000
,
2030
0000
0000
3020
0000
0000
0230
0000
,
0000
0000
0320
0000
0000
2030
0000
0000
,
3002
0000
0000
1000
0000
0020
0033
0000
,
1001
0000
0000
0000
0000
0010
0100
0010
,
0100
0000
0000
0000
0000
0001
1000
0001
,
1000
0000
0000
0000
0000
0100
1000
0100
,
1000
0000
0000
0001
0100
0001
0100
0000
,
0110
0000
0000
0000
0000
0001
1000
0001
,
1000
0000
0000
0000
0000
0100
1000
0100
,
1000
0000
0000
0000
0000
0001
0010
0001
,
0010
0000
0000
0100
0010
0100
0010
0000
,
2000
0000
0000
0002
0000
0000
3003
0000
,
0000
0200
0000
0020
0000
0000
0330
0000
,
2000
0000
0000
3200
0000
0000
0320
0000
,
0000
0001
0000
0001
0000
0002
0033
0000
,
0200
0000
0000
0002
0000
0000
0303
0000
,
0000
2000
0000
0020
0000
0000
3030
0000
,
0002
0000
0000
0203
0000
0000
2300
0000
,
0000
0100
0000
3100
,
0001
0001
1000
1000
,
0010
0100
0110
0000
,
0010
0010
1000
1000
,
0001
0100
0110
0000
,
1000
1000
0100
0100
,
0010
0001
1001
0000
,
0010
0010
0100
0100
,
0001
1000
1001
0000
,
1000
0100
0010
0001
,
0100
0010
0110
0000
,
0010
1000
0100
0010
,
0001
1000
1001
0000
,
0010
1000
0100
0001
,
0100
0000
0010
0000
2000
0000
0000
0200
,
0000
0000
3300
0000
0000
0020
0000
0002
,
0000
0000
0033
0000
0200
0000
0000
0320
,
0000
0000
2030
0000
0000
0001
0000
0001
,
0000
0002
3003
0000
0020
0000
0000
0200
,
0000
0000
0330
0000
0002
0000
0000
2000
,
0000
3003
2002
0000
,
0000
3000
1000
0010
,
1000
0013
1000
0100
,
0010
0000
0001
0000
0100
0010
0100
0000
,
0001
0000
1000
0010
,
0001
0000
0100
0000
0001
1000
0001
0000
,
0100
0000
0010
1000
,
0100
0000
0010
0000
0001
1000
0001
0000
,
0100
0000
0001
1000
,
0100
0000
1000
0000
0010
0100
0010
0000
,
1000
0000
0100
0100
,
0010
0000
0010
0000
0001
0100
0001
0000
,
1000
0000
0001
0001
,
1000
0000
1000
0000
0100
0010
0100
0000
,
1000
0000
0010
1000
,
0100
0000
0010
0000
0001
1000
0001
0000
,
0100
0000
0000
0110
0000
0000
0000
0000
,
1000
0000
0000
1001
0000
0000
0000
0000
,
0010
0000
0000
0010
0000
0000
0010
0000
,
0000
2000
0000
0000
,
0100
0000
0000
0100
0000
0000
0100
0000
,
0000
3002
0000
0000
,
0100
0000
0000
0100
0000
0000
0103
0000
,
2002
0000
0000
0003
,
0010
0000
0000
0010
0000
0000
0010
0000
,
0000
0200
0000
3000
,
1000
0000
0000
1000
0000
0000
1300
0000
,
0000
0000
0200
0000
0000
0302
0000
0000
,
2003
0000
0000
3002
0000
0000
0203
0000
,
0000
0000
0320
0000
0000
2030
0000
0000
,
3200
0000
0000
2300
0000
0000
3020
0000
,
0000
0000
2030
0000
0000
3002
0000
0000
,
0023
0000
0000
0032
0000
0000
2003
0000
,
0000
0000
3002
0000
0000
0023
0000
0000
,
0230
0000
0000
0320
0000
0002
0033
0000
,
0110
0000
0000
0000
0000
1000
0010
1000
,
0010
0000
0000
0000
0000
0100
0001
0100
,
0001
0000
0000
0000
0000
1000
0001
1000
,
0001
0000
0000
0100
0010
0100
0010
0000
,
1001
0000
0000
0000
0000
1000
0100
1000
,
0100
0000
0000
0000
0000
0001
0010
0001
,
0010
0000
0000
0000
0000
0100
0001
0100
,
0001
0000
0000
1000
0001
1000
0001
0000
,
2000
0000
0000
0020
0000
0000
3030
0000
,
0000
0200
0000
0002
0000
0000
0303
0000
,
1001
0000
0000
0110
0000
0000
2002
0000
,
0000
0000
0000
0000
,
0000
0000
0000
0000
,
0000
0000
0000
3003
;

//---------------dance-single - X Scale 2----------------
#NOTES:
     dance-single:
     :
     Beginner:
     1:
     0.136809,0.187223,0.045968,0.153226,0.000000,125.000000,119.000000,6.000000,20.000000,0.000000,0.000000,0.136809,0.187223,0.045968,0.153226,0.000000,125.000000,119.000000,6.000000,20.000000,0.000000,0.000000:
0000
0000
0000
0000
,
0000
0000
0000
0000
,
0000
0000
0000
0000
,
0000
0000
0000
0000
,
2000
0000
0000
3000
,
0000
0000
0000
0000
,
0002
0000
0000
0003
,
0000
0000
0000
0000
,
0000
0010
0000
0000
,
0100
0000
0000
0000
,
0000
0001
0000
0000
,
1000
0000
0000
0000
,
0000
0100
0000
0000
,
0010
0000
0000
0000
,
0000
0001
0000
0000
,
1000
0000
0000
0000
,
1001
0000
0000
0000
,
0100
0000
0000
0000
,
1000
0000
0000
0000
,
0100
0000
0000
0000
,
1001
0000
0000
0000
,
0100
0000
0000
0000
,
0001
0000
0000
0000
,
0100
0000
0000
0000
,
0020
0000
0030
0000
,
2000
0000
3000
0000
,
0001
0000
0001
0000
,
0002
0000
0003
0000
,
0200
0000
0300
0000
,
0020
0000
0030
0000
,
1000
0000
1000
0000
,
2000
0000
3000
0000
,
0010
0000
0010
0000
,
0010
0000
0010
0000
,
0100
0000
0100
0000
,
0100
0000
0100
0000
,
0001
0000
0001
0000
,
0001
0000
0001
0000
,
1000
0000
1000
0000
,
1000
0000
1000
0000
,
0001
0000
0001
0000
,
1000
0000
1000
0000
,
0010
0000
0010
0000
,
0100
0000
0100
0000
,
0001
0000
0010
0000
,
0100
0000
2000
0000
,
3000
0000
0200
0000
,
0300
0000
0010
0000
,
0010
0000
0020
0000
,
0030
0000
0002
0000
,
0003
0000
2000
0000
,
3000
0000
0020
0000
,
0000
0000
0000
0000
,
0030
0000
1000
0000
,
1000
0000
1000
0000
,
1000
0000
0100
0000
,
0100
0000
0100
0000
,
0100
0000
0010
0000
,
0010
0000
0010
0000
,
0010
0000
0001
0000
,
0001
0000
0001
0000
,
0001
0000
0100
0000
,
0100
0000
0010
0000
,
0010
0000
1000
0000
,
1000
0000
0001
0000
,
0001
0000
1000
0000
,
0100
0000
0010
0000
,
0002
0000
0003
0000
,
2000
0000
3000
0000
,
0010
0000
0100
0000
,
1001
0000
0000
0000
,
0000
0000
0000
0000
,
0000
0000
0000
0000
,
0000
0000
0000
0000
,
2000
0000
0000
3000
,
0000
0000
0000
0000
,
0002
0000
0000
0003
,
0000
0000
0000
0000
,
0000
0100
0000
0000
,
0001
0000
0000
0000
,
0000
1000
0000
0000
,
0010
0000
0000
0000
,
0000
1000
0000
0000
,
0100
0000
0000
0000
,
0000
0010
0000
0000
,
0001
0000
0000
0000
,
1001
0000
0000
0000
,
0010
0000
0000
0000
,
1000
0000
0000
0000
,
0010
0000
0000
0000
,
1001
0000
0000
0000
,
0010
0000
0000
0000
,
0001
0000
0000
0000
,
0010
0000
0000
0000
,
1000
0000
1000
0000
,
0001
0000
0001
0000
,
0100
0000
0000
2002
,
0000
0000
0000
3003
;
