#TITLE:Playing With Fire;
#SUBTITLE:;
#ARTIST:Paula Seling & Ovi;
#TITLETRANSLIT:;
#SUBTITLETRANSLIT:;
#ARTISTTRANSLIT:;
#GENRE:;
#CREDIT:;
#BANNER:[Keyboardmania] - Playing With Fire-bn.png;
#BACKGROUND:[Keyboardmania] - Playing With Fire-bg.png;
#LYRICSPATH:;
#CDTITLE:;
#MUSIC:[Keyboardmania] - Playing With Fire.ogg;
#OFFSET:1.968000;
#SAMPLESTART:84.589378;
#SAMPLELENGTH:15.737709;
#LASTBEATHINT:1.968267;
#SELECTABLE:YES;
#DISPLAYBPM:122.000000;
#BPMS:0.000000=122.000000
,172.000000=488.000000
,184.000000=122.000000
;
#STOPS:
;
#BGCHANGES:;
#KEYSOUNDS:;
#ATTACKS:;

//---------------dance-single - ----------------
#NOTES:
     dance-single:
     :
     Beginner:
     1:
     0.112407,0.211125,0.070115,0.218136,0.000000,101.000000,92.000000,9.000000,28.000000,0.000000,0.000000,0.112407,0.211125,0.070115,0.218136,0.000000,101.000000,92.000000,9.000000,28.000000,0.000000,0.000000:
0000
0000
0000
0000
,
0000
0000
0000
0000
,
0000
0000
0000
0000
,
0000
0000
0000
0000
,
0000
0000
0000
0000
,
1000
0000
0000
0000
,
0001
0000
0000
0000
,
0010
0000
0000
0000
,
0100
0000
0000
0000
,
0010
0000
0010
0000
,
0010
0000
0000
0000
,
0100
0000
0100
0000
,
0100
0000
0000
0000
,
1000
0000
0001
0000
,
1000
0000
0000
0000
,
0001
0000
1000
0000
,
0001
0000
0000
0000
,
0010
0010
0100
0000
,
0100
0100
0010
0000
,
1001
0000
0000
0000
,
0110
0000
0000
0000
,
2000
0000
0000
0000
,
3002
0000
0000
0000
,
2003
0000
0000
0000
,
3002
0000
0000
0000
,
0023
0000
0000
0000
,
0230
0000
0000
0000
,
0320
0000
0000
0000
,
0230
0000
0300
0000
,
0220
0000
0330
0000
,
2002
0000
3003
0000
,
0001
0001
0001
0000
,
1000
1000
1000
0000
,
0001
0001
0100
0000
,
1000
1000
0100
0000
,
0010
0000
1000
0000
,
0001
0000
0100
0000
,
0010
0000
1000
0000
,
0001
0000
0100
0000
,
0010
0000
0001
0000
,
1000
0000
0100
0000
,
0010
0000
0001
0000
,
1000
0000
0100
0000
,
1001
0000
0000
0000
,
0000
0000
0000
0000
,
0000
0000
0000
0000
,
0000
2000
0000
0000
,
0000
3002
0000
0000
,
0000
2003
0000
0000
,
0000
3002
0000
0000
,
0000
0023
0000
0000
,
0000
0230
0000
0000
,
0000
0320
0000
0000
,
0000
0230
0000
0000
,
0000
2300
0000
0000
,
0000
3002
0000
0000
,
0000
2003
0000
0000
,
0000
3002
0000
0000
,
0000
0203
0000
0000
,
0000
0320
0000
0000
,
0000
0230
0000
0000
,
0000
0320
0000
0030
,
0000
0110
0000
0000
,
0000
1001
0000
0000
,
0000
0010
0010
0010
,
0000
1000
1000
1000
,
0000
0001
0001
0001
,
0000
0110
0000
1001
;

//---------------dance-single - ----------------
#NOTES:
     dance-single:
     :
     Easy:
     3:
     0.222588,0.290297,0.155812,0.280461,0.000000,200.000000,180.000000,20.000000,36.000000,0.000000,0.000000,0.222588,0.290297,0.155812,0.280461,0.000000,200.000000,180.000000,20.000000,36.000000,0.000000,0.000000:
0000
0000
0000
0000
,
0000
0000
0000
0000
,
0000
0000
0000
0000
,
0000
0000
0000
0000
,
0000
0000
0000
0000
,
1000
1000
0100
0000
,
0001
0001
0100
0000
,
0010
0010
0001
0000
,
0100
0100
1000
0000
,
0010
0100
0010
0100
,
0010
0000
0000
0000
,
0100
0010
0100
0010
,
0100
0000
0000
0000
,
1000
0001
0010
0001
,
1000
0000
0000
0000
,
0001
1000
0010
1000
,
0001
0000
0000
0000
,
0010
0010
0110
0000
,
0100
0100
0110
0000
,
1001
0000
0110
0000
,
1001
0000
0110
0110
,
2000
0000
3200
0000
,
0302
0000
0010
0100
,
2003
0000
3200
0000
,
0302
0000
1000
0100
,
0023
0000
0032
0000
,
0203
0000
0001
0001
,
0320
0000
2030
0000
,
3200
0000
0300
0110
,
0220
0000
0000
0330
2002
0000
0000
3003
,
0220
0000
0000
0330
2002
0000
0000
3003
,
0010
0010
0010
0001
,
0100
0100
0100
0000
,
0010
0010
0001
1000
,
0100
0100
0001
0000
,
0010
0000
1000
0000
,
0001
0010
0001
0000
0100
0000
0000
0000
,
0010
0000
1000
0000
,
0001
0100
0001
0000
0100
0000
0000
0000
,
0010
0100
0010
0000
0001
0000
0000
0000
,
1000
0010
1000
0000
0100
0000
0000
0000
,
0010
0000
0001
0000
,
1000
0000
0100
0000
,
1001
0000
0000
0000
,
0000
0000
0000
0000
,
0000
0000
0000
0000
,
0110
2000
0100
0100
,
0100
3002
0010
0010
,
0010
2003
0100
0100
,
0100
3002
0010
0010
,
0010
0023
1000
1000
,
1000
0230
0001
0001
,
0001
0320
0001
0001
,
0001
0230
1000
1000
,
1000
2300
0010
0010
,
0000
3002
0100
0100
,
0000
2003
0100
0100
,
0000
3002
0010
0010
,
0000
0203
0001
0001
,
0000
0320
1000
1000
,
0000
0230
1000
1000
,
0000
0320
0001
0031
,
0000
0110
0000
0110
,
0000
1001
0000
1001
,
0000
0000
0010
0001
0010
0000
0010
0000
,
0000
0000
1000
0100
1000
0000
1000
0000
,
0000
0000
0001
0010
0001
0000
0001
0000
,
0000
0110
0000
1001
;

//---------------dance-single - ----------------
#NOTES:
     dance-single:
     :
     Challenge:
     8:
     0.504162,0.741664,0.506388,0.373948,0.159707,453.000000,388.000000,65.000000,48.000000,0.000000,0.000000,0.504162,0.741664,0.506388,0.373948,0.159707,453.000000,388.000000,65.000000,48.000000,0.000000,0.000000:
0000
0000
0000
0000
,
0000
0000
0000
0000
,
0000
0000
0000
0000
,
0000
0000
0000
0000
,
0000
0000
0000
0000
0010
0000
0000
0100
0020
0000
0130
0000
1000
0000
0010
0000
,
0101
0000
0000
0000
1010
0000
0000
0000
0101
0000
0000
0000
1000
0000
0000
1000
,
0100
0000
0000
0000
0011
0000
0000
0000
1100
0000
0000
0000
0010
0000
0000
0010
,
1000
0000
0000
0000
0101
0000
0000
0000
1010
0000
0000
0000
0001
0000
0000
0001
,
0010
0000
0100
0000
1100
0000
1000
0000
0011
0000
0000
1100
0000
0000
0011
0000
,
0010
0001
0100
0001
0010
0000
0100
1000
,
0110
0100
0110
0010
0110
0000
1000
0010
,
0200
0000
0300
0020
0230
0000
0300
0010
,
0100
0000
0000
0000
0001
0000
0000
0000
0010
0000
0000
0100
0000
0000
0010
0000
,
1000
1100
0001
0101
0010
0000
0001
0010
,
1001
1000
1001
0001
1001
0000
0010
0001
,
2000
0000
3000
0002
2003
0000
3000
0001
,
1000
0000
0000
0000
0100
0010
0100
0010
0001
0000
0100
0000
0010
0000
0001
0000
,
0010
0100
0010
0001
0110
1001
1010
0000
,
0200
0300
0002
0003
0110
0011
0101
0000
,
1001
0010
0100
1000
0110
1000
0001
0010
,
1100
1010
0011
0101
,
0001
1000
0010
0000
1000
0100
1000
0100
,
0200
0001
1000
1000
0000
0002
0000
0003
,
1300
0001
0100
0000
0001
0010
0001
0010
,
0020
1000
0001
0001
0000
2000
0000
3030
,
0101
0000
1010
0000
1000
0100
1000
0100
,
0200
0001
1000
1000
0000
0002
0000
0003
,
0301
2000
0100
3000
0100
0002
0100
0003
,
2200
0300
0001
3010
1000
0001
0011
0022
,
0000
0000
0000
0000
0000
0000
0000
0030
,
2000
0000
0000
0000
0000
0000
0000
3003
,
0110
0000
0000
0100
0010
0100
0010
0100
,
1001
0000
0000
1000
0001
1000
0001
1000
,
0110
0000
0000
0010
0100
0010
0100
0010
,
0100
1000
0100
1000
0100
0001
0100
0001
0100
1000
0100
0001
0100
1000
0100
0001
,
0010
0100
0010
0001
0010
0000
0100
0000
0110
0000
0000
0000
0110
0000
0100
0000
,
0100
0010
0100
1000
0100
0000
0010
0000
0110
0000
0000
0000
0110
0000
0010
0000
,
0010
0000
0000
0001
0010
0000
0100
0000
1000
0000
0000
1000
0100
0000
0010
0000
,
0001
0100
0001
0100
1000
0010
1000
0010
0100
0000
0000
0100
0010
0000
0110
0000
,
1000
0001
1000
0010
1000
0000
0001
0000
1001
0000
0000
0000
1001
0000
0001
0000
,
0001
1000
0001
0100
0001
0000
1000
0000
1001
0000
0000
0000
1001
0000
1000
0000
,
1000
0000
0000
0010
1000
0000
0001
0000
0100
0000
0000
0100
0001
0000
1000
0000
,
0010
0001
0010
0001
0100
1000
0100
1000
0001
0010
0001
0010
1000
0100
1000
0100
,
2002
0000
0000
0000
,
0000
0000
0000
0000
,
0000
0000
0000
3003
,
0110
0000
0010
0100
1000
0000
0100
0001
,
0100
0001
0002
0010
0100
0100
0000
0020
,
0000
0030
0103
0010
0001
0000
0010
1000
,
0010
1000
2000
0100
0010
0010
0000
0200
,
0000
3300
0011
0000
1100
0000
0100
0001
,
0100
0001
0002
0010
0100
0100
0000
0020
,
0000
0030
0013
0200
0001
0300
0001
0020
,
0001
0030
0202
0003
0010
1300
0100
0010
,
1010
2000
3001
1000
0010
0000
1000
0100
,
1000
0100
0200
0001
1000
1000
0000
0002
,
0000
0003
1300
0001
0100
0000
0001
0010
,
0001
0010
0020
1000
0001
0001
0000
2000
,
0000
3030
0101
0000
1010
0000
1000
0100
,
1000
0100
0200
0001
1000
1000
0000
0002
,
0000
0003
0301
2000
0100
3000
0100
0002
,
0100
0003
2200
0300
0001
3010
1000
0001
,
0011
0022
0000
0000
0000
0000
0000
0000
,
0000
0030
2000
0000
0000
0000
0000
0000
,
0000
3003
0110
0000
0000
0100
0010
0100
,
0010
0100
1001
0000
0000
1000
0001
1000
,
0001
1000
0001
0010
0001
0010
0001
0100
,
0001
0100
0011
0000
1100
0000
1010
0000
,
0101
0000
0000
0000
;

//---------------dance-single - ----------------
#NOTES:
     dance-single:
     :
     Hard:
     6:
     0.409562,0.476784,0.389529,0.428482,0.019476,368.000000,318.000000,50.000000,55.000000,0.000000,0.000000,0.409562,0.476784,0.389529,0.428482,0.019476,368.000000,318.000000,50.000000,55.000000,0.000000,0.000000:
0000
0000
0000
0000
,
0000
0000
0000
0000
,
0000
0000
0000
0000
,
0000
0000
0000
0000
,
0000
0000
0010
0000
0020
0130
1000
0010
,
0101
1010
0101
1000
,
0100
0011
1100
0010
,
1000
0101
1010
0001
,
0010
0000
1100
0000
0001
1000
0100
0000
,
0010
0001
0100
0000
0010
0001
0100
0000
,
0100
1000
0100
0000
0010
0001
0010
0000
,
0200
0000
0320
0000
0230
0000
0300
0010
,
0100
0000
0000
0000
0001
0000
0000
0000
0010
0000
0000
0100
0000
0000
0010
0000
,
1000
0100
0001
0100
0010
0000
0001
0010
,
1001
0000
1001
0000
1001
0000
0010
0001
,
2000
0000
3000
0002
2003
0000
3000
0001
,
1000
0000
0100
0100
0001
0100
0010
0001
,
0010
0100
0010
0001
0110
0000
1001
0000
,
0200
0300
0002
0003
0020
0030
2000
3000
,
1001
0010
0100
1000
0000
1000
0001
0000
,
1100
1010
0011
0101
,
0001
1000
0010
0000
1000
0100
1000
0000
,
0100
0001
1000
2000
0000
3002
0000
0003
,
1000
0001
0100
0000
0001
0010
0001
0010
,
0010
1000
0001
0002
0000
2003
0000
3000
,
0101
0000
1010
0000
1000
0100
1000
0010
,
0100
0000
1000
2000
0000
3002
0000
0003
,
0001
1000
0100
0000
0100
0001
0100
0000
,
2100
0000
0001
3000
1000
0001
0011
0000
,
0022
0000
0000
0000
0000
0000
0000
0030
,
2000
0000
0000
0000
0000
0000
0000
3003
,
0110
0000
0000
0100
0010
0100
0010
0000
,
1001
0000
0000
1000
0001
1000
0001
0000
,
0110
0000
0000
0010
0100
0010
0100
0000
,
1010
0101
0101
1010
,
0010
0100
0010
0000
0010
0000
0100
0000
0220
0000
0000
0000
0330
0000
0000
0000
,
0100
0010
0100
0000
0100
0000
0010
0000
0220
0000
0000
0000
0330
0000
0000
0000
,
0010
0000
0010
0100
1000
0000
0100
0010
,
0001
0001
1000
1000
0200
0000
0310
0000
,
1000
0001
1000
0000
1000
0000
0001
0000
2002
0000
0000
0000
3003
0000
0000
0000
,
0001
1000
0001
0000
0001
0000
1000
0000
2002
0000
0000
0000
3003
0000
0000
0000
,
1000
0000
1000
0001
0100
0000
0001
1000
,
0010
0010
0100
0100
0001
0001
1000
1000
,
2002
0000
0000
0000
,
0000
0000
0000
0000
,
0000
0000
0000
3003
,
0000
0000
0010
0100
1000
0000
0100
0001
,
0100
0001
0001
0010
0100
0200
0000
0320
,
0000
0030
0100
0010
0001
0000
0010
1000
,
0010
1000
1000
0100
0010
0020
0000
0230
,
0000
0300
0011
0000
1100
0000
0100
0001
,
0100
0001
0001
0000
0100
0200
0000
0320
,
0000
0030
0010
0200
0001
0300
0001
0020
,
0001
0030
0202
0003
0010
1300
0100
0010
,
1010
2000
3001
1000
0010
0000
1000
0100
,
1000
0100
0100
0001
1000
2000
0000
3002
,
0000
0003
1000
0001
0100
0000
0001
0010
,
0001
0010
0010
1000
0001
0002
0000
2003
,
0000
3000
0101
0000
1010
0000
1000
0100
,
1000
0100
0100
0000
1000
2000
0000
3002
,
0000
0003
0001
2000
0100
3000
0100
0002
,
0100
0003
2100
0000
0001
3000
1000
0001
,
0011
0022
0000
0000
,
0000
0030
2000
0000
0000
0000
0000
0000
,
0000
3003
0110
0000
0000
0100
0010
0100
,
0010
0000
1001
0000
0000
1000
0001
1000
,
0001
0000
0001
0010
0001
0010
0001
0100
,
0001
0100
0011
0000
1100
0000
1010
0000
,
0101
0000
0000
0000
;

//---------------dance-single - ----------------
#NOTES:
     dance-single:
     :
     Medium:
     5:
     0.341673,0.423808,0.202555,0.397320,0.000000,307.000000,281.000000,26.000000,51.000000,0.000000,0.000000,0.341673,0.423808,0.202555,0.397320,0.000000,307.000000,281.000000,26.000000,51.000000,0.000000,0.000000:
// measure 0
0000
0000
0000
0000
,  // measure 1
0000
0000
0000
0000
,  // measure 2
0000
0000
0000
0000
,  // measure 3
0000
0000
0000
0000
,  // measure 4
0000
0000
0000
0000
,  // measure 5
1000
0000
1000
0100
0100
0000
0000
0000
,  // measure 6
0001
0000
0001
0100
0100
0000
0000
0000
,  // measure 7
0010
0000
0010
0001
0001
0000
0000
0000
,  // measure 8
0100
0000
0100
1000
1000
0000
0000
0000
,  // measure 9
0010
0100
0010
0100
,  // measure 10
0010
0010
0010
0000
,  // measure 11
0100
0000
0010
0000
0100
0000
0010
0100
,  // measure 12
0010
0100
0100
0000
,  // measure 13
1000
0000
0001
0000
0010
0000
0001
1000
,  // measure 14
0001
0000
0000
0000
,  // measure 15
0001
0000
1000
0000
0010
0000
1000
0001
,  // measure 16
1000
0000
0000
0000
,  // measure 17
0010
0100
0010
0000
0110
0000
0000
0000
,  // measure 18
0100
0010
0100
0000
0110
0000
0000
0000
,  // measure 19
1001
1001
0110
0110
,  // measure 20
1001
0000
0110
0000
1000
0001
1000
0000
,  // measure 21
1000
0100
2000
0000
3100
0010
0200
0000
,  // measure 22
0301
0010
0002
0000
0013
0000
0100
0000
,  // measure 23
1000
0010
2000
0000
3100
0001
0200
0000
,  // measure 24
0301
0010
0002
0000
1003
0000
0100
0000
,  // measure 25
0010
1000
0020
0000
0031
0100
0002
0000
,  // measure 26
0103
1000
0200
0000
0301
0000
0001
0000
,  // measure 27
0020
0100
0130
0000
2000
0010
3010
0000
,  // measure 28
0200
0001
0301
0000
0110
0000
0110
0000
,  // measure 29
0220
0000
0000
0330
2002
0000
0000
3003
,  // measure 30
0220
0000
0000
0330
1001
0000
1001
0000
,  // measure 31
0010
0000
0010
0000
0010
1000
0001
0000
,  // measure 32
0100
0000
0100
0000
0100
0001
1000
0000
,  // measure 33
0010
0000
0010
0000
0001
0100
0010
0000
,  // measure 34
0100
0000
0100
0000
0001
0010
0001
0010
,  // measure 35
0001
0000
0000
0000
1000
0100
1000
0000
,  // measure 36
0001
0010
0001
0000
0100
0000
0000
0000
,  // measure 37
0010
0000
0000
0000
0100
0001
0100
0000
,  // measure 38
0010
1000
0010
0000
0001
0000
0000
0000
,  // measure 39
1000
0000
0000
0000
0001
0010
0001
0000
,  // measure 40
1000
0100
1000
0000
0010
0000
0000
0000
,  // measure 41
0100
0000
0000
0000
0010
1000
0010
0000
,  // measure 42
0100
0001
0100
0000
1000
0100
1000
0000
,  // measure 43
2002
0000
0000
0000
,  // measure 44
0000
0000
0000
0000
,  // measure 45
0000
0000
0000
3003
0000
0000
0000
0000
,  // measure 46
0110
0000
1000
0100
2000
0000
3100
0010
,  // measure 47
0200
0000
0301
0010
0002
0000
0013
0000
,  // measure 48
0100
0000
1000
0010
2000
0000
3100
0001
,  // measure 49
0200
0000
0301
0010
0002
0000
1003
0000
,  // measure 50
0100
0000
0010
1000
0020
0000
0031
0100
,  // measure 51
0002
0000
0103
1000
0200
0000
0301
0000
,  // measure 52
0001
0000
0020
0100
0130
0000
2000
0010
,  // measure 53
3010
0000
0200
0001
0301
0000
0110
0000
,  // measure 54
0210
0000
1300
0100
2000
0000
3100
0010
,  // measure 55
0200
0000
0301
0010
0002
0000
0013
0000
,  // measure 56
0100
0000
1000
0010
2000
0000
3100
0001
,  // measure 57
0200
0000
0301
0010
0002
0000
1003
0000
,  // measure 58
0100
0000
0010
1000
0020
0000
0031
0100
,  // measure 59
0002
0000
0103
1000
0200
0000
0301
0000
,  // measure 60
0001
0000
0020
0100
0130
0000
2000
0010
,  // measure 61
3010
0000
0200
0001
0301
0000
0110
0000
,  // measure 62
0110
0000
0220
0000
0000
0330
2002
0000
,  // measure 63
0000
3003
0220
0000
0000
0330
1001
0000
,  // measure 64
1001
0000
0010
0000
0010
0000
0010
1000
,  // measure 65
0001
0000
0100
0000
0100
0000
0100
0001
,  // measure 66
1000
0000
0001
0010
0001
0000
0001
0100
,  // measure 67
0001
0000
0100
1000
0100
0000
1000
0010
,  // measure 68
1000
0000
0000
0000
;
