#VERSION:0.83;
#TITLE:Piano Dance;
#SUBTITLE:-Hana Fubuki-;
#ARTIST:ETIA.;
#TITLETRANSLIT:;
#SUBTITLETRANSLIT:;
#ARTISTTRANSLIT:;
#GENRE:;
#ORIGIN:;
#CREDIT:;
#BANNER:pianodance_bn.png;
#BACKGROUND:pianodance_bg.png;
#PREVIEWVID:;
#JACKET:pianodance_jacket.png;
#CDIMAGE:;
#DISCIMAGE:;
#LYRICSPATH:;
#CDTITLE:cdtitle.png;
#MUSIC:pianodancehanafubuki.ogg;
#OFFSET:0.000000;
#SAMPLESTART:68.571434;
#SAMPLELENGTH:13.714287;
#SELECTABLE:YES;
#BPMS:0.000=140.000;
#STOPS:;
#DELAYS:;
#WARPS:;
#TIMESIGNATURES:0.000=4=4;
#TICKCOUNTS:0.000=4;
#COMBOS:0.000=1;
#SPEEDS:0.000=1.000=0.000=0;
#SCROLLS:0.000=1.000;
#FAKES:;
#LABELS:0.000=Song Start;
#BGCHANGES:;
#KEYSOUNDS:;
#ATTACKS:
;

//---------------dance-single - ----------------
#NOTEDATA:;
#CHARTNAME:;
#STEPSTYPE:dance-single;
#DESCRIPTION:;
#CHARTSTYLE:;
#DIFFICULTY:Hard;
#METER:10;
#RADARVALUES:0.594018,0.813303,0.194445,0.127137,0.916134,556.000000,530.000000,26.000000,17.000000,0.000000,0.000000,0.000000,0.000000,0.000000,0.594018,0.813303,0.194445,0.127137,0.916134,556.000000,530.000000,26.000000,17.000000,0.000000,0.000000,0.000000,0.000000,0.000000;
#CREDIT:;
#NOTES:
0000
0000
0000
0000
,
0000
0000
0000
0000
,
0000
0000
0000
0000
,
0000
0000
0000
0000
,
1000
0000
0000
0100
0000
0000
1000
0000
0000
0010
0000
0000
0100
0000
0001
0000
,
0010
0000
0000
0001
0000
0000
0100
0000
0000
0001
0000
0000
0010
0000
0100
0000
,
1000
0000
0000
0001
0000
0000
0100
0000
0000
0010
0000
0000
0010
0000
1000
0000
,
0001
1000
0000
0001
1000
0000
0000
0000
0010
0100
0000
0010
0000
0010
0000
0100
,
0000
0000
0010
0100
0000
0001
0000
0000
1000
0000
0000
0100
0000
0000
1000
0001
,
0000
0000
0010
0000
0000
0100
0000
0000
0010
0000
0000
0001
0000
0000
1000
0001
,
0000
0000
0100
0010
0000
1000
0000
0000
0100
0000
0000
1000
0000
0000
0010
0100
,
0000
0000
0001
0000
0010
0000
0000
0010
0001
0010
0000
0001
0000
0000
1000
0001
,
0000
0000
0010
0100
0000
1000
0000
0000
0010
0000
0000
0100
0000
0000
0001
0100
,
0000
0000
0010
0000
0000
1000
0000
0000
0010
0000
0000
0100
0000
0000
0001
0010
,
0000
0000
0010
0001
0000
0001
0000
0000
1000
0000
0000
0100
0000
0000
1000
0100
,
0000
0000
1000
0000
0000
0010
0000
0000
0100
0000
0000
0001
0000
0000
1000
0000
,
0100
0000
1000
0100
0000
0001
0000
0000
0100
0000
0000
0010
0000
0000
0001
0010
,
0002
0000
0010
0000
0000
1000
0000
0000
0100
0000
0000
0013
0000
0000
0001
0010
,
0200
0000
1000
0000
0000
0010
0000
0000
1000
0000
0000
0310
0000
0000
0010
0001
,
0200
0000
0001
0000
0301
0000
0100
0001
0100
0010
0000
1000
0000
0000
0100
0000
,
2000
0000
0100
0000
0000
0001
0000
0000
0010
0000
0000
3100
0000
1000
0000
1000
,
0002
0000
0100
0000
0000
1000
0000
0000
0010
0000
0000
0103
0000
0000
0100
0001
,
0020
0000
0100
0000
0000
0001
0000
0000
0100
0000
0000
0031
0000
0000
1000
0000
,
0010
0000
0000
0010
1000
0010
0000
0100
0001
1000
0001
0100
0000
0001
0000
0000
,
2002
0000
0000
0000
0000
0000
0000
0000
3003
0000
0000
0000
0000
0000
1000
0100
,
1000
0000
0000
0010
0000
0000
1010
0000
0000
0000
1000
0000
0010
0000
0100
0000
,
0001
0000
0100
0001
0000
0010
0000
0100
0000
0010
0100
0000
0000
0010
0000
0000
,
0001
0000
0000
0100
0000
0000
0010
0000
0000
0000
1000
0000
0001
1000
0000
0000
,
0001
0100
0001
0100
0001
1000
0001
1000
0100
1000
0100
0010
0001
0000
1000
0100
,
0010
0000
0000
0001
0000
0000
0011
0000
0000
0000
0001
0000
0010
0000
0100
0000
,
1000
0000
0000
1100
0000
0000
1001
0000
0000
0000
0000
0000
0000
0000
0001
0100
,
0010
0000
0100
0010
0000
1000
0000
0100
0000
1000
0001
0000
1000
0000
0010
0000
,
0210
0000
0000
0000
0000
0000
0002
0000
0000
0000
0000
0000
0303
0000
0001
0100
,
0001
0000
0000
0010
0000
0000
0110
0000
0000
0000
0010
0000
0001
0000
1000
0000
,
0010
0000
0100
0010
0000
1000
0000
0010
0000
0001
0010
0000
0000
0100
0000
0000
,
0101
0000
0000
1001
0000
0000
1010
0000
0000
0000
0000
0000
1000
0001
0000
0000
,
0001
0010
0000
0010
0001
1000
0001
1000
0010
1000
0010
1000
0001
0000
1000
0010
,
0100
0000
0000
0001
0000
0000
0101
0000
0000
0000
0001
0000
1000
0000
0100
0000
,
1000
0000
0000
1001
0000
0000
0101
0000
0000
0000
0000
0000
0000
0000
0001
1000
,
0100
0000
0000
0010
0000
0000
0001
0000
0000
1000
0000
0000
0100
0000
0000
0010
0000
0000
0001
0000
0000
1000
0000
0000
0010
0000
0000
0000
0100
0000
0000
0000
0100
0000
0000
0000
0000
0000
0000
0000
0010
0000
0000
0000
0010
0000
0000
0000
,
1000
0000
0001
0000
1000
0100
0000
1000
0000
1000
0100
1000
0001
0100
0010
1000
,
0000
0000
0001
0100
0010
0100
0000
0010
0000
0100
0010
1000
0100
0000
1000
0000
,
0001
0000
1000
0001
0000
0010
0000
0100
0000
0001
0100
0000
1000
0000
0001
0000
,
0000
1001
0000
0000
1000
0001
0000
0100
0000
0010
0100
0000
0010
1000
0010
0100
,
0000
0000
0010
0000
0100
0001
0000
0000
1000
0000
0000
1000
0000
0000
1000
0000
,
0001
0000
0000
0011
0000
0000
1001
0000
0000
0000
1000
0000
0010
0100
0000
0000
,
0001
0000
1000
0000
0100
1000
0000
0000
0100
0000
0000
0010
0000
0000
0010
0000
,
0000
0110
0000
0000
1100
0000
0000
0000
1001
0000
0000
0101
0000
0000
1000
0000
,
0001
0000
1000
0000
0001
0100
0000
0001
0000
0001
0100
0001
1000
0100
0010
0001
,
0000
0000
1000
0100
0010
0100
0000
0010
0000
0100
0010
0001
0100
0000
0001
0000
,
1000
0000
0001
1000
0000
0010
0000
0100
0000
1000
0100
0000
0001
0000
1000
0001
,
0000
0000
1001
0000
1000
0100
0000
0010
0000
0010
0100
0000
0010
0001
0010
0100
,
0000
0000
0010
0000
0100
1000
0000
0000
0001
0000
0000
0001
0000
0000
0001
0000
,
1000
0000
0100
0000
1000
0010
0000
0100
0000
0010
0100
0001
1000
0010
0100
0001
,
1000
0100
0010
0001
0010
0100
1000
0010
0100
0001
0100
0010
1000
0010
0100
0010
,
0100
0000
0000
0000
0001
0100
0000
0001
1000
0100
1000
0001
0000
1000
0000
0010
,
0000
0000
0100
0010
0000
1000
0000
0000
1000
0000
0000
0010
0000
0000
1000
0001
,
0000
0000
0100
0000
0000
0010
0000
0000
0100
0000
0000
0001
0000
0000
1000
0001
,
0000
0000
0010
0100
0000
1000
0000
0000
0010
0000
0000
1000
0000
0000
0100
0010
,
0000
0000
0001
0000
0100
0000
0000
0100
0001
0100
0000
0001
0000
0000
1000
0001
,
0000
0000
0100
0010
0000
1000
0000
0000
0100
0000
0000
0010
0000
0000
0001
0010
,
0000
0000
0100
0000
0000
1000
0000
0000
0100
0000
0000
0010
0000
0000
0001
0100
,
0000
0000
0100
0001
0000
0001
0000
0000
1000
0000
0000
0010
0000
0000
1000
0010
,
0000
0000
1000
0000
0000
0100
0000
0000
0010
0000
0000
0001
0000
0000
1000
0000
,
0020
0000
1000
0000
0000
0100
0000
0000
1000
0000
0000
0031
0000
0010
0000
0100
,
0002
0000
0100
0000
0000
1000
0000
0000
0010
0000
0000
0103
0000
0000
0001
0100
,
0020
0000
1000
0000
0000
0100
0000
0000
1000
0000
0000
0130
0000
0000
0100
0001
,
0020
0000
0001
0000
0031
0000
0010
0001
0010
0100
0000
1000
0000
0000
0010
0000
,
2000
0000
0010
0000
0000
0001
0000
0000
0100
0000
0000
3010
0000
1000
0000
1000
,
0001
0000
0100
0000
0001
0000
1000
0100
0010
0000
0001
1000
0000
1000
0001
0000
,
0101
0001
1001
1000
1100
0100
0110
0010
,
0100
0000
0000
0100
1000
0100
0000
0010
0001
1000
0001
0010
0000
0100
0000
2002
,
0000
0000
0000
0000
,
0000
0000
0000
0000
,
0000
0000
0000
0000
,
3003
0000
0000
0000
;

//---------------dance-single - ----------------
#NOTEDATA:;
#CHARTNAME:;
#STEPSTYPE:dance-single;
#DESCRIPTION:;
#CHARTSTYLE:;
#DIFFICULTY:Easy;
#METER:3;
#RADARVALUES:0.241453,0.280449,0.059829,0.164530,0.011218,226.000000,218.000000,8.000000,22.000000,0.000000,0.000000,0.000000,0.000000,0.000000,0.241453,0.280449,0.059829,0.164530,0.011218,226.000000,218.000000,8.000000,22.000000,0.000000,0.000000,0.000000,0.000000,0.000000;
#CREDIT:;
#NOTES:
0000
0000
0000
0000
,
0000
0000
0000
0000
,
0000
0000
0000
0000
,
0000
0000
0000
0000
,
1000
0001
0100
0001
,
1000
0100
1000
0001
,
0010
0001
1000
0010
,
0100
0000
0000
0000
0000
0000
0000
0000
0010
0000
0000
0000
0010
0000
0000
0100
,
0000
0010
0100
0001
,
1000
0100
1000
0010
,
0100
0001
1000
0001
,
0010
0100
0010
0010
,
0001
1000
0010
1000
,
0001
0010
0001
0100
,
0010
1000
0100
0100
,
1000
0001
0100
0100
,
0101
0000
0001
1000
,
2001
0000
0000
0000
,
3200
0000
0000
0000
,
0320
0000
0000
0000
,
0032
0000
0000
0000
,
0203
0000
0000
0000
,
0320
0000
0000
0000
,
1030
1000
0001
0001
,
2002
0000
3003
0000
,
0001
0000
0000
1000
0000
0000
0010
0000
,
0100
0100
0001
0000
,
1000
0000
0000
0001
0000
0000
0010
0000
,
0100
0100
1000
1000
,
0001
0000
0000
1000
0000
0000
0010
0000
,
0100
0000
0000
0010
0000
0000
0000
0000
,
1000
0001
0010
0100
,
0220
0000
0330
0000
,
1000
0000
0000
0001
0000
0000
0010
0000
,
0100
0100
1000
0000
,
0001
0000
0000
1000
0000
0000
0010
0000
,
0100
0100
0001
0001
,
1000
0000
0000
0001
0000
0000
0010
0000
,
0100
0000
0000
0010
0000
0000
0000
0000
,
0001
1000
0020
0000
,
1030
1000
0100
1000
,
0001
0001
0100
0001
,
1000
0100
0001
0010
,
1000
1000
0001
0001
,
0100
0001
0010
0100
,
1000
0000
0000
0001
0000
0000
1000
0000
,
0100
0100
0010
0010
,
0001
0001
1000
1000
,
0001
0001
0100
0001
,
1000
1000
0100
1000
,
0001
0100
1000
0010
,
0001
0001
1000
1000
,
0100
1000
0010
0100
,
0001
0001
1000
0001
,
0100
0100
0010
0010
,
0220
0000
0000
0000
0000
0000
0000
0000
0000
0000
0000
0000
0330
0000
0000
1001
,
0000
0010
0100
1000
,
0001
0100
0001
0010
,
0100
1000
0001
1000
,
0010
0100
0010
0010
,
1000
0001
0010
0001
,
1000
0010
1000
0100
,
0010
0001
0100
0100
,
0001
1000
0100
0100
,
2100
0000
0000
0000
,
3002
0000
0000
0000
,
0203
0000
0000
0000
,
0320
0000
0000
0000
,
2030
0100
0100
0100
,
3200
0010
0010
0010
,
0320
0001
0001
0001
,
0031
0000
0000
0000
0100
0000
0000
0000
0010
0000
0000
0000
0100
0000
0000
0220
,
0000
0000
0000
0000
,
0000
0000
0000
0000
,
0000
0000
0000
0000
,
0330
0000
0000
0000
;

//---------------dance-single - ----------------
#NOTEDATA:;
#CHARTNAME:;
#STEPSTYPE:dance-single;
#DESCRIPTION:;
#CHARTSTYLE:;
#DIFFICULTY:Medium;
#METER:7;
#RADARVALUES:0.443377,0.504809,0.037393,0.119658,0.471155,415.000000,410.000000,5.000000,16.000000,0.000000,0.000000,0.000000,0.000000,0.000000,0.443377,0.504809,0.037393,0.119658,0.471155,415.000000,410.000000,5.000000,16.000000,0.000000,0.000000,0.000000,0.000000,0.000000;
#CREDIT:;
#NOTES:
// measure 0
0000
0000
0000
0000
,  // measure 1
0000
0000
0000
0000
,  // measure 2
0000
0000
0000
0000
,  // measure 3
0000
0000
0000
0000
,  // measure 4
0001
0000
0000
0100
0000
0000
0001
0000
0000
0010
0000
0000
0001
0000
1000
0000
,  // measure 5
0100
0000
0000
1000
0000
0000
0010
0000
0000
1000
0000
0000
0010
0000
0100
0000
,  // measure 6
0001
0000
0000
1000
0000
0000
0100
0000
0000
1000
0000
0000
0010
0000
0100
0000
,  // measure 7
0010
0000
0000
0000
0010
0000
0000
0000
0100
0001
0000
0100
0000
0001
0000
1000
,  // measure 8
0000
0000
0001
0000
0000
0010
0000
0000
0100
0000
0000
0010
0000
0000
0001
0000
,  // measure 9
0000
0000
1000
0000
0000
0010
0000
0000
0100
0000
0000
0010
0000
0000
1000
0000
,  // measure 10
0000
0000
0001
0000
0000
1000
0000
0000
0100
0000
0000
0010
0000
0000
0001
0000
,  // measure 11
0000
0000
1000
0000
0001
0000
0000
0000
1000
0000
0000
0010
0000
0000
0100
0000
,  // measure 12
0000
0000
0001
0000
0000
0100
0000
0000
0010
0000
0000
0100
0000
0000
0001
0000
,  // measure 13
0000
0000
1000
0000
0000
0100
0000
0000
0010
0000
0000
0100
0000
0000
1000
0000
,  // measure 14
0000
0000
1000
0000
0000
0001
0000
0000
0100
0000
0000
0010
0000
0000
0100
0000
,  // measure 15
0000
0000
0001
0000
0000
1000
0000
0000
0100
0000
0000
0010
0000
0000
0100
0000
,  // measure 16
1000
0000
0001
0000
0000
0100
0000
0000
0001
0000
0000
1000
0000
0000
0100
0000
,  // measure 17
2000
0000
0100
0000
0000
0100
0000
0000
0100
0000
0000
0100
3000
0000
1000
0000
,  // measure 18
0002
0000
0100
0000
0000
0100
0000
0000
0100
0000
0000
0100
0003
0000
0001
0000
,  // measure 19
0010
0000
0100
0000
1000
0000
0000
0000
0001
0000
0000
1000
0000
0000
0010
0000
,  // measure 20
0200
0000
0010
0000
0000
0010
0000
0000
0010
0000
0000
0010
0300
0000
0100
0000
,  // measure 21
0020
0000
0001
0000
0000
0001
0000
0000
0001
0000
0000
0001
0030
0000
0001
0000
,  // measure 22
0200
0000
0010
0000
0000
0010
0000
0000
0001
0000
0000
0001
0300
0000
0001
0000
,  // measure 23
1000
0000
0000
0000
1000
0100
0000
0000
1000
0100
0000
1000
0000
0001
0000
0000
,  // measure 24
2002
0000
0000
0000
3003
0000
0000
1000
,  // measure 25
0001
0000
0000
0100
0000
0000
0010
0000
0000
0000
0100
0000
0001
0000
1000
0000
,  // measure 26
0100
0000
0000
1000
0000
0100
0000
0010
0000
0000
0001
0000
0000
0100
0000
0000
,  // measure 27
0010
0000
0000
1000
0000
0000
1001
0000
0000
0000
0000
0000
1000
0100
0000
0000
,  // measure 28
0100
1000
0100
0001
0100
0010
0001
1000
,  // measure 29
0001
0000
0000
1000
0000
0000
0010
0000
0000
0000
0100
0000
0010
0000
0100
0000
,  // measure 30
0001
0000
0000
1000
0000
0000
0100
0000
0000
0000
0000
0000
0000
0000
1000
0000
,  // measure 31
0001
0000
0000
1000
0000
0001
0000
1000
0000
0000
0100
0000
1000
0000
0001
0000
,  // measure 32
2002
0000
0000
0000
3003
0000
0000
0001
,  // measure 33
1000
0000
0000
0100
0000
0000
0010
0000
0000
0000
0100
0000
1000
0000
0001
0000
,  // measure 34
0100
0000
0000
0001
0000
0100
0000
0010
0000
0000
1000
0000
0000
0100
0000
0000
,  // measure 35
0010
0000
0000
0001
0000
0000
1001
0000
0000
0000
0000
0000
0001
0100
0000
0000
,  // measure 36
0100
0001
0100
1000
0100
0010
1000
0001
,  // measure 37
1000
0000
0000
0001
0000
0000
0010
0000
0000
0000
0100
0000
0010
0000
0100
0000
,  // measure 38
1000
0000
0000
0001
0000
0000
0100
0000
0000
0000
0000
0000
0000
0000
0010
0000
,  // measure 39
0100
0000
0000
0001
0000
0000
1000
0000
0000
0100
0000
0000
0010
0000
0100
0000
0010
0000
0000
0000
0100
0000
0010
0000
,  // measure 40
0001
0100
0001
1000
0100
1000
0001
0001
,  // measure 41
1000
0000
0100
0000
1000
0000
0001
0000
1000
0000
0010
0100
0010
0000
1000
0000
,  // measure 42
0100
0000
0000
0100
0000
0010
0000
0001
0000
0000
1000
0000
0010
0000
0100
0000
,  // measure 43
0000
0001
0000
0000
0100
0001
0000
1000
0000
0000
0100
0000
1000
0000
0001
0000
,  // measure 44
0100
0000
0010
0000
0100
0000
0001
0000
0010
0000
0000
0100
0000
0000
0010
0000
,  // measure 45
0001
0000
0000
1000
0000
0000
0010
0000
0000
0000
0100
0000
0001
0000
1000
0000
,  // measure 46
0100
0000
0010
0000
0001
0000
0000
0000
1000
0000
0000
0001
0000
0000
0100
0000
,  // measure 47
0000
0010
0000
0000
0100
0000
0000
0000
0001
0000
0000
0010
0000
0000
0001
0000
,  // measure 48
1000
0100
1000
0001
0100
0001
1000
1000
,  // measure 49
0001
0000
0100
0000
0001
0000
1000
0000
0001
0000
0010
0100
0010
0000
0001
0000
,  // measure 50
0100
0000
0000
0100
0000
0010
0000
1000
0000
0000
0001
0000
0010
0000
0100
0000
,  // measure 51
0000
1000
0000
0000
0100
1000
0000
0001
0000
0000
0100
0000
0001
0000
1000
0000
,  // measure 52
0100
0000
0010
0000
0100
0000
1000
0000
0010
0000
0000
0100
0000
0000
0010
0000
,  // measure 53
1000
0000
0001
0000
0010
0000
0000
0100
0000
0000
0100
0000
1000
0000
0001
0000
,  // measure 54
0100
0010
1000
0001
0100
0010
1000
0100
,  // measure 55
0010
0000
0000
0000
0100
0010
0000
0000
0010
0001
0000
0010
0000
0001
0000
1000
,  // measure 56
0000
0000
1000
0000
0000
0010
0000
0000
0100
0000
0000
0010
0000
0000
1000
0000
,  // measure 57
0000
0000
0001
0000
0000
0010
0000
0000
0100
0000
0000
0010
0000
0000
0001
0000
,  // measure 58
0000
0000
1000
0000
0000
0001
0000
0000
0100
0000
0000
0010
0000
0000
1000
0000
,  // measure 59
0000
0000
0001
0000
1000
0000
0000
0000
0001
0000
0000
0010
0000
0000
0100
0000
,  // measure 60
0000
0000
1000
0000
0000
0100
0000
0000
0010
0000
0000
0100
0000
0000
1000
0000
,  // measure 61
0000
0000
0001
0000
0000
0100
0000
0000
0010
0000
0000
0100
0000
0000
0001
0000
,  // measure 62
0000
0000
0001
0000
0000
1000
0000
0000
0100
0000
0000
0010
0000
0000
0100
0000
,  // measure 63
0000
0000
1000
0000
0000
0001
0000
0000
0100
0000
0000
0010
0000
0000
0100
0000
,  // measure 64
0001
0000
1000
0000
0000
0100
0000
0000
1000
0000
0000
0001
0000
0000
0100
0000
,  // measure 65
0002
0000
0100
0000
0000
0100
0000
0000
0100
0000
0000
0100
0003
0000
0001
0000
,  // measure 66
2000
0000
0100
0000
0000
0100
0000
0000
0100
0000
0000
0100
3000
0000
1000
0000
,  // measure 67
0010
0000
0100
0000
0001
0000
0000
0000
1000
0000
0000
0001
0000
0000
0010
0000
,  // measure 68
0200
0000
0010
0000
0000
0010
0000
0000
0010
0000
0000
0010
0300
0000
0100
0000
,  // measure 69
0020
0000
0001
0000
0000
0001
0000
0000
0001
0000
0000
0001
0030
0000
0001
0000
,  // measure 70
0200
0000
0010
0000
0000
0010
0000
0000
0001
0000
0000
0001
0300
0000
0001
0000
,  // measure 71
1000
0000
0000
0000
0001
0100
0000
0000
0001
0100
0000
0001
0000
1000
0000
2002
,  // measure 72
0000
0000
0000
0000
,  // measure 73
0000
0000
0000
0000
,  // measure 74
0000
0000
0000
0000
,  // measure 75
3003
0000
0000
0000
;
