#TITLE:Phantom R's Theme;
#SUBTITLE:;
#ARTIST:Tomoya Ohtani;
#TITLETRANSLIT:;
#SUBTITLETRANSLIT:;
#ARTISTTRANSLIT:;
#GENRE:;
#CREDIT:;
#BANNER:[Keyboardmania] - Phantom R's Theme.png;
#BACKGROUND:[Keyboardmania] - Phantom R's Theme-bg.png;
#LYRICSPATH:;
#CDTITLE:;
#MUSIC:[Keyboardmania] - Phantom R's Theme.ogg;
#OFFSET:0.000000;
#SAMPLESTART:48.150002;
#SAMPLELENGTH:13.070000;
#LASTBEATHINT:629.930237;
#SELECTABLE:YES;
#DISPLAYBPM:147.000000:294.000000;
#BPMS:0.000000=147.000000
,14.000000=73.500000
,16.000000=147.000000
,20.000000=294.000000
,340.000000=146.000000
,348.000000=294.000000
,629.000000=147.000000
;
#STOPS:
;
#BGCHANGES:;
#KEYSOUNDS:;
#ATTACKS:;

//---------------dance-single - ----------------
#NOTES:
     dance-single:
     :
     Hard:
     10:
     0.752200,1.499135,0.308004,0.506006,0.029334,718.000000,676.000000,42.000000,69.000000,2.000000,0.000000,0.752200,1.499135,0.308004,0.506006,0.029334,718.000000,676.000000,42.000000,69.000000,2.000000,0.000000:
0000
0000
0000
0000
,
0000
0000
0000
0000
,
0000
0000
0000
0000
0000
0000
0000
0000
0000
0000
0000
0000
0000
0000
1000
0100
,
0010
0001
0000
0100
0000
0010
1000
0000
2002
0000
0000
0000
0000
0000
3000
0000
,
0020
0000
0000
0000
0003
0000
0000
0030
,
0100
1000
0010
0100
,
0001
0100
0010
1000
,
0001
0100
0010
1000
,
0100
0001
0100
0010
,
0001
1000
0100
0010
,
0001
1000
0010
0100
,
0001
0001
0100
0000
,
1000
1000
0100
0000
,
0010
1000
0100
0010
,
0001
0010
0100
1000
,
0001
0010
0100
0001
,
0100
1000
0010
0100
,
0001
0100
0010
1000
0000
0100
0000
0010
,
0000
0000
0011
0000
,
1100
0000
0000
1000
0000
0000
0010
0000
,
0100
0000
0002
0000
,
1003
0100
0001
1000
,
0020
0000
0000
0000
0001
0000
0130
1000
,
0100
0000
0100
0010
0000
0010
0001
0000
,
1000
0010
2000
0000
0000
0000
3001
0100
,
0001
0010
1000
0001
,
0200
0000
0000
0000
1000
0000
0310
0001
,
0010
0000
0000
0100
0000
0000
1000
0000
,
1010
0100
0101
0010
,
0000
0100
0001
1000
,
0020
0000
0000
0000
1000
0000
0130
0001
,
0100
0000
0100
0010
0000
0010
1000
0000
,
0001
0010
0002
0000
0000
0000
0103
0010
,
1000
0000
0000
0001
0000
0000
0100
0000
,
0010
0000
0010
1000
0000
0100
0001
0000
,
0100
0000
0100
0010
0000
0000
0001
0000
,
0100
0001
0100
0000
0010
1000
0001
0010
,
0002
0000
1000
0000
,
0103
0001
0010
0100
,
2000
0100
3001
0010
,
0200
1000
0320
0000
,
0032
0100
2003
0000
,
3200
0001
0320
0000
,
0031
0000
0001
1000
0000
1000
0010
0000
,
0200
0000
0320
0000
,
1030
0000
0000
0100
0000
0100
1000
0010
,
1000
0001
0010
0100
,
0011
0000
0000
0001
0000
0001
0010
0100
,
0010
0001
0100
0010
,
1000
0100
1000
0000
0001
0100
0001
0000
,
1000
0010
1000
0000
0001
0010
0001
0000
,
0011
0000
0000
1100
0000
0000
0101
0000
,
0001
1000
0000
1000
0000
0010
0100
0000
,
0001
0000
0010
0000
0001
0100
0000
0010
,
0000
0010
1000
0000
0001
0000
0011
0000
,
0010
0000
0100
0000
1000
0100
0000
0010
,
0000
0010
0001
0000
0100
0000
0110
0000
,
0100
0000
0010
0000
1000
0100
0000
0002
,
0000
0103
1000
0010
,
1010
0000
0000
0011
0000
0000
1200
0000
,
0000
0000
0310
0000
0001
0100
0001
0000
,
2000
0100
3002
0010
,
1003
0000
1000
0001
0000
0001
0100
0000
,
0001
0000
0001
0010
0000
0010
0100
0000
,
2000
0010
3002
0100
,
0023
0000
0000
0230
0000
0000
2300
0000
,
3002
0100
2003
0001
,
3010
0000
0100
0000
0001
0000
0010
0001
,
0100
0000
0010
0000
1000
0010
1000
0010
,
1000
0000
0100
0000
1000
0010
0000
0100
,
0000
0100
0001
0000
1000
0000
1100
0000
,
0100
0000
0010
0000
0001
0010
0000
0100
,
0000
0100
1000
0000
0010
0000
0110
0000
,
0010
0000
0100
0000
0001
0010
0000
2000
,
0000
3010
0001
0100
,
0101
0000
0000
1100
0000
0000
0021
0000
,
0000
0000
0130
0000
1000
0010
1000
0000
,
0001
0010
0100
1000
,
0001
0100
1000
0001
,
0010
0000
0000
0010
1000
0000
0000
0100
,
0020
0000
0000
0032
0000
0000
2003
0000
,
3002
0100
2003
0001
,
3020
1000
0230
0301
,
0100
0000
0000
0100
0010
0000
0000
0010
,
1000
0100
1000
0001
0100
0001
0100
0010
,
1M00
0000
0001
0000
0100
0001
0100
0000
0010
0000
1000
0000
0001
0000
0010
0100
,
1000
0000
1010
0000
1001
0000
0011
0000
0110
0000
1100
0000
0100
1000
0001
0100
,
M010
0000
0010
1000
0000
0000
1001
0000
,
0000
0001
0010
0100
,
0010
0000
0010
0001
0000
0000
0110
0000
,
0000
0001
0010
0100
,
1000
0000
1000
0010
0000
0000
1001
0000
,
0000
0000
0001
0000
0100
0000
0001
0010
,
0100
0000
0100
1000
0000
0000
0101
0000
,
0000
0001
0010
0100
,
1000
0000
0010
0100
0000
0001
0020
0000
,
0000
0000
0032
0000
0103
0000
0010
0100
,
0001
0000
0010
0100
0000
1000
0020
0000
,
0000
0000
1030
0000
0001
0010
0100
0000
,
1000
0000
0001
0010
0000
0020
1000
0000
,
0000
0031
0020
1030
,
0001
0000
0100
1000
0000
0001
0100
0010
,
1000
0100
1000
0100
0001
0100
0001
0100
,
0010
0000
0001
1000
0000
0000
1100
0000
,
0000
0000
1000
0000
0010
0100
0001
1000
,
0010
0000
1000
0001
0000
0000
0102
0000
,
0023
0000
0230
0000
,
1300
0000
0001
0100
0000
0000
1010
0000
,
1000
0000
0100
0000
0010
0000
0001
0100
,
0001
0000
1000
0100
0000
0000
0012
0000
,
0203
0010
0302
1000
,
0013
0000
0100
1000
0000
1000
0020
0000
,
0000
0001
0130
0100
,
0010
0000
0100
0001
0000
0001
0020
0000
,
0000
0130
2000
0001
,
3100
0000
1000
0010
0000
0000
0022
0000
,
0000
0000
0000
0033
,
0001
0001
1000
1000
,
0010
1000
0001
0100
0001
1000
0100
0010
,
0001
0000
0010
0000
0001
0100
0010
1000
,
0000
1000
0010
0100
0001
0000
0011
0000
,
0010
0000
0100
0000
1000
0100
0010
0001
,
0000
0001
0100
0010
1000
0000
1020
0000
,
0130
0000
0010
0000
1000
0100
0000
0002
,
0000
0103
0010
0001
,
1000
0000
0100
0001
0000
0100
2000
0000
,
0000
0000
0010
0000
3001
0100
0001
0000
,
2000
0010
3002
0100
,
1003
0000
1000
0001
0000
0001
0100
0000
,
1000
0000
0001
0010
0000
1000
0100
0000
,
0020
0001
0230
1000
,
0301
0000
0100
1000
0000
0010
0001
0000
,
1000
0100
0002
1000
,
0013
0000
0100
0000
1000
0000
0010
1000
,
0100
0000
0010
0000
0010
0001
0100
0010
,
1000
0000
0100
0000
1000
0010
0100
0001
,
0000
0001
0100
0010
1000
0000
1100
0000
,
0010
0000
0001
0000
0100
0010
1000
0001
,
0000
0001
1000
0010
0100
0000
0110
0000
,
0100
0000
0001
0000
0010
1000
0000
0020
,
0000
0031
0100
0010
,
1100
0000
0000
0101
0000
0000
2010
0000
,
0000
0000
3100
0000
1000
0010
1000
0000
,
0001
0010
0100
1000
,
0001
0100
1000
0001
,
0010
0000
1000
0010
1000
0000
0100
1000
,
0100
0000
0010
0100
0010
0000
0001
0010
,
0002
0100
2003
0001
,
3020
1000
0230
0301
,
0100
0001
0010
1000
,
0010
0100
0010
0100
1000
0001
1000
0001
,
0010
0000
0010
0001
0000
0001
0100
0000
,
0100
0001
0000
0001
0010
0000
0110
0000
,
0100
0000
0100
1000
0000
1000
0010
0000
,
0010
1000
0000
1000
0100
0000
0010
0000
,
0001
0100
0010
1010
,
1000
0000
0100
0000
0010
0000
0001
1000
,
0010
0001
0010
0000
0000
0000
0000
0000
;

//---------------dance-single - ----------------
#NOTES:
     dance-single:
     :
     Medium:
     7:
     0.498673,0.922544,0.190669,0.440005,0.003667,476.000000,450.000000,26.000000,60.000000,2.000000,0.000000,0.498673,0.922544,0.190669,0.440005,0.003667,476.000000,450.000000,26.000000,60.000000,2.000000,0.000000:
0000
0000
0000
0000
,
0000
0000
0000
0000
,
0000
0000
0000
0000
0000
0000
0000
0100
,
0010
0000
0000
1000
0000
0000
0100
0000
2000
0000
0000
0000
0000
0000
0000
0000
,
0002
0000
0000
3000
,
0013
0000
0100
0000
,
0010
0001
0100
0010
,
1000
0000
0100
0000
,
1000
0010
0001
0010
,
0100
0000
0001
0000
,
0010
0000
0200
0000
,
1300
0000
2000
0000
,
3001
0000
0002
0000
,
0013
0000
0001
0000
,
0100
0010
1000
0001
,
0100
0000
0001
0000
,
0010
0100
1000
0001
,
0010
0000
0100
0000
,
1000
0000
0001
0000
,
0200
0000
0001
0000
,
0320
0000
0000
0030
,
1000
0100
1000
0001
,
0010
0000
0000
0001
,
0100
0000
0000
0010
0000
0000
0100
0000
,
0001
0000
0000
1000
,
0100
0000
0000
1000
0000
0000
0010
0000
,
1000
0000
0000
0001
,
0010
0000
0000
0100
0000
0000
0010
0000
,
0001
1000
0010
0100
,
0000
0100
0001
1000
,
0010
0000
0000
1000
,
0001
0000
0000
0010
0000
0000
0100
0000
,
1000
0001
0000
1000
,
0100
0000
0000
1000
0000
0000
0001
0000
,
0010
0000
0000
0001
0000
0000
0100
0000
,
0010
0000
1000
0000
,
0100
0000
0001
0100
,
0020
0000
0001
0000
,
0130
1000
0010
0100
,
0002
0000
0100
0000
,
1003
0010
0100
0001
,
2000
0000
0100
0000
,
3002
0000
0010
0000
,
0103
0000
0000
0010
0000
0000
0100
0000
,
0002
0000
0023
0000
,
0130
0000
1000
0010
,
1000
0100
1000
0001
,
0100
0000
0100
0001
,
0010
0001
1000
0001
,
0100
0000
0101
0000
,
1100
0000
0011
0000
,
1020
0000
0000
2030
0000
0000
3002
0000
,
0013
0000
0000
0000
,
0001
0100
0010
0001
,
0010
0100
0001
0000
,
0010
0100
1000
0010
,
0001
0010
1000
0000
,
0100
1000
0001
0100
,
0010
0010
0100
0001
,
0011
0000
0000
1100
0000
0000
2002
0000
,
0000
0000
0003
0000
,
3100
1000
0001
0010
,
0001
0000
0000
0001
0000
0000
0100
0000
,
0001
0000
0000
0010
0000
0000
0100
0000
,
2000
0000
3010
0000
,
0010
0000
0000
1000
0000
0000
0100
0000
,
0001
0000
0100
0000
,
0020
0000
0031
0010
,
0200
0000
1300
0000
,
0100
1000
0010
0100
,
1000
0100
0010
0000
,
1000
0001
0010
0100
,
0001
0100
0010
0000
,
0001
1000
0010
0100
,
0001
0001
0100
0010
,
1010
0000
0000
0011
0000
0000
0110
0000
,
0000
0100
1000
0001
,
0010
0001
0010
0100
,
0000
1000
0001
0100
,
1010
0000
0011
0000
,
1100
0000
0101
0000
,
0001
0100
0010
0000
,
1000
0010
0100
0000
,
0002
0000
0023
0000
,
0230
0000
2300
0000
,
30M1
0100
0010
1000
0010
0100
0001
1000
,
0100
0010
0001
0100
0010
1000
0002
0000
,
0M13
0000
0000
0001
0000
0000
0200
0000
,
0000
0320
0000
1030
,
0010
0000
0000
1000
0000
0000
0200
0000
,
0000
2300
0000
3001
,
0100
0000
0000
0010
0000
0000
2000
0000
,
0000
3020
0000
0130
,
0001
0000
0000
1000
0000
0000
0100
0000
,
0010
0001
0100
0010
,
1000
0000
0000
0100
0000
0000
0020
0000
,
0000
0230
0000
1300
,
0001
0000
0000
0100
0000
0000
0020
0000
,
0000
0130
0002
0000
,
0203
0000
0000
0310
0000
0000
2000
0000
,
0000
3100
0001
0100
,
0010
0000
0000
0001
0000
0000
0100
0000
,
0010
1000
0001
0010
,
0100
0000
0000
1000
0000
0000
0020
0000
,
0000
0230
0000
0301
,
0100
0000
0000
0001
0000
0000
0020
0000
,
0000
0032
1000
0000
,
0103
0000
0000
0010
0000
0000
2000
0000
,
0000
3100
0010
0001
,
1000
0000
0000
0001
0000
0000
0010
0000
,
0100
1000
0010
0100
,
0001
0000
0000
0010
0000
0000
0200
0000
,
0000
0320
0000
0031
,
1000
0000
0000
0010
0000
0000
0200
0000
,
0000
0310
2000
0000
,
3002
0000
0000
0013
0000
0000
0220
0000
,
0000
0000
0000
0330
,
0100
0100
0100
0100
,
1000
0001
0100
0010
,
1000
0010
0100
1000
,
0100
0010
1000
0000
,
0100
0010
0001
0100
,
1000
0100
0001
0000
,
0010
0001
1000
0010
,
0100
0100
0010
1000
,
1100
0000
0000
0011
0000
0000
2002
0000
,
0000
0000
3000
0000
,
0013
0001
1000
0100
,
1000
0000
0000
1000
0000
0000
0010
0000
,
1000
0000
0000
0100
0000
0000
0010
0000
,
0002
0000
0103
0000
,
0100
0000
0000
0001
0000
0000
0010
0000
,
1000
0000
0010
0000
,
0200
0000
1300
0100
,
0020
0000
0031
0000
,
0010
0001
0100
0010
,
0001
0010
0100
0000
,
0001
1000
0100
0010
,
1000
0010
0100
0000
,
1000
0001
0100
0010
,
1000
1000
0010
0100
,
0101
0000
0000
1100
0000
0000
0110
0000
,
0000
0010
0001
1000
,
0100
1000
0100
0010
,
0000
0001
1000
0001
,
0011
0000
1100
0000
,
1010
0000
0011
0000
,
1000
0010
0100
0000
,
0001
0100
0010
0000
,
2000
0000
3200
0000
,
0320
0000
0032
0000
,
1003
0000
0000
0100
0000
0000
1000
0000
,
0000
0100
0000
0000
1000
0000
1000
0000
,
0001
0000
0000
0100
0000
0000
0001
0000
,
0000
0100
0000
0000
0001
0000
0001
0000
,
1000
0100
0010
0001
,
0100
0020
0000
0130
,
0010
1001
0000
0000
;

//---------------dance-single - ----------------
#NOTES:
     dance-single:
     :
     Easy:
     5:
     0.313242,0.461272,0.256670,0.205336,0.000000,299.000000,264.000000,35.000000,28.000000,2.000000,0.000000,0.313242,0.461272,0.256670,0.205336,0.000000,299.000000,264.000000,35.000000,28.000000,2.000000,0.000000:
0000
0000
0000
0000
,
0000
0000
0000
0000
,
0000
0000
0000
0000
,
0010
0100
2000
0000
,
0002
0000
0000
3000
,
0013
0000
0000
0000
,
0000
0100
0010
0001
,
1000
0000
0000
0000
,
0000
1000
0010
0100
,
0001
0000
0000
0000
,
0000
0000
1000
0000
,
0100
0000
0000
0000
,
0010
0000
0000
0000
,
1001
0000
0000
0000
,
0000
0001
0010
0100
,
1000
0000
0000
0000
,
0000
0100
0010
1000
,
0001
0000
0100
0000
,
0010
0000
0001
0000
,
1000
0000
0010
0000
,
0100
0000
0000
0000
,
0001
0000
0001
0000
,
0010
0000
0000
0100
,
1000
0000
0010
0000
,
1000
0000
0000
0100
,
0010
0000
0001
0000
,
0010
0000
0000
0100
,
1000
0000
0001
0000
,
0100
0000
0010
0000
,
1000
0000
1000
0000
,
0010
0000
0000
0100
,
0001
0000
0010
0000
,
0001
0000
0000
1000
,
0100
0000
1000
0000
,
0010
0000
0100
0000
,
0001
0000
0010
0000
,
0000
0000
0100
0000
,
0012
0000
0000
0000
,
0103
0000
0010
0000
,
2000
0000
0000
0000
,
3100
0000
0001
0000
,
0100
0000
1000
0000
,
0001
0000
0010
0000
,
1000
0000
0010
0000
,
0001
0000
0000
0000
,
1100
0000
0000
0000
,
1000
0000
0001
0000
,
0101
0000
0000
0000
,
0001
0000
1000
0000
,
0100
0000
1000
0000
,
0001
0000
0010
0000
,
0011
0000
1010
0000
,
1001
0000
0000
0000
,
0001
0000
0001
0000
,
0020
0000
0130
0000
,
0010
0000
0001
0000
,
2000
0000
3100
0000
,
1000
0000
0001
0000
,
0010
0000
0100
0000
,
1100
0000
0000
0101
,
0000
0000
0000
0000
,
0100
0000
0010
0000
,
1000
0000
1000
0000
,
0001
0000
0010
0000
,
0100
0000
0000
0000
,
0010
0000
0001
0000
,
0100
0000
1000
0000
,
0001
0000
0010
0000
,
2000
0000
0000
3000
,
1000
0000
1000
0000
,
0020
0000
0130
0000
,
0010
0000
1000
0000
,
0002
0000
0103
0000
,
0001
0000
1000
0000
,
0010
0000
0100
0000
,
0011
0000
0000
1010
,
0000
0000
0000
0000
,
0010
0000
0100
0000
,
0001
0000
0001
0000
,
0011
0000
0100
0000
,
1100
0000
0001
0000
,
2000
0000
0000
0000
,
3002
0000
0000
0000
,
0203
0000
0000
0000
,
0320
0000
0000
0000
,
103M
0000
0000
0000
,
1000
0001
0010
0100
,
M110
0000
0000
1100
,
0000
0000
0000
0000
,
0110
0000
0000
0011
,
0000
0000
0000
0000
,
1001
0000
0000
1100
,
0000
0000
0000
0000
,
1001
0000
0000
0011
,
0000
0000
0000
0000
,
0101
0000
0000
0110
,
0000
0000
0000
0000
,
1010
0000
0000
0110
,
0000
0000
0000
0000
,
1001
0000
0000
0011
,
0000
0000
0000
0000
,
1001
0000
0000
1100
,
0000
0000
0000
0000
,
1000
0000
0000
0100
,
0000
0000
1000
0000
,
0001
0000
0000
0100
,
0000
0000
0001
0000
,
0010
0000
0000
0001
,
0000
0000
0010
0000
,
0100
0000
0000
1000
,
0000
0000
0010
0000
,
1000
0000
0000
0011
,
0000
0000
0001
0000
,
0100
0000
0000
1010
,
0000
0000
1000
0000
,
0001
0000
0000
0220
,
0000
0000
0000
0330
,
0001
0001
0001
0001
,
0001
0000
1001
0000
,
1000
0100
1000
0100
,
2000
0000
0000
3000
,
0010
0100
0010
0100
,
0020
0000
0000
0030
,
0100
0001
0100
0001
,
0100
0000
0001
0000
,
0010
0000
0000
1200
,
0000
0000
0000
0000
,
0300
0000
1000
0000
,
0001
0000
0100
0000
,
0010
0000
1000
0000
,
0001
0000
0000
0000
,
0010
0000
0100
0000
,
0001
0000
0100
0000
,
2000
0000
0000
3010
,
0100
0000
0000
0000
,
0001
0010
0001
0010
,
0002
0000
0000
0003
,
0010
0100
0010
0100
,
0020
0000
0000
0030
,
0100
1000
0100
1000
,
0100
0000
1000
0000
,
0010
0000
0000
0201
,
0000
0000
0000
0000
,
0301
0000
0010
0000
,
0100
0000
1000
0000
,
0020
0000
0100
0000
,
1000
0000
0230
0000
,
0302
0000
0000
0000
,
2003
0000
0000
0000
,
3200
0000
0000
0000
,
0320
0000
0000
0000
,
0031
0000
0001
0000
,
0001
0000
0001
0000
,
1000
0000
1000
0000
,
1000
0000
1000
0000
,
0100
0000
0010
0000
,
0001
0000
1000
0000
,
0010
0010
0000
0000
;

//---------------dance-single - ----------------
#NOTES:
     dance-single:
     :
     Beginner:
     3:
     0.185431,0.288295,0.080668,0.190669,0.000000,177.000000,166.000000,11.000000,26.000000,10.000000,0.000000,0.185431,0.288295,0.080668,0.190669,0.000000,177.000000,166.000000,11.000000,26.000000,10.000000,0.000000:
// measure 0
0000
0000
0000
0000
,  // measure 1
0000
0000
0000
0000
,  // measure 2
0000
0000
0000
0000
,  // measure 3
0010
0000
0100
0000
,  // measure 4
0001
0000
0000
0000
,  // measure 5
1000
0000
0000
0000
,  // measure 6
0000
0000
1000
0000
,  // measure 7
0001
0000
0000
0000
,  // measure 8
0000
0000
0001
0000
,  // measure 9
0100
0000
0000
0000
,  // measure 10
0000
0000
0010
0000
,  // measure 11
0100
0000
0000
0000
,  // measure 12
0001
0000
0000
0000
,  // measure 13
0001
0000
0000
0000
,  // measure 14
0000
0000
0010
0000
,  // measure 15
0100
0000
0000
0000
,  // measure 16
0000
0000
0100
0000
,  // measure 17
1000
0000
0000
0000
,  // measure 18
0000
0000
0010
0000
,  // measure 19
1000
0000
0001
0000
,  // measure 20
0010
0000
0000
0000
,  // measure 21
0000
0000
0100
0000
,  // measure 22
1000
0000
0000
0000
,  // measure 23
1000
0000
0001
0000
,  // measure 24
1000
0000
0000
0000
,  // measure 25
0001
0000
1000
0000
,  // measure 26
0001
0000
0000
0000
,  // measure 27
0010
0000
0100
0000
,  // measure 28
0010
0000
0001
0000
,  // measure 29
0000
0000
0100
0000
,  // measure 30
0001
0000
0000
0000
,  // measure 31
1000
0000
0001
0000
,  // measure 32
1000
0000
0000
0000
,  // measure 33
0100
0000
1000
0000
,  // measure 34
0010
0000
0100
0000
,  // measure 35
0001
0000
0010
0000
,  // measure 36
0000
0000
0100
0000
,  // measure 37
0100
0000
0000
0000
,  // measure 38
0000
0000
1000
0000
,  // measure 39
1000
0000
0000
0000
,  // measure 40
0010
0000
0000
0000
,  // measure 41
0100
0000
0000
0000
,  // measure 42
0001
0000
0000
0000
,  // measure 43
1000
0000
0000
0000
,  // measure 44
0001
0000
0000
0000
,  // measure 45
1001
0000
0000
0000
,  // measure 46
0000
0000
0000
0000
,  // measure 47
0110
0000
0000
0000
,  // measure 48
0000
0000
0000
0000
,  // measure 49
1000
0000
0000
0000
,  // measure 50
0001
0000
0000
0000
,  // measure 51
0110
0000
0000
0000
,  // measure 52
1001
0000
0000
0000
,  // measure 53
1000
0000
1000
0000
,  // measure 54
1000
0000
0000
0000
,  // measure 55
0010
0000
0010
0000
,  // measure 56
0010
0000
0000
0000
,  // measure 57
0100
0000
0100
0000
,  // measure 58
0100
0000
0000
0000
,  // measure 59
2002
0000
0000
3003
,  // measure 60
0000
0000
0000
0000
,  // measure 61
1000
0000
0000
0000
,  // measure 62
0100
0000
0000
0000
,  // measure 63
0010
0000
0000
0000
,  // measure 64
0001
0000
0000
0000
,  // measure 65
0010
0000
0100
0000
,  // measure 66
0100
0000
0000
0000
,  // measure 67
1000
0000
0001
0000
,  // measure 68
0001
0000
0000
0000
,  // measure 69
0100
0000
0100
0000
,  // measure 70
0100
0000
0000
0000
,  // measure 71
0010
0000
0010
0000
,  // measure 72
0010
0000
0000
0000
,  // measure 73
1000
0000
1000
0000
,  // measure 74
1000
0000
0000
0000
,  // measure 75
0220
0000
0000
0330
,  // measure 76
0000
0000
0000
0000
,  // measure 77
0001
0000
0000
0000
,  // measure 78
1000
0000
0000
0000
,  // measure 79
0010
0000
0100
0000
,  // measure 80
0100
0000
0100
0000
,  // measure 81
0020
0000
0000
0000
,  // measure 82
0030
0000
0000
0000
,  // measure 83
1000
0000
0000
0000
,  // measure 84
0001
0000
0000
0000
,  // measure 85
20M2
0000
0000
0000
,  // measure 86
3M03
00M0
0M00
00M0
,  // measure 87
2M00
0000
0000
3000
,  // measure 88
0000
0000
0000
0000
,  // measure 89
0002
0000
0000
0003
,  // measure 90
0000
0000
0000
0000
,  // measure 91
0200
0000
0000
0300
,  // measure 92
0000
0000
0000
0000
,  // measure 93
0020
0000
0000
0030
,  // measure 94
0000
0000
0000
0000
,  // measure 95
0200
0000
0000
0300
,  // measure 96
0000
0000
0000
0000
,  // measure 97
0002
0000
0000
0003
,  // measure 98
0000
0000
0000
0000
,  // measure 99
2000
0000
0000
3000
,  // measure 100
0000
0000
0000
0000
,  // measure 101
0020
0000
0000
0030
,  // measure 102
0000
0000
0000
0000
,  // measure 103
1000
0000
0000
0000
,  // measure 104
1000
0000
0000
0000
,  // measure 105
0100
0000
0000
0000
,  // measure 106
0100
0000
0000
0000
,  // measure 107
0010
0000
0000
0000
,  // measure 108
0010
0000
0000
0000
,  // measure 109
0001
0000
0000
0000
,  // measure 110
0001
0000
0000
0000
,  // measure 111
1000
0000
0000
0000
,  // measure 112
1000
0000
0000
0000
,  // measure 113
0010
0000
0000
0000
,  // measure 114
0010
0000
0000
0000
,  // measure 115
0100
0000
0000
0000
,  // measure 116
2002
0000
0000
0000
,  // measure 117
30M3
0000
0M00
0000
,  // measure 118
00M0
0000
0M00
0000
,  // measure 119
0001
0000
0001
0000
,  // measure 120
0001
0000
0000
0000
,  // measure 121
0100
0000
0100
0000
,  // measure 122
0100
0000
0000
0000
,  // measure 123
0010
0000
0010
0000
,  // measure 124
0010
0000
0000
0000
,  // measure 125
2002
0000
0000
3003
,  // measure 126
0000
0000
0000
0000
,  // measure 127
0001
0000
0000
0000
,  // measure 128
0010
0000
0000
0000
,  // measure 129
0100
0000
0000
0000
,  // measure 130
1000
0000
0000
0000
,  // measure 131
0100
0000
0010
0000
,  // measure 132
0010
0000
0000
0000
,  // measure 133
0001
0000
1000
0000
,  // measure 134
1000
0000
0000
0000
,  // measure 135
0010
0000
0010
0000
,  // measure 136
0010
0000
0000
0000
,  // measure 137
0100
0000
0100
0000
,  // measure 138
0100
0000
0000
0000
,  // measure 139
0001
0000
0001
0000
,  // measure 140
0001
0000
0000
0000
,  // measure 141
0220
0000
0000
0330
,  // measure 142
0000
0000
0000
0000
,  // measure 143
1000
0000
0000
0000
,  // measure 144
0001
0000
0000
0000
,  // measure 145
0100
0000
0010
0000
,  // measure 146
0010
0000
0010
0000
,  // measure 147
0200
0000
0000
0000
,  // measure 148
0300
0000
0000
0000
,  // measure 149
0001
0000
0000
0000
,  // measure 150
1000
0000
0000
0000
,  // measure 151
0200
0000
0000
0000
,  // measure 152
0000
0000
1000
0000
,  // measure 153
0000
0000
0001
0000
,  // measure 154
0000
0000
0320
0000
,  // measure 155
0000
0000
0001
0000
,  // measure 156
0000
0000
0130
0000
,  // measure 157
2002
3003
0000
0000
;
