#TITLE:No One Can Reach The Truth;
#SUBTITLE:;
#ARTIST:BEMANI Sound Team "TAG";
#TITLETRANSLIT:;
#SUBTITLETRANSLIT:;
#ARTISTTRANSLIT:;
#GENRE:;
#CREDIT:;
#BANNER:;
#BACKGROUND:;
#LYRICSPATH:;
#CDTITLE:;
#MUSIC:No One Can Reach The Truth.ogg;
#OFFSET:-0.307000;
#SAMPLESTART:71.089897;
#SAMPLELENGTH:15.000000;
#SELECTABLE:YES;
#DISPLAYBPM:0.000000;
#BPMS:0.000000=155.000000
;
#STOPS:
;
#BGCHANGES:;
#KEYSOUNDS:;
#ATTACKS:;

//---------------dance-single - ----------------
#NOTES:
     dance-single:
     Initial Draft (if anyone cares):
     Edit:
     10:
     0.665739,0.872305,0.244068,0.411865,0.499577,611.000000,579.000000,32.000000,54.000000,0.000000,0.000000,0.665739,0.872305,0.244068,0.411865,0.499577,611.000000,579.000000,32.000000,54.000000,0.000000,0.000000:
// measure 0
0000
0000
0000
0000
,  // measure 1
0000
0000
0000
0000
,  // measure 2
0000
0000
0000
0000
,  // measure 3
0000
0000
0000
0000
,  // measure 4
2000
0010
0000
3010
0200
0001
0000
0301
,  // measure 5
2000
0000
0100
0000
0000
0000
3100
0000
0020
0000
0001
0000
0000
0000
0031
1000
,  // measure 6
0020
0000
0100
0000
0000
0000
0100
0000
2030
0000
0001
0000
0000
0000
3001
0010
,  // measure 7
0200
0000
0010
0000
0320
0000
0031
0000
1000
0100
1000
0100
0010
0001
0010
0001
,  // measure 8
1000
0000
0001
0100
0000
0100
0010
0000
0010
1000
0000
1000
0001
0000
0001
0000
,  // measure 9
0010
0000
0010
0100
0000
0100
1000
0000
1000
0001
0000
0001
0100
0000
0200
0000
,  // measure 10
1300
0000
0100
0010
0000
0010
1000
0000
1000
0001
0000
0001
0010
0000
0010
0000
,  // measure 11
1000
0000
0010
0100
0000
0100
1000
0000
0010
0000
0100
0000
0001
0000
2000
0000
,  // measure 12
0000
0100
3100
0001
0100
2000
3010
0200
,  // measure 13
0000
1300
0200
0000
0302
0010
0023
0000
,  // measure 14
0230
0000
1300
0001
0002
0000
1003
0000
,  // measure 15
0020
0000
0000
0000
0130
0000
0001
0010
0200
0000
0000
0000
1300
0000
1000
0000
,  // measure 16
1000
0000
0001
0000
0100
0000
1000
0000
0100
0000
0000
0010
1000
0000
0002
0000
,  // measure 17
0010
0000
0000
0000
1003
0000
0010
0100
0010
0000
0100
0000
0010
0000
1000
0000
,  // measure 18
0001
0000
0000
0001
1000
0000
0100
0000
0200
0000
0000
0000
1000
0000
0000
0000
,  // measure 19
0001
0000
0310
0000
0001
1000
0100
0010
,  // measure 20
0200
0000
0000
0000
1300
0000
0001
0010
0002
0000
0000
0000
1003
0000
0010
0100
,  // measure 21
0020
0000
0000
0000
1030
0000
0100
0010
0100
0000
1000
0000
0001
0000
1000
0000
,  // measure 22
0010
0000
0000
0010
0100
0000
0010
0000
1000
0000
0000
1000
0100
0000
1000
0000
,  // measure 23
0001
0000
0000
0001
0010
0000
0001
0000
0100
0000
0010
0000
1000
0001
1000
0001
,  // measure 24
1000
0000
0001
0000
0010
0000
1000
0000
0010
0000
0000
0100
1000
0000
0002
0000
,  // measure 25
0100
0000
0000
0000
1003
0000
0010
0100
0010
0000
0100
0000
0010
0000
1000
0000
,  // measure 26
0001
0000
0000
1000
0001
0000
0010
0000
0020
0000
0000
0000
1000
0000
0000
0000
,  // measure 27
0032
0000
0100
0000
1003
0001
0100
0010
,  // measure 28
0200
0000
0000
0000
0301
0000
1000
0010
2000
0000
0000
0000
3001
0000
0010
0100
,  // measure 29
0020
0000
0000
0000
0031
0000
0100
0010
0100
0000
0001
0000
1000
0000
0001
0000
,  // measure 30
0010
0000
0000
0010
0100
0000
0010
0000
0001
0000
0000
0001
0100
0000
0001
0000
,  // measure 31
1000
0000
0000
1000
0010
0000
1000
0000
0100
0000
0010
0000
0001
1000
0001
1000
,  // measure 32
0010
0000
0100
0001
1000
0000
0100
0000
0000
0000
0010
0000
0100
0000
1000
0000
,  // measure 33
0010
0000
1000
0000
0001
0010
0100
0000
0000
0000
1000
0000
0000
0000
0100
0000
,  // measure 34
1000
0000
0100
1000
0010
0000
0100
0000
0000
0000
0100
0000
0001
0000
1000
0000
,  // measure 35
0001
0000
0000
0000
0011
0000
0001
0000
0000
0000
1000
0100
1000
0100
0010
0001
,  // measure 36
1000
0001
0100
0010
0000
0001
0010
0100
,  // measure 37
0001
1010
1100
0101
,  // measure 38
1000
0000
0100
0000
0010
0000
0100
1000
0001
0000
0100
0000
0010
0000
0100
0001
,  // measure 39
1000
0000
0100
0000
0010
0000
0001
0000
0100
0010
0000
0010
1000
0000
1000
0000
,  // measure 40
0001
0000
0000
0010
0000
0000
0100
0000
1000
0000
0000
0000
1100
0000
1000
0000
,  // measure 41
0010
0000
0000
0001
0000
0000
0010
0000
0100
0000
0000
0000
0101
0000
0001
0000
,  // measure 42
1000
0000
0000
0100
0000
0000
0010
0000
0001
0000
0000
0000
0011
0000
0000
0000
,  // measure 43
2100
0000
0000
0000
3001
0000
1000
0010
0200
0000
0000
0000
0301
0000
0000
0000
,  // measure 44
0010
0000
0000
0100
0000
0000
1000
0000
0001
0000
1000
0100
1000
0100
0010
0001
,  // measure 45
1000
0000
0000
1010
0000
0000
0001
0000
0100
0000
0001
0100
0001
0100
0010
1000
,  // measure 46
0100
0000
0000
0110
0000
0000
0001
0000
1000
0000
0000
0000
1010
0000
0001
0000
,  // measure 47
0000
0000
0101
0000
0000
1100
0000
0001
0010
0000
0100
0000
0110
0000
0000
0000
,  // measure 48
1000
0001
0010
0200
0000
1300
0001
0200
,  // measure 49
0000
0310
1000
0200
0000
1300
0001
0200
,  // measure 50
0000
0310
1000
0200
0000
0310
0001
0200
,  // measure 51
0000
0301
0010
0200
0000
1300
0010
0002
,  // measure 52
0000
0013
0100
0020
0000
1030
0100
2000
,  // measure 53
0000
3100
0001
0200
0000
0310
0001
0020
,  // measure 54
0000
0031
1000
0002
0000
0103
1000
0200
,  // measure 55
0000
0000
0310
0000
1000
0000
0020
0000
1030
0100
1000
0100
0010
0001
0010
0001
,  // measure 56
0100
0000
0010
1000
0010
0000
0100
0000
0000
0000
0001
0000
0001
0000
1000
0000
,  // measure 57
0010
0000
0100
0000
0001
1000
0100
0000
0000
0000
0010
0000
0000
0000
0100
0000
,  // measure 58
1000
0000
0001
0100
0001
0000
1000
0000
0000
0000
0010
0000
0100
0000
0001
0000
,  // measure 59
0010
0000
0000
0000
1010
0000
1000
0000
0000
0000
0001
0010
0100
1000
0100
1000
,  // measure 60
0001
1000
0010
0100
0000
0100
0010
1000
,  // measure 61
0100
0101
0011
1010
,  // measure 62
1000
0000
0100
0000
0010
0000
0100
1000
0010
0000
0100
0000
0001
0000
0010
0001
,  // measure 63
0100
0000
0010
0000
1000
0000
0001
0010
0100
0000
0000
1000
0000
0000
0001
0000
,  // measure 64
0100
0000
0000
0010
0000
0000
1000
0000
0001
0000
0000
0000
0011
0000
0001
0000
,  // measure 65
0100
0000
0000
0010
0000
0000
1000
0000
0100
0000
0000
0000
0110
0000
0010
0000
,  // measure 66
1000
0000
0000
0010
0000
0000
0001
0000
0100
0000
0000
0000
1010
0000
0000
0000
,  // measure 67
0102
0000
0000
0000
1003
0000
0001
0010
0200
0000
0000
0000
1300
0000
0000
0000
,  // measure 68
1000
0000
0000
0110
0000
0000
0100
0000
0001
0000
0010
0100
1000
0010
0100
0001
,  // measure 69
1000
0000
0000
1010
0000
0000
0001
0000
0100
0000
0010
0100
0001
0010
0100
1000
,  // measure 70
0001
0000
0000
0101
0000
0000
0100
0000
0010
0000
0000
0000
1000
0000
0000
0000
,  // measure 71
1002
0000
0000
0000
0013
0000
0200
0000
0000
0000
0000
0000
0000
0000
1300
0001
,  // measure 72
1000
0100
0010
0002
0000
0103
0010
1000
,  // measure 73
0001
0010
0001
0010
0100
0010
0001
1000
0001
1000
0010
1000
0001
0100
0020
0000
,  // measure 74
0000
0000
0000
1030
0001
1000
0001
0000
0000
0020
0000
0000
0000
0000
0000
0130
0000
0000
0110
0000
0000
0000
0000
0000
,  // measure 75
1000
0100
1000
0001
0010
0001
0100
0010
0100
1000
0100
0001
,  // measure 76
1000
1000
0100
0010
0010
0001
0100
0100
0010
1000
1000
0001
,  // measure 77
1000
0100
1000
0010
0100
0001
0010
0100
0010
0001
0100
0010
1000
0001
0010
0100
,  // measure 78
1000
0000
0000
0101
0000
0000
0011
0000
0000
1010
0000
0000
1001
0000
0110
0000
;

//---------------dance-single - ----------------
#NOTES:
     dance-single:
     :
     Hard:
     9:
     0.614528,0.782066,0.221187,0.526272,0.491950,564.000000,535.000000,29.000000,69.000000,0.000000,0.000000,0.614528,0.782066,0.221187,0.526272,0.491950,564.000000,535.000000,29.000000,69.000000,0.000000,0.000000:
// measure 0
0000
0000
0000
0000
,  // measure 1
0000
0000
0000
0000
,  // measure 2
0000
0000
0000
0000
,  // measure 3
0000
0000
0000
0000
,  // measure 4
2020
3000
0200
0330
,  // measure 5
0220
0030
0002
0303
,  // measure 6
0022
0033
2200
3300
,  // measure 7
2020
0000
3030
0000
0202
0000
0303
0000
1000
0001
0010
0100
1000
0010
0100
0001
,  // measure 8
1000
0000
0010
0100
0000
0100
0001
0000
0001
1000
0000
1000
0100
0000
0100
0000
,  // measure 9
0010
0000
0010
0001
0000
0001
1000
0000
1000
0010
0000
0010
0100
0000
0100
0000
,  // measure 10
1000
0000
0100
0001
0000
0001
1000
0000
1000
0100
0000
0100
0010
0000
0010
0000
,  // measure 11
0001
0000
0001
1000
0000
1000
0010
0000
0000
0000
0100
0000
0001
0000
0020
0000
,  // measure 12
0000
0130
1000
0010
0001
0020
0000
0230
,  // measure 13
0000
1300
0200
0000
0302
0000
0023
0000
,  // measure 14
0230
0000
1300
0010
0020
0000
0130
0000
,  // measure 15
0002
0000
0000
0000
1003
0000
0001
0010
0200
0000
0000
0000
1300
0000
1000
0000
,  // measure 16
0001
0000
0100
0000
0010
0000
1000
0000
0002
0000
0000
0013
0100
0000
0020
0000
,  // measure 17
0001
0000
0031
0200
0310
1000
0001
1000
,  // measure 18
0200
0000
0000
1300
0010
0000
0100
0000
0200
0000
0000
0000
0001
0000
0000
0000
,  // measure 19
1000
0000
0310
0000
1000
0100
0010
0001
,  // measure 20
0200
0000
0000
0000
0310
0000
1000
0100
2000
0000
0000
0000
3001
0000
0010
0100
,  // measure 21
0020
0000
0000
0000
0031
0000
0100
0010
0200
0000
1300
0000
0100
0000
0001
0000
,  // measure 22
1000
0100
0000
1000
0100
0000
1000
0000
0001
0010
0000
0001
0010
0000
0001
0000
,  // measure 23
0100
0010
0000
0100
0010
0000
0100
0000
1000
0000
0001
0000
0010
0000
1000
0001
,  // measure 24
1000
0000
0100
0000
0010
0000
0001
0000
0200
0000
0000
0310
1000
0000
0002
0000
,  // measure 25
0010
0000
0013
0200
0310
1000
0010
0001
,  // measure 26
0020
0000
0000
0130
1000
0000
0010
0000
0020
0000
0000
0000
0100
0000
0000
0000
,  // measure 27
2030
0000
0001
0000
3100
0010
0001
1000
,  // measure 28
0020
0000
0000
0000
0130
0000
0001
0010
0002
0000
0000
0000
1003
0000
0010
0100
,  // measure 29
0020
0000
0000
0000
1030
0000
0100
0010
0200
0000
0301
0000
0100
0000
1000
0000
,  // measure 30
0100
0010
0000
0100
0010
0000
0100
0000
1000
0010
0000
1000
0010
0000
1000
0000
,  // measure 31
0001
0100
0000
0001
0100
0000
0001
0000
0010
0000
0001
0100
0001
0100
0010
1000
,  // measure 32
0001
0000
1000
0010
0100
0000
0001
0000
0000
0000
0001
0000
1000
0000
0100
0000
,  // measure 33
0010
0000
0001
0010
0001
0000
0100
0000
0000
0000
0010
0000
0000
0000
0010
0000
,  // measure 34
1000
0000
0100
1000
0001
0000
0010
0000
0000
0000
0010
0000
0100
0000
0010
0000
,  // measure 35
0001
0000
0100
0001
0100
0000
1000
0000
0000
0000
0100
0001
0100
0001
1000
0100
,  // measure 36
0010
0000
0001
1000
0010
0000
0100
0000
0000
0000
0100
0000
0010
0000
1000
0000
,  // measure 37
0100
0000
1000
0001
0010
0000
0000
0000
0011
0000
0000
0000
1100
0000
0000
0000
,  // measure 38
0110
0000
0001
0000
1000
0000
0010
0100
0001
0000
1000
0000
0100
0000
0010
0001
,  // measure 39
1000
0000
0010
0000
0100
0000
0001
0000
0010
0100
0000
0100
1000
0000
0001
0000
,  // measure 40
0010
0000
0000
1000
0000
0000
0010
0000
0001
0000
1000
0001
0000
1000
0010
0000
,  // measure 41
0100
0000
0000
1000
0000
0000
0100
0000
0010
0000
0100
0001
0000
1000
0001
0000
,  // measure 42
0010
0000
0000
0100
0000
0000
1000
0000
0010
0000
0000
0000
1010
0000
0000
0000
,  // measure 43
0101
0000
0001
0000
0010
0000
0100
1000
0002
0000
0010
0000
0013
0000
0000
0000
,  // measure 44
2100
0000
0000
0001
0000
0000
3010
0000
0010
0000
1000
0010
0100
0001
0010
0002
,  // measure 45
1000
0000
0000
0100
0000
0000
0010
0000
0013
0000
0100
0010
0001
0100
0010
2000
,  // measure 46
0100
0000
0000
0001
0000
0000
0010
0000
3010
0000
0000
0000
0100
0000
1001
0000
,  // measure 47
0000
0000
0011
0000
0000
1100
0000
0001
0010
0000
0100
0000
1001
0000
0000
0000
,  // measure 48
2000
0000
0000
0000
,  // measure 49
3020
0000
0000
0000
,  // measure 50
0032
0000
0000
0000
,  // measure 51
0203
0000
0000
0000
,  // measure 52
2300
0000
3200
0000
,  // measure 53
0320
0000
0032
0000
,  // measure 54
0203
0000
0320
0000
,  // measure 55
2030
0000
0000
0000
0000
0000
0000
0000
3001
0010
0100
1000
0001
0000
0001
0000
,  // measure 56
0102
0000
0000
0010
0000
0013
0100
1000
,  // measure 57
0020
0000
0001
0001
0000
0100
0000
0000
,  // measure 58
2030
0000
0000
0100
0000
3100
0010
0001
,  // measure 59
0200
0000
0000
0000
1000
0000
1000
0000
0000
0000
0301
0100
0001
1000
0100
1000
,  // measure 60
0001
0000
0000
0100
0000
0100
0010
1000
,  // measure 61
1200
0001
0010
1300
,  // measure 62
1010
0000
0000
0000
0000
0000
0100
0001
0010
0000
0000
0000
0000
0000
0100
1000
,  // measure 63
0010
0000
0000
0000
0110
0000
0000
0000
1000
0100
1000
0001
0100
0001
1000
0100
,  // measure 64
0010
0001
0000
0001
0010
0000
0001
0000
0100
0000
0010
1000
0000
0001
1000
0000
,  // measure 65
0100
1000
0000
1000
0001
0000
0010
0000
0100
0000
1000
0001
0000
1000
0010
0000
,  // measure 66
0100
0001
0000
0001
0010
0000
0100
0000
1000
0000
0100
0000
1100
0000
0000
0000
,  // measure 67
0011
0000
0001
0000
1000
0000
0010
0100
0002
0000
1000
0000
1003
0000
0000
0000
,  // measure 68
0010
0100
0000
0100
0001
0000
1000
0000
0100
0000
0010
0001
0010
0100
1000
0001
,  // measure 69
0100
0010
0000
0010
1000
0000
0001
0000
0100
0000
0010
1000
0010
0100
0001
1000
,  // measure 70
0100
0010
0000
0010
0001
0000
1000
0000
0001
0000
1000
0010
0100
0001
0010
0100
,  // measure 71
2000
0000
0000
0000
0000
0000
0020
0000
3000
0000
0000
0000
0000
0000
0130
0001
,  // measure 72
0100
0010
1000
0002
0000
0013
0100
0010
,  // measure 73
0001
0100
0010
1000
0010
0000
1000
0100
0010
0001
0010
0000
0001
1000
0020
0000
,  // measure 74
0000
0000
0130
0001
1000
0000
0200
0000
0000
0000
0310
0000
0110
0000
0000
0000
,  // measure 75
1000
1000
0001
0001
0100
0100
0010
0010
,  // measure 76
1010
1000
0100
0100
0010
0010
0001
0001
,  // measure 77
1000
0100
1000
0000
0001
0100
0001
0000
1000
0100
0010
0001
1000
0010
0100
0001
,  // measure 78
1000
0000
0000
1100
0000
0000
0101
0000
0000
0011
0000
0000
0110
0000
1001
0000
;

//---------------dance-single - ----------------
#NOTES:
     dance-single:
     :
     Medium:
     7:
     0.388983,0.511351,0.106780,0.411865,0.099153,357.000000,343.000000,14.000000,54.000000,0.000000,0.000000,0.388983,0.511351,0.106780,0.411865,0.099153,357.000000,343.000000,14.000000,54.000000,0.000000,0.000000:
0000
0000
0000
0000
,
0000
0000
0000
0000
,
0000
0000
0000
0000
,
0000
0000
0000
0000
,
2000
0000
3001
0000
,
0020
0000
0130
0000
,
2000
0000
3020
0000
,
0200
0030
0000
0000
0302
0000
0000
0000
1003
0000
0100
0000
0010
0000
0001
0000
,
1000
0010
0100
0000
0100
0001
1000
0000
,
0001
0010
0100
0000
0010
0001
1000
0000
,
0001
0100
0010
0000
1000
0010
0100
0000
,
0001
0010
0100
0000
0100
1000
0100
0020
,
0000
0031
1000
0001
1000
0010
0000
0100
,
0000
0100
0010
0000
1000
0000
0001
0000
,
0020
0000
0000
0130
2000
0000
3000
0000
,
0002
0000
0003
0100
0020
0000
0030
0000
,
1000
0000
0100
0000
0010
0000
0001
0000
1000
0000
0000
0001
0000
0000
0200
0000
,
0000
0000
0300
0010
1000
0010
1000
0100
,
1000
0000
0000
1000
0000
0000
0001
0000
0020
0000
0000
0000
0000
0000
0000
0000
,
0000
0000
0030
0000
0100
0010
0001
0100
,
0020
0000
0000
1030
0002
0000
0000
0013
,
0200
0000
0000
1300
0001
0100
0010
1000
,
0100
0000
0000
0100
0000
0000
0100
0000
0010
0000
0000
0010
0000
0000
0010
0000
,
0001
0000
0000
0001
0000
0000
0001
0000
2000
0000
0000
0000
0000
0000
3000
0000
,
0000
0000
0001
0000
0100
0000
0010
0000
1000
0000
0000
0001
0000
0000
0020
0000
,
0000
0000
0030
0100
0010
0100
0010
0100
,
1000
0000
0000
1000
0000
0000
0001
0000
0200
0000
0000
0000
0000
0000
0000
0000
,
0320
0000
0000
0000
1030
0100
0010
0001
,
2000
0000
0000
3001
0200
0000
0000
0310
,
2000
0000
0000
3100
0010
0001
1000
0010
,
0100
0000
0000
0100
0000
0000
0100
0000
0010
0000
0000
0010
0000
0000
0010
0000
,
1000
0000
0000
1000
0000
0000
0001
0000
2000
0000
0000
0000
0000
3000
0000
0000
,
0100
0000
0000
0100
0000
0010
0001
1000
,
0010
0000
0100
0002
0000
1003
0000
0000
,
0001
0000
0000
0001
0000
0001
0010
0100
,
2000
0000
3001
0100
0000
0001
0010
0100
,
1000
0000
0000
1000
0000
0010
1000
0001
,
0100
1010
1001
1100
,
1000
0000
0000
0100
0010
0000
0000
0001
,
1000
0000
0000
0000
0001
0000
0000
0000
1000
0000
0000
0100
0000
0000
0010
0000
,
0001
0000
0000
1000
0000
0000
0001
0000
0100
0000
0000
0000
0000
0000
0000
0000
,
0010
0000
0000
1000
0000
0000
0001
0000
0010
0000
0000
0000
0000
0000
0000
0000
,
0100
0000
0000
1000
0000
0000
0100
0000
0010
0000
0000
0000
0001
0000
0000
0000
,
1000
0000
0000
0010
0100
0000
0000
0000
,
0001
0000
0000
0010
0000
0000
0001
0000
1000
0000
0010
0000
0100
0000
0001
0000
,
1000
0000
0000
0100
0000
0000
1000
0000
0001
0000
0010
0000
0100
0000
0010
0000
,
0001
0000
0000
0100
0000
0000
0010
0000
1000
0000
0000
0000
0001
0000
0020
0000
,
0000
0000
0000
0031
,
2000
0000
0000
0000
,
3200
0000
0000
0000
,
0320
0000
0000
0000
,
0032
0000
0000
0000
,
2003
0000
0010
0000
,
3020
0000
0100
0000
,
0230
0000
0001
0000
,
0302
0000
0000
0000
1003
0100
1000
0000
,
1100
0000
0000
0100
0000
0010
0001
0000
,
0100
0000
0001
1000
0000
0100
0000
0000
,
0110
0000
0000
0010
0000
0001
1000
0001
,
0100
0000
0010
0010
0000
1000
0100
0010
,
0220
0000
0330
0001
0000
1000
0010
0100
,
0220
0330
0001
0000
1000
0000
0100
0000
,
0220
0330
2200
3300
,
0202
0000
0000
0000
0303
0000
0000
0000
1000
0000
0000
0010
0000
0000
0100
0000
,
0001
0000
0000
1000
0000
0000
0001
0000
0010
0000
0000
0000
0110
0000
0000
0000
,
0001
0000
0000
1000
0000
0000
0001
0000
0100
0000
0000
0000
1010
0000
0000
0000
,
0010
0000
0000
1000
0000
0000
0100
0000
0010
0000
0000
0000
0100
0000
0000
0000
,
2200
0000
3300
0010
0002
0000
0003
0000
,
1000
0000
0000
0001
0000
0000
0100
0000
0010
0000
1000
0000
0100
0000
0010
0000
,
0001
0000
0000
0010
0000
0000
0100
0000
0010
0000
0001
0000
0100
0000
0010
0000
,
1000
0000
0000
0001
0000
0000
0010
0000
0200
0000
0000
0000
1300
0000
0000
0000
,
2100
0000
0000
0000
3000
0000
0002
0000
0000
0000
0000
0000
0000
0000
0000
0003
,
0100
0001
0100
0020
0000
1030
0001
0000
,
1000
0100
1000
0001
0100
0001
1000
0020
,
0000
0130
0010
2000
0000
0000
3001
0000
,
1000
0100
1000
0100
0010
0001
0010
0001
,
0100
0010
0100
0010
1000
0001
1000
0001
,
1000
0010
0100
0001
1000
0100
0010
0001
,
1000
0000
0000
0010
0000
0000
0001
0000
0000
0100
0000
0000
1000
0000
0001
0000
;
