#TITLE:Lost;
#SUBTITLE:;
#ARTIST:Thaehan;
#TITLETRANSLIT:;
#SUBTITLETRANSLIT:;
#ARTISTTRANSLIT:;
#GENRE:;
#CREDIT:;
#BANNER:Lost.png;
#BACKGROUND:Lost-bg.png;
#LYRICSPATH:;
#CDTITLE:;
#MUSIC:Lost.ogg;
#OFFSET:-0.001000;
#SAMPLESTART:19.791445;
#SAMPLELENGTH:10.853373;
#SELECTABLE:YES;
#BPMS:0.000000=94.000000
;
#STOPS:
;
#BGCHANGES:;
#KEYSOUNDS:;
#ATTACKS:;

//---------------dance-single - ----------------
#NOTES:
     dance-single:
     :
     Medium:
     6:
     0.267812,0.330078,0.000000,0.062489,0.200859,210.000000,210.000000,0.000000,7.000000,0.000000,0.000000,0.267812,0.330078,0.000000,0.062489,0.200859,210.000000,210.000000,0.000000,7.000000,0.000000,0.000000:
0000
0000
0000
0000
,
0000
0000
0000
0000
,
0000
0000
0000
0000
,
0000
0000
0000
0000
,
0010
0000
0000
0000
0000
0000
1000
0000
0000
0000
0000
0000
0000
0000
0000
0001
,
0010
0000
0000
0100
0000
0000
1000
0000
0000
0000
0000
0000
0000
0000
0000
0000
,
0010
0000
0000
1000
0000
0000
0001
0000
0000
0000
0000
0000
1000
0010
1000
0000
,
0200
0000
0000
0000
0000
0000
0310
0100
,
0001
0000
0000
1000
0000
0000
0100
0000
0000
0000
0000
0000
1000
0000
0010
0000
,
0100
0000
0000
0001
0000
0000
1000
0000
0000
0000
0000
0000
0000
0000
0000
0000
,
0000
0000
0100
0000
0010
0000
0001
0000
0100
0000
0000
1000
0000
0100
0000
0010
,
1000
0000
0000
0000
0000
0000
0000
0000
0000
0001
0000
0000
0000
0000
0000
0000
0000
0000
0010
0000
0000
0000
0000
0000
0000
0000
0000
0001
0000
0000
0000
0000
0000
0000
0000
0000
1000
0000
0000
0000
0100
0000
0000
0000
1000
0000
0000
0000
,
0010
0000
0000
0000
0000
0000
1000
0000
0000
0001
0000
0000
0000
0000
0000
0000
0000
0000
0001
0000
0010
0000
0001
0000
,
0100
0000
0010
0100
0000
0000
0010
1000
,
0001
0000
0000
0010
0000
0000
0000
0000
0001
0000
0000
1000
0000
0000
0000
0000
,
0100
0000
0000
1000
0000
0000
0010
0000
0000
0100
0000
0000
0010
0000
1000
0000
,
0001
0000
0000
0010
0000
0100
0010
0000
0000
0000
0000
0000
0000
0000
0000
0000
,
0000
0000
0000
0000
0000
0000
0000
0000
0000
0000
0000
0000
0100
0000
0000
0000
0000
0000
0000
0000
0000
0000
0000
0000
0000
0000
0000
0000
0000
0000
1000
0000
0000
0000
0000
0000
0000
0000
0000
0000
0000
0000
0000
0000
0000
0000
0000
0000
0010
0000
0000
0000
0000
0000
0000
0000
0000
0000
0000
0000
0000
0000
0000
0000
0100
0000
0000
0000
0000
0000
0000
0000
0000
0000
0000
0000
0000
0000
0000
0000
0001
0000
0000
0000
0000
0000
0000
0000
0000
0000
0000
0000
0000
0000
0000
0000
1000
0000
0000
0000
0000
0000
0000
0000
0000
0000
0000
0000
0000
0000
0000
0000
0000
0000
0000
0000
0000
0000
0000
0000
0000
0000
0000
0000
0000
0000
0000
0000
0000
0000
0000
0000
0100
0000
0000
0000
0000
0000
0000
0000
0000
0000
0000
0000
1000
0000
0000
0000
0000
0000
0000
0000
0000
0000
0000
0000
0000
0000
0000
0000
0000
0000
0000
0000
0000
0000
0000
0000
0000
0000
0000
0000
0000
0000
0000
0000
0000
0000
0000
0000
0000
0000
0000
0000
0000
0000
0000
0000
0000
0000
0000
0000
,
0000
0100
0010
0000
0001
0000
0100
0000
1000
0000
0100
0000
0010
0000
1000
0000
,
0001
0000
0000
0100
0000
0000
0001
0000
0000
1000
0000
0000
0100
0000
0010
0000
,
0001
0000
1000
0001
0000
0000
0000
0000
0000
0000
0000
0000
0001
0000
0010
0000
,
0100
0000
1000
0001
0000
0000
0100
0000
0001
0000
0000
0000
0010
0000
0000
0000
,
0000
0000
0010
0000
0001
0000
0100
0000
0010
0000
1000
0000
0001
0000
0000
0000
0000
0000
1000
0000
0000
0010
0000
0000
,
0100
0000
0000
0001
0000
0000
0010
0000
0000
1000
0000
0000
0010
0000
0100
0000
,
1000
1000
0000
0000
0001
0001
0000
0000
,
1000
1000
0000
0000
0001
0001
0000
0000
,
1000
1000
0000
0000
0001
0001
0000
0000
,
1000
0000
1000
0000
0010
0100
0010
0000
0100
0000
0010
0100
0002
0000
0000
0000
,
1003
0000
0100
1000
0010
0100
0001
0010
,
0100
0000
0010
0001
0100
1000
0100
0010
,
1000
0000
0001
0010
1000
0010
0100
0010
,
0001
0002
1000
2003
0001
3001
0200
0000
,
0301
0000
0100
0010
1000
0100
0001
0100
,
0010
0000
0100
1000
0010
0001
0010
0100
,
0001
0000
1000
0100
0001
0100
0010
0001
,
1000
0001
0100
0010
2000
0000
0000
0000
,
3001
0000
0000
0001
,
0010
0000
0000
0100
,
0010
0000
0010
0001
,
1000
0000
0000
1000
0000
0000
0001
0000
0000
0001
0000
0000
0100
0000
0010
0000
,
0100
0000
0000
0000
0000
0000
0010
0000
0000
0000
0000
0000
0000
0000
0000
1000
,
0001
0000
0000
0010
0000
0000
0100
0000
0000
0000
0000
0000
0000
0000
0000
0000
,
0010
0000
0000
0001
0000
0000
1000
0000
0000
0000
0000
0000
0001
0100
0010
0000
,
2000
0000
3000
0000
;

//---------------dance-single - ----------------
#NOTES:
     dance-single:
     :
     Hard:
     8:
     0.401718,0.524241,0.017854,0.044635,0.531160,315.000000,313.000000,2.000000,5.000000,0.000000,0.000000,0.401718,0.524241,0.017854,0.044635,0.531160,315.000000,313.000000,2.000000,5.000000,0.000000,0.000000:
// measure 0
0000
0000
0000
0000
,  // measure 1
0000
0000
0000
0000
,  // measure 2
0000
0000
0000
0000
,  // measure 3
0000
0000
0000
0000
,  // measure 4
1000
0000
0000
0010
0000
0000
0100
0000
0000
0000
0000
0000
0000
0000
0000
0100
,  // measure 5
0001
0000
0000
0100
0000
0000
0010
0000
0000
0000
0000
0000
0000
0000
0000
0000
,  // measure 6
0100
0000
0000
0001
0000
0000
1000
0000
0000
0000
0000
0000
0100
1000
0010
0000
,  // measure 7
0200
0000
0000
0000
0000
0000
0000
0000
0300
0000
0000
0000
0010
0100
0001
1000
,  // measure 8
0100
0000
1000
0001
0000
1000
0100
0000
0000
0000
0000
0000
1000
0100
1000
0010
,  // measure 9
0100
0000
0001
0100
0000
0100
0010
0000
0000
0000
0000
0000
0000
0000
0000
0000
,  // measure 10
0000
0000
1000
0001
1000
0000
0100
0000
0010
0000
0100
0000
1000
0000
0001
0000
1000
0000
0000
0000
0001
0000
0100
0000
0000
0000
0001
0000
0000
0000
0010
0000
,  // measure 11
0100
0000
0000
0000
0000
0000
0000
0000
0000
0010
0000
0000
0000
0000
0000
0000
0000
0000
0001
0000
0000
0000
0000
0000
0000
0000
0000
0100
0000
0000
0000
0000
0000
0000
0000
0000
0010
0000
0000
0000
1000
0000
0000
0000
0001
0000
0000
0000
,  // measure 12
0010
0000
0000
0000
0000
0000
0100
0000
0000
0010
0000
0000
0000
0000
0000
0000
0000
0000
0100
0000
0010
0000
0001
0000
,  // measure 13
1000
0000
0000
0000
0010
0000
0100
0000
0000
0000
0000
0010
0100
0001
0010
0100
,  // measure 14
1000
0000
0001
0100
0000
0001
0000
1000
0100
0000
1000
0010
0000
0100
0000
0001
,  // measure 15
0010
0000
0000
0001
0000
0000
1000
0000
0000
0010
0000
0000
0100
0010
0100
0010
,  // measure 16
1000
0000
0000
0001
0000
0010
0100
0000
0000
0000
0000
0000
0000
0000
0000
0000
,  // measure 17
0000
0000
0000
0000
0010
0000
0000
0000
0001
0000
0000
0000
1000
0000
0000
0000
0010
0000
0000
0000
0100
0000
0000
0000
0001
0000
0000
0000
0000
0000
0000
0000
0000
1000
0000
0000
0001
0000
0000
0000
0000
0000
0000
0000
0000
0000
0000
0000
,  // measure 18
0000
0000
0100
0001
0100
0000
0010
0000
1000
0000
0001
0000
0010
0000
0100
0000
0010
0000
0001
0000
1000
0000
0010
0000
0100
0000
0001
0000
0010
0000
0100
0000
,  // measure 19
0010
0000
0000
0000
0000
0000
0100
0000
0000
1000
0000
0000
0000
0000
0000
0000
0000
0000
0010
0000
0000
0000
0000
0000
0100
0000
0000
0010
0000
0000
0000
0000
0000
0100
0000
0000
0001
0000
0000
0000
1000
0000
0000
0000
0100
0000
0000
0000
,  // measure 20
0010
0000
0000
0000
0000
0000
0100
0000
0000
1000
0000
0000
0000
0000
0000
0000
0000
0000
0000
0000
0000
0000
0000
0000
0000
0000
0000
0000
0000
0000
0000
0000
0000
0000
0000
0000
0100
0000
0000
0000
1000
0000
0000
0000
0010
0000
0000
0000
,  // measure 21
0100
0000
0001
0010
0000
0000
0100
0000
0010
0000
0000
0000
0100
0000
0000
0000
,  // measure 22
0000
0000
0000
0010
0000
0000
0000
0000
0001
0000
0000
0000
0100
0000
0000
0000
0001
0000
0000
0000
0010
0000
0000
0000
0001
0000
0000
0000
0000
0000
0000
0000
0000
0000
0000
0000
1000
0000
0000
0000
0000
0000
0000
0000
0000
0000
0000
0000
,  // measure 23
0010
0000
1000
0010
0000
0100
0001
0000
0010
0100
0000
0100
1000
0000
0001
1000
,  // measure 24
0010
0000
0010
0000
1000
0001
1000
0000
0010
0000
0010
0000
1000
0001
0100
0000
,  // measure 25
0010
0000
0010
0000
1000
0001
1000
0000
0010
0000
0010
0000
1000
0001
0100
0000
,  // measure 26
0010
0000
0010
0000
1000
0001
1000
0000
0010
0000
0010
0000
1000
0001
0100
0000
,  // measure 27
0001
0000
0001
0000
0010
0010
0010
0000
0100
0000
0100
0000
2000
0000
0000
0000
,  // measure 28
3010
0000
0000
0000
0100
0001
0010
0000
0100
0010
0100
0000
0010
0001
0010
0000
,  // measure 29
0001
0000
0000
0000
1000
0010
0100
0000
0010
1000
0010
0000
0010
0100
0010
0000
,  // measure 30
1000
0000
0000
0000
0001
1000
0100
0000
0010
0100
0010
0000
0100
1000
0100
0000
,  // measure 31
1000
0000
0002
0000
0103
0010
2000
0000
3100
1000
0001
0000
4004
0000
0000
3003
,  // measure 32
0110
0000
0000
0000
0001
1000
0100
0000
0010
0001
0010
0000
0010
0001
0010
0000
,  // measure 33
0001
0000
0000
0000
1000
0001
0100
0000
0010
1000
0010
0000
0010
1000
0010
0000
,  // measure 34
1000
0000
0000
0000
0001
1000
0100
0000
0010
0001
0010
0000
0010
0001
0010
0000
,  // measure 35
0001
0100
1000
0100
0010
0000
0000
0000
,  // measure 36
1000
0000
0001
0010
0000
0010
0100
0000
1000
0000
1000
0100
0000
0100
0010
0000
,  // measure 37
0001
0000
0001
0010
0000
0010
0100
0000
1000
0000
1000
0100
0000
0010
0001
0000
,  // measure 38
1000
0000
0001
0100
0000
0010
1000
0000
0001
0000
0000
0000
1000
0010
0100
0000
,  // measure 39
0010
0000
0000
1000
0000
0000
0001
0000
0000
0010
0000
0000
0100
0000
0010
0000
,  // measure 40
0001
0000
0000
1000
0000
0000
0100
0000
0000
0000
0000
0000
0000
0000
0000
1000
,  // measure 41
0010
0000
0000
0100
0000
0000
0001
0000
0000
0000
0000
0000
0000
0000
0000
0000
,  // measure 42
0010
0000
0000
0100
0000
0000
0010
0000
0000
0000
0000
0000
0100
0010
0001
0000
,  // measure 43
2000
0000
3000
0000
;

//---------------dance-single - ----------------
#NOTES:
     dance-single:
     :
     Easy:
     2:
     0.146659,0.194164,0.008927,0.044635,0.000000,115.000000,114.000000,1.000000,5.000000,0.000000,0.000000,0.146659,0.194164,0.008927,0.044635,0.000000,115.000000,114.000000,1.000000,5.000000,0.000000,0.000000:
0000
0000
0000
0000
,
0000
0000
0000
0000
,
0000
0000
0000
0000
,
0000
0000
0000
0000
,
1000
0000
0000
0000
,
0001
0000
0000
0000
,
1000
0000
0000
0010
,
0200
0000
0000
0310
,
1000
0010
0000
0100
,
0001
1000
0000
0100
,
1000
0000
0010
0000
,
0100
0000
0000
0001
,
1000
0000
0100
0100
0000
0000
1000
0000
,
0001
0000
0100
0100
0000
0000
0010
0000
,
1000
0001
0010
0001
,
1000
0000
0000
0001
,
0100
0010
0000
0000
,
1000
0100
1000
0001
,
0100
0010
1000
0010
,
0100
0000
0000
0001
0000
0000
1000
0000
,
0100
0000
0000
1000
,
0001
0100
0001
0010
,
0100
0010
0001
1000
,
0010
0000
0000
0000
,
0001
1000
0000
0000
0001
1000
0000
0000
,
0001
1000
0000
0000
0001
1000
0000
0000
,
0001
1000
0000
0000
0001
1000
0000
0000
,
0001
0100
1000
0200
,
0301
0010
0001
1000
,
0100
1000
0010
0100
,
0001
1000
0010
0100
,
0020
1030
0002
0103
,
1001
0001
1000
0100
,
1000
0010
0100
0001
,
0010
0001
0100
0001
,
1000
0100
0010
0000
,
0100
0000
0000
0010
,
0100
0000
0000
0100
,
1000
0000
0001
0100
,
0010
0000
0000
0000
,
0100
0000
0000
0000
,
0010
0000
0000
0000
,
1000
0000
0000
0001
,
0200
0000
0300
0000
;

//---------------dance-single - ----------------
#NOTES:
     dance-single:
     :
     Beginner:
     1:
     0.072692,0.115159,0.000000,0.000000,0.000000,57.000000,57.000000,0.000000,0.000000,0.000000,0.000000,0.072692,0.115159,0.000000,0.000000,0.000000,57.000000,57.000000,0.000000,0.000000,0.000000,0.000000:
0000
0000
0000
0000
,
0000
0000
0000
0000
,
0000
0000
0000
0000
,
0000
0000
0000
0000
,
0010
0000
0000
0000
,
0100
0000
0000
0000
,
0010
0000
0000
0000
,
1000
0000
0000
0000
,
0001
0000
0000
0000
,
1000
0000
0000
0000
,
0010
0000
0000
0000
,
0100
0000
0000
0010
,
1000
0000
0000
0001
,
0010
0000
0000
0100
,
0010
0000
0001
0000
,
1000
0000
0000
0000
,
0001
0000
0000
0000
,
0100
0000
0000
0000
,
0010
0000
0000
0000
,
1000
0000
0000
0001
,
1000
0000
0000
0001
,
0100
0000
0010
0000
,
1000
0000
0000
0100
,
1000
0000
0000
0000
,
0010
0000
0010
0000
,
0010
0000
0010
0000
,
0010
0000
0010
0000
,
0100
0100
0100
0000
,
0001
0000
0000
0000
,
1000
0000
0000
0000
,
0010
0000
0000
0000
,
0100
0000
0010
0000
,
1000
0000
0000
0000
,
0001
0000
0000
0000
,
0010
0000
0000
0000
,
0001
0001
0001
0000
,
1000
0000
0000
0000
,
0010
0000
0000
0000
,
0100
0000
0001
0000
,
1000
0000
0000
0000
,
0001
0000
0000
0000
,
0010
0000
0000
0000
,
0001
0000
0000
0000
,
1000
0000
0000
0000
;
