#TITLE:Lost Boy;
#SUBTITLE:;
#ARTIST:Ruth B;
#TITLETRANSLIT:;
#SUBTITLETRANSLIT:;
#ARTISTTRANSLIT:;
#GENRE:;
#CREDIT:PWG;
#MUSIC:Lost Boy.ogg;
#BANNER:Lost Boy-banner.png;
#BACKGROUND:Lost Boy-bg.png;
#CDTITLE:;
#SAMPLESTART:55.380;
#SAMPLELENGTH:15.484;
#SELECTABLE:YES;
#OFFSET:-1.186;
#BPMS:0.000=124.000;
#STOPS:;
#BGCHANGES:;
#FGCHANGES:;

//--------------- dance-single - PWG ----------------
#NOTES:
     dance-single:
     PWG:
     Beginner:
     2:
     0,0,0,0,0:
0000
0000
0000
0000
,
0000
0000
0000
0000
,
0000
0000
0000
0000
,
0000
0000
0000
0000
,
1000
0000
0100
0000
,
0001
0000
0100
0000
,
0001
0100
0000
0100
,
0010
1000
0000
0000
0000
0000
1000
0000
,
0020
0030
0100
0000
,
0001
0100
0010
0000
,
2000
3000
0100
0000
,
1000
0100
0020
0030
,
1001
0000
0000
0000
0010
0000
0000
0001
,
0000
0010
0001
0000
,
1000
0000
0010
0000
,
1000
0010
1000
0000
,
1001
0000
0001
0000
,
0001
0000
0000
0000
,
1001
0000
1000
0000
,
1000
0000
0000
0000
,
0000
0000
0100
0010
,
0100
0100
0001
0001
,
0000
0000
0001
0100
,
0010
1000
1000
0100
,
0020
0000
0230
0000
,
0302
0000
0203
0000
,
1300
0000
0000
0000
,
1000
0000
0010
0000
,
0000
1000
0100
0000
0010
0000
0001
0000
,
0000
0001
0010
0000
0100
0000
0000
0000
,
1000
0010
0100
0001
,
0000
0001
0100
0010
,
0000
0100
0010
0000
1000
0000
0000
0000
,
0100
1000
0010
0000
,
0001
0001
0100
0100
,
0010
0010
1000
0000
,
0110
0000
0010
0000
,
0110
0000
0100
0000
,
0000
0000
1000
0000
0001
0000
0001
1000
,
0000
0000
0000
0000
0000
0000
0000
1000
,
0001
0000
1000
0000
,
0010
0000
0100
0000
,
0100
0100
0010
0100
,
0010
0010
0100
0000
,
0001
0100
0020
0000
0000
0000
0030
0000
,
1000
0010
0200
0000
0000
0000
0300
0000
,
1000
0100
0010
0000
0000
0000
0000
0000
,
0001
0010
0100
0000
0000
0000
0000
0000
,
2000
3000
0020
0030
,
2000
0000
0000
0000
0000
0000
0000
3000
,
0002
0003
0200
0300
,
0002
0000
0000
0000
0000
0000
0000
0003
,
1000
1000
0100
0000
,
0001
0001
0010
0000
,
1000
0000
0000
1000
0000
0000
1000
0000
,
0100
0010
0100
0000
,
0001
0010
0100
0000
,
0100
0010
0001
0000
,
1001
0000
0000
0001
0000
0000
0001
0000
,
1001
0000
0000
1000
0000
0000
1000
0000
,
0010
0100
0010
0010
,
0100
0000
0000
0100
0010
0000
0000
0000
,
0110
0000
0010
0100
0000
0100
0010
0000
,
0100
0010
0100
0000
;

//--------------- dance-single - PWG ----------------
#NOTES:
     dance-single:
     PWG:
     Easy:
     3:
     0,0,0,0,0:
0000
0000
0000
0000
,
0000
0000
0000
0000
,
0000
0000
0000
0000
,
0000
0000
0000
0000
,
0010
0100
0002
0003
,
0001
0100
0020
0030
,
1000
0010
0200
0300
,
0100
0010
1000
0000
0002
0000
0003
0000
,
0010
0100
0001
0000
,
0100
0010
1000
0000
,
1000
0100
0010
0000
,
0001
0010
0100
0000
1000
0000
0000
0000
,
1000
0000
0010
0010
,
0001
0000
0100
0100
,
1000
0000
0010
0100
0001
0000
0100
0010
,
1000
1000
0010
0000
,
0001
0000
0010
0100
,
0001
0001
1000
0000
,
1000
0000
0010
0100
0000
0100
0010
0000
,
0100
0001
1000
0000
,
1000
0000
0000
0000
0010
0010
0001
0000
,
0100
0000
0010
0000
,
0100
0000
0000
0000
1000
1000
0010
0000
,
0100
0000
0001
0000
,
2200
0300
3100
0000
,
0202
0300
0103
0000
,
2002
0000
0000
3003
,
0001
0010
0001
0000
1000
0010
1000
0000
,
1000
0100
0010
0001
,
0001
0010
0200
0300
,
0001
0010
0100
1000
,
1000
0100
0020
0030
,
0000
1000
0100
0000
0100
0000
0000
0000
,
0001
0000
0010
0100
0010
0000
0000
0000
,
0001
0001
0010
0010
,
0000
0000
1000
0100
1000
0000
0000
0000
,
0010
0000
0100
0000
,
0010
0000
0100
0000
,
0000
0000
1000
0001
1000
0000
0001
0000
,
1000
0000
0000
0000
,
0001
0000
1000
0000
,
0001
0000
1000
0000
,
0000
0000
1000
0001
1000
0000
0010
0100
,
0000
0100
0010
0000
0100
0000
0000
0000
,
0020
0000
0030
0010
,
0200
0000
0000
0000
0000
0300
0001
0000
,
1000
0000
0000
1000
,
0001
0000
0000
0000
,
1000
0000
0010
0000
,
0100
0100
0001
0000
,
0010
0000
0100
0001
0000
0000
0000
0000
,
0010
0000
1000
0000
0100
0000
0000
0100
,
0010
0100
0001
1000
,
0010
1000
0100
0000
1000
0000
0000
0000
,
0010
0100
0001
0100
,
0010
0000
0010
0000
0100
0000
0100
0010
,
0100
0000
0001
0000
1000
0000
0000
1000
,
0001
0000
0100
0000
0010
0000
0000
0100
,
0010
1000
0000
1000
0001
0100
0010
0100
,
0001
0000
0000
0001
0100
0000
0000
0100
,
0010
0100
0001
1000
,
0010
0000
0000
0010
1000
0000
0000
0000
,
1000
0100
0010
0000
,
0001
0010
1001
0000
;

//--------------- dance-single - PWG ----------------
#NOTES:
     dance-single:
     PWG:
     Medium:
     5:
     0,0,0,0,0:
0000
0000
0000
0000
,
0000
0000
0000
0000
,
0000
0000
0000
0000
,
0000
0000
0000
0000
,
0001
0000
0000
1000
0000
0000
0100
0000
0010
0000
0000
0000
0000
0000
0001
0000
,
0100
0010
1000
0001
0000
0000
0000
0000
,
0010
0000
0000
0100
0000
0000
1000
0000
0000
0000
0010
0000
1000
0000
0001
0000
,
0000
0100
0010
0000
0100
0000
0001
0000
,
1000
0010
1000
0001
0000
0100
0010
0100
,
0000
0001
1000
0100
0000
0000
0000
0010
,
0100
0001
1000
0010
0000
1000
0010
0100
,
0000
0101
0010
0000
,
0101
0010
0010
0000
,
1100
0100
0100
0000
,
0110
0010
0100
0000
,
1001
1000
0001
0000
,
1000
0000
0100
0000
0010
0001
0100
0000
,
0010
0100
1000
0000
0100
0000
0010
0000
,
0100
0001
1000
0000
0010
1000
0001
0100
,
0010
0100
0000
0000
0001
0000
1000
0000
,
0010
0000
1000
0000
0001
0100
0010
0000
,
0100
0000
0010
1000
0100
0000
1000
0000
,
0010
0000
0100
0001
0010
0100
1000
0100
,
0010
0100
0010
0000
1000
0000
0001
0001
,
1000
0000
0010
0000
,
0100
0000
0001
0000
,
0110
0000
0000
0000
,
1000
0100
0010
0001
1000
0100
0010
0001
,
0000
0010
0100
0001
1000
0000
0010
0000
,
0000
0010
0100
0001
1000
0000
0010
0000
,
1000
0010
0100
0001
0100
0000
0010
0000
,
1000
0000
0001
1000
0010
0000
0100
0000
,
0000
0010
0100
0001
0100
0000
0010
0000
,
1000
0100
1000
0010
0100
0000
0000
0000
,
0001
0100
0010
0100
0001
0000
1000
0000
,
0000
0000
0010
0100
0001
0000
0000
0000
,
2000
0000
3200
0000
,
0320
0000
0032
0000
,
0013
0000
0100
0010
1000
0000
0001
0000
,
0100
0000
0010
0000
0100
0000
0000
0100
,
0020
0000
0230
0000
,
0302
0000
2003
0000
,
3000
0000
1000
0100
0010
0000
0001
0010
,
0000
0001
0010
0100
1000
0000
0100
0000
,
0010
0100
0010
0100
0010
0000
0000
0000
,
0100
0010
0100
0010
0100
0000
0000
0000
,
0001
1000
0001
1000
1000
0001
1000
0001
,
1000
0001
0100
0010
,
0100
0010
1000
0000
0001
1000
0010
0000
,
0100
0001
0100
0010
0100
0000
0001
0000
,
0100
0000
0010
1000
0000
1000
0010
0100
,
0001
0000
0100
0001
0000
0001
0100
0010
,
0100
0000
0001
0000
1000
0010
1000
0000
,
0100
0010
0001
0000
0010
0100
1000
0000
,
1000
1000
0000
1000
0010
0100
0000
0001
,
0100
0000
0010
0000
0100
0000
0001
0100
,
0010
0000
1001
1000
0010
0000
0000
0001
,
0100
0010
0100
0000
0001
0000
0000
0010
,
1000
0001
0000
0100
0010
0100
0001
0100
,
0010
0000
0100
0000
1000
0000
0000
1000
,
0100
0000
0010
0000
0001
0010
0000
0001
,
0110
0000
1000
0000
1000
0100
0000
0010
,
0100
0000
0010
1000
0000
1000
0010
0100
,
0001
0000
0001
0100
0000
0000
1001
0000
;

//--------------- dance-single - PWG ----------------
#NOTES:
     dance-single:
     PWG:
     Hard:
     9:
     0,0,0,0,0:
0000
0000
0000
0000
,
0000
0000
0000
0000
,
0000
0000
0000
0000
,
0000
0000
0000
0000
,
0010
0000
0000
0100
0000
0000
0001
0000
2000
0000
0000
0000
3000
0000
0010
0100
,
1000
0001
0100
0020
0000
0000
0030
0000
,
0010
0000
0100
0001
1000
0000
0010
1000
,
0010
0100
0002
0000
0023
0000
0030
0000
,
0010
0000
0100
0000
0001
0000
0100
0000
0000
0000
0010
0100
1000
0000
0001
0000
,
0000
0000
0100
0010
0001
0000
2000
0000
0000
0000
0000
0000
3000
0000
0010
0000
,
0100
0000
0001
0000
0100
0000
0010
0000
0000
0000
0010
0100
1000
0000
0001
0000
,
1000
0000
0100
1000
0100
0000
0001
0010
0001
0000
0001
0000
0010
0000
0100
0000
,
0001
0000
1000
0000
0010
0000
0001
0100
0010
0000
0001
0000
0100
0000
0010
0000
,
0001
0000
0100
0010
1000
0000
0001
1000
0010
0000
0001
0000
0010
0000
0100
0000
,
0001
0000
1000
0000
0100
0000
0001
0100
0010
0000
0100
0000
1000
0000
0010
0000
,
0001
0000
1000
0100
0010
0000
0001
0100
0010
0000
1000
0000
0010
0000
0001
0000
,
0010
0000
0100
0000
0001
0000
0010
0100
0001
0000
0010
0000
0100
0000
1000
0000
,
0010
0000
1000
0001
1000
0000
0010
1000
0001
0000
0100
0000
0010
0000
0100
0000
,
0001
0010
0100
0000
1000
0100
0010
0000
0100
0000
0000
0000
0001
0000
0100
0000
,
1100
0000
0110
0000
0011
0000
0010
0100
,
0001
0000
0000
0001
1000
0000
0000
1000
0010
0000
0010
0000
0100
0001
0100
0000
,
0010
0000
0000
0010
0100
0000
0000
0100
0001
0000
0001
0000
1000
0010
1000
0000
,
1000
0000
0000
1000
0010
0000
0010
0000
0100
0000
0100
0000
0001
0100
0010
0000
,
0100
0000
0000
0100
0001
0000
0000
0001
1000
0010
1000
0001
0100
0000
0010
0000
,
0110
0010
0100
0010
1001
0100
0010
0100
,
0110
0010
0100
0010
1001
0100
0010
0100
,
2001
0000
0000
0000
,
0001
0000
0010
0000
0100
0010
0100
0000
,
3001
0010
0100
0010
1000
0001
1000
0010
,
1000
0000
0001
0100
0010
0000
0100
0000
0001
1000
0010
0000
1000
0000
0100
0000
,
1000
0000
0010
0000
1000
0000
0001
0100
0010
0000
0100
0000
0001
0000
1000
0000
,
0010
0000
1000
0001
0100
0000
0010
0000
1000
0100
1000
0010
1000
0000
0001
0000
,
0100
0000
0010
0100
0001
0000
0100
0000
0010
1000
0001
1000
0100
0000
1000
0000
,
0010
0000
1000
0001
1000
0000
0100
0000
1000
0000
1000
0001
0100
0000
0010
0000
,
0100
0000
0001
0100
0010
0000
0100
0010
1000
0000
0100
1000
0010
0000
0000
0000
,
0010
0000
0100
0001
0100
0000
0010
0100
0001
0100
0010
0000
1000
0000
0000
0000
,
0010
0000
0000
0010
1000
0000
0001
0000
1000
0000
0000
0000
1010
0000
0010
0000
,
0100
0000
0000
0001
0100
0000
0010
0000
0100
0000
0000
0000
0011
0000
0001
0000
,
1000
0000
0000
1000
0010
0000
0010
0000
0100
0000
0000
0100
0001
0000
0100
0000
,
0010
0100
0001
0100
0010
0000
1000
0000
0001
1000
0100
1000
0010
0000
1000
0000
,
0100
0000
0000
0100
1000
0000
0010
0000
1000
0000
0000
0100
0001
0000
0001
0000
,
0100
0000
0010
0000
0100
0001
0100
0000
0010
0000
0001
0000
0010
0000
1000
0000
,
0100
0000
1000
0010
1000
0000
0001
0000
0100
0000
0001
0000
0010
0000
0100
0000
,
0010
0000
1000
0000
0001
0000
0010
0000
0100
0000
0010
1000
0001
0000
0100
0000
,
0010
0000
0100
0001
0100
0000
0010
0000
1000
0000
0000
0000
0001
0000
0000
0000
,
0010
0000
0100
0010
0100
0000
0001
0000
1000
0000
0000
0000
0010
0000
0000
0000
,
0100
0001
1000
0000
0010
1000
0001
0000
,
0100
0000
0010
0100
0001
0000
1000
0000
0010
0000
0000
0000
1000
0000
0000
0000
,
0100
0000
1000
0010
1000
0000
0001
0000
0100
0000
0010
0000
0100
0000
0000
0000
,
0010
0000
0100
0001
0100
0000
0010
0000
1000
0000
0000
0000
0001
0000
0000
0000
,
1000
0010
1000
0001
0000
0010
0100
0001
,
0100
0010
1000
0000
0100
0000
0010
0000
,
1000
0001
1000
0010
0100
0001
0100
0000
,
0100
0010
0000
0000
1000
0001
0000
0000
1000
0000
0000
0000
0000
0000
0000
0000
,
0010
0000
1000
0000
0000
0010
0000
0000
0100
0000
0000
0001
0000
0000
0100
0000
,
0010
0000
0000
0010
0100
0000
0000
0100
0001
0100
0010
0000
1000
0000
0001
0000
,
1000
0000
0010
1000
0001
0000
1000
0000
0100
0000
1000
0000
0010
0000
0000
0000
,
0010
0000
0100
0001
0100
0000
0010
0000
0100
0000
0001
0000
0100
0000
0000
0000
,
0010
0100
0001
0100
0010
1000
0001
1000
,
0010
0100
0001
0000
,
0010
0100
0010
0000
0100
0000
0001
0000
1000
0000
0010
0000
1000
0000
0000
0000
,
0100
0000
0001
0010
0100
0010
0100
0000
,
1000
0100
0010
0001
0000
1000
0000
0100
,
0010
0001
0110
0001
;

//--------------- dance-single - PWG ----------------
#NOTES:
     dance-single:
     PWG:
     Challenge:
     10:
     0,0,0,0,0:
0000
0000
0000
0000
,
0000
0000
0000
0000
,
0000
0000
0000
0000
,
0000
0000
0000
0000
,
0010
0000
0100
0000
0001
0000
1000
0000
0000
0000
0010
1000
0001
0000
0000
0000
,
0010
0000
0100
0000
0001
0000
0100
0000
0000
0000
0010
0100
0001
0000
1000
0010
,
1000
0000
0001
0000
1000
0000
0010
0000
0100
0000
0001
0100
0010
0000
0100
0000
,
0001
0000
0010
1000
0100
0000
0001
0010
1000
0000
0000
0000
0010
0000
0000
0010
,
1000
0000
0001
0000
0100
0000
0010
0000
0100
0001
0100
0000
0010
0000
1000
0000
,
0001
0000
0000
0001
1000
0000
0010
0000
1000
0010
1000
0000
0001
0000
0100
0000
,
0010
0100
0001
0000
0100
0010
1000
0000
0100
0000
1000
0000
0010
0000
1000
0000
,
0001
0000
0000
0001
0100
0000
0010
0100
0001
0100
0010
1000
0001
0000
1000
0000
,
0010
0000
1000
0100
1000
0000
0010
0000
1000
0000
0001
0100
0010
0000
0100
0000
,
0001
0000
0010
0000
0001
0100
0010
0000
1000
0100
1000
0010
1000
0000
0001
0000
,
0100
0000
0010
0100
0001
0000
0100
0000
0010
0000
1000
0100
1000
0000
0010
0000
,
0100
0000
0001
0100
0010
0000
0100
0000
0001
1000
0010
1000
0100
0000
1000
0000
,
0010
0000
0000
0010
0100
0000
0000
0100
0001
0000
0000
0001
1000
0010
1000
0000
,
0010
0000
0000
0010
1000
0000
0000
1000
0100
0000
0000
1000
0010
0100
0001
0000
,
0100
0010
1000
0001
0000
1000
0010
1000
,
0000
0000
0001
0100
0010
0000
0100
0000
0001
0000
1000
0000
0020
0000
0000
0000
,
0030
0000
0020
0230
,
0302
0000
0000
1003
0000
1000
0010
1000
0001
0200
0000
0000
,
0310
0000
0010
1000
0000
0100
0010
0100
0010
0100
0000
0001
,
1000
0000
0010
1000
0000
0001
0100
0010
1000
0100
0000
1000
,
0020
0000
0000
0000
0000
0000
0000
0000
0000
0030
0000
0000
0110
0000
0000
0000
0000
0000
0000
0000
0100
0000
0000
0000
0020
0000
0000
0000
0000
0000
0000
0000
0000
0030
0000
0000
1001
0000
0000
0000
0000
0000
0000
0000
0010
0000
0000
0000
,
2000
0000
0000
0000
0000
0000
0000
0000
0000
3000
0000
0000
1010
0000
0000
0000
0000
0000
0000
0000
0100
0000
0000
0000
0002
0000
0000
0000
0000
0000
0000
0000
0000
0003
0000
0000
0101
0000
0000
0000
0000
0000
0000
0000
0010
0000
0000
0000
,
0001
0000
1000
0010
1000
0000
0001
0000
0100
0000
0010
0100
0001
0000
0100
0000
,
0010
0100
0001
0000
0010
1000
0001
0000
1000
0000
0010
0000
0200
0000
0000
0000
,
0300
0000
0001
0000
0100
0000
0010
0000
0100
0001
0100
0010
0100
0000
0001
0000
,
1000
0000
0010
1000
0001
0000
1000
0000
0010
0100
0001
0100
0010
0000
0100
0000
,
0001
0000
1000
0000
0010
0000
1000
0001
1000
0000
0000
0000
0010
0000
0100
0000
,
0001
0000
0100
0010
0100
0000
0001
0000
1000
0010
1000
0001
1000
0000
0010
0000
,
0200
0000
0000
0000
0300
0000
0001
0000
0000
0100
0000
0000
0010
0000
0000
0000
0000
0000
0100
0000
0000
0000
0000
0000
0002
0000
0000
1000
0003
0000
0010
0000
0000
1000
0000
0000
0100
0000
0000
0000
0000
0000
1000
0000
0000
0000
0000
0000
,
0020
0000
0000
1000
0030
0000
0001
0000
0000
1000
0000
0000
0010
0000
0000
0100
0000
0000
0001
0000
0000
0100
0000
0000
0020
0000
0000
0000
0030
0000
0100
0000
0000
0001
0000
0000
0100
0000
0000
0000
0000
0000
0010
0000
0000
0000
0000
0000
,
1000
0000
0001
1000
0100
0000
1000
0000
0010
1000
0001
1000
0010
0000
0100
0000
,
0001
0000
0100
0010
0100
0000
0001
0100
0010
0100
0001
1000
0010
1000
0001
1000
,
0010
0000
0100
0001
0100
0000
0010
0000
0100
0000
0001
0100
0010
0000
0100
0000
,
0001
0000
0100
0010
1000
0000
0001
1000
0010
1000
0100
1000
0010
0000
1000
0000
,
0001
0000
0100
0010
0100
0000
0001
0000
0100
0000
0010
0100
0001
0000
1000
0000
,
0010
0000
1000
0001
1000
0000
0100
0000
1000
0010
1000
0100
1000
0000
0010
0000
,
1000
0000
0001
0100
0010
0000
0100
0000
0001
0000
0100
0010
1000
0000
0001
0000
,
1000
0000
0100
1000
0010
0000
1000
0000
0100
0000
1000
0000
0010
0000
1000
0000
,
0001
0000
1000
0010
1000
0000
0001
0100
0010
0000
0100
0001
0100
0000
0010
0100
,
0001
0000
1000
0010
0001
0100
1000
0010
1000
0001
1000
0000
0010
0000
1000
0000
,
0100
0000
1000
0010
1000
0000
0001
0000
0100
0000
0000
0000
0010
0000
0000
0000
,
0001
0000
0100
0010
0100
0000
0001
0000
0100
0000
0000
0000
0010
0000
0000
0000
,
1001
0110
1100
0011
,
1000
0010
0100
0001
0100
0010
0001
0000
1000
0000
0001
0000
1000
0000
0000
0000
,
0110
1000
0200
0300
,
0110
0001
0020
0030
,
0001
0000
1000
0010
1000
0000
0001
0100
0010
0100
0001
0100
0010
0000
0100
0000
,
0001
1000
0010
1000
0001
1000
0010
1000
0001
0000
0100
0000
0010
0000
0100
0001
,
0100
0000
0010
0000
0100
0000
0001
0000
1000
0010
1000
0001
1000
0000
0010
0000
,
1000
0100
1000
0000
0010
1000
0001
0000
0100
0000
0010
0000
0100
0000
0001
0000
,
0100
0000
0000
0010
0000
0000
0001
0000
0100
0000
0010
0000
0100
0000
0001
0000
,
1000
0010
1000
0001
1000
0000
0010
0000
0100
0001
0100
0000
0010
0000
0100
0000
,
0001
1000
0010
0000
1000
0000
0001
0000
1000
0010
0100
0000
0001
0000
0100
0000
,
0010
0100
0001
0100
0010
1000
0001
1000
0010
0000
1000
0001
0100
0000
0010
0000
,
0100
0001
0100
0010
1000
0000
0001
0000
1000
0010
1000
0001
0100
0000
0010
0000
,
0100
0010
0100
0000
0100
1000
0100
0000
0001
0010
0001
0000
0100
0010
0100
0000
,
0001
1000
0010
1000
0001
0000
0100
0000
0010
0100
0001
0100
0010
0000
0100
0000
,
0001
1000
0010
0001
0100
0000
0010
0000
,
1000
0100
0010
0001
1000
0100
0010
0001
1000
0100
0010
0001
1000
0100
0010
0001
,
0110
0110
1001
0000
;

//--------------- dance-double - PWG ----------------
#NOTES:
     dance-double:
     PWG:
     Hard:
     9:
     0,0,0,0,0:
00000000
00000000
00000000
00000000
,
00000000
00000000
00000000
00000000
,
00000000
00000000
00000000
00000000
,
00000000
00000000
00000000
00000000
,
00100000
00000000
01000000
00010000
01000000
00000000
00000000
00100000
,
10000000
00000000
00010000
10000000
00100000
00000000
00000000
00000000
,
00100000
00000000
01000000
00010000
01000000
00000000
00100000
10000000
,
00010000
00000000
10000000
00000000
00100000
00000000
00000000
00000000
10000000
00000000
00000000
00000000
00010000
00000000
10000000
00100000
,
10000000
00000000
00010000
01000000
00100000
00000000
01000000
00010000
,
01000000
00000000
00100000
00000000
10000000
00000000
00000000
00000000
00010000
00000000
10000000
00100000
10000000
00000000
01000000
00000000
,
10000000
00100000
10000000
00010000
01000000
00100000
01000000
00010000
,
01000000
00100000
00001000
00100000
00010000
00100000
00001000
00000000
,
00001000
00000000
00100000
00010000
00100000
00000000
00001000
00000000
00100000
00000000
00000100
00000000
00010000
00000000
00000000
00000000
,
00000100
00000000
00010000
00001000
00010000
00000000
00000100
00000000
00001000
00000000
00000010
00000000
00001000
00000000
00000000
00000000
,
00000100
00001000
00000010
00000000
00001000
00000000
00000100
00000000
00010000
00001000
00100000
00000000
00000100
00000000
00100000
00001000
,
00100000
00000000
00010000
00000000
00100000
00000000
00001000
00000000
01000000
00000000
00000000
00000000
00010000
00100000
01000000
00010000
,
00001000
00000000
00000000
00000000
00000100
00000000
00000000
00000000
00001000
00000000
00010000
00000000
00000100
00000000
00000010
00000001
,
00001000
00100000
00010000
00100000
00001000
00000000
00000100
00000000
,
00000100
00001000
00100000
00010000
00000100
00000000
00000000
00000000
00001000
00000000
00010000
00000000
00001000
00000000
00000000
00000000
,
00000100
00010000
00001000
00000010
00001000
00000000
00000001
00000000
00000100
00000000
00000010
00000000
00001000
00000000
00000000
00000000
,
00000100
00000000
00000000
00001000
00000000
00000000
00001000
00000000
00001000
00100000
00000000
00000000
,
00010000
00000000
00000000
01000000
00010000
01000000
00100000
00000000
00000000
10000000
00000000
00000000
,
00010000
00000000
00000000
00100000
00000000
00100000
00010000
00000000
00010000
00001000
00000000
00001000
,
00000100
00000000
00000100
00000100
00000000
00001000
00000100
00001000
00000100
00001000
00000000
00010000
,
00002000
00000000
00023000
00000000
,
02030000
00000000
00000000
00000000
03000200
00000000
00010300
00100000
,
00000000
00010000
00100000
00000000
,
00200000
00000000
00320000
00000000
,
00030000
00000000
00001000
00100000
00010000
00000000
00000100
00000000
00001000
00000000
00000010
00000000
00000100
00001000
00000001
00000010
,
00000100
00000000
00001000
00010000
00100000
00000000
01000000
00000000
00001000
00000010
00000100
00001000
00010000
00000000
01000000
00000000
,
00001000
00000000
00100000
00000000
00010000
01000000
00100000
00000000
01000000
00000000
00010000
00000000
10000000
00000000
00000000
00000000
,
00010000
00000000
00000000
00000000
01000000
00010000
00001000
00000010
00100000
00000000
00000000
00000000
00010000
00000000
00000000
00000000
,
00000000
00000000
00001000
00000000
00010000
00000000
00000100
00000000
00000010
00000001
00000100
00000000
00001000
00000000
00000100
00000000
,
00000010
00000100
00010000
00001000
00100000
00000000
00010000
01000000
00010000
00000000
10000000
00000000
00100000
00000000
01000000
00000000
,
00001000
00000000
00010000
00001000
00000100
00000000
00010000
00000000
00000010
00000000
00000000
00000000
00001000
00000000
00000000
00000000
,
00000000
00000000
00001000
00000010
00000100
00001000
00010000
00000000
00011000
00000000
00001000
00000000
00110000
00000000
00100000
00000000
,
01100000
00000000
00000000
00100000
00010000
00000000
00000000
00010000
,
00001000
00000000
00000000
00000000
00000000
00010000
00001000
00000010
00000100
00000000
00000000
00000000
00000110
00000000
00000000
00000000
,
00001001
00000000
00000000
00000000
00000100
00000000
00000010
00000001
00000100
00000000
00000000
00000000
00001000
00000000
00000100
00010000
,
00100000
00000000
00001000
00000000
00010000
00000000
00100000
00000000
00001000
00000000
00000100
00001000
00010000
00000000
00100000
00000000
,
00100000
00000000
00000000
00000000
01000000
00000000
00000000
01000000
,
00010000
00000000
00000000
00000000
00100000
00010000
00001000
00010000
00100000
00000000
00001000
00000000
00000010
00000000
00000000
00000000
,
00000100
00010000
00001000
00010000
00000010
00000000
00000100
00001000
,
00000000
00001000
00100000
00010000
00100000
00000000
00100000
00000000
,
00010000
00000000
00100000
00000000
00001000
00000000
00000000
00000000
00010000
00000000
00000000
00000000
01000000
10000000
00010000
00000000
,
00001000
00000000
00000100
00000000
00010000
00000000
00000000
00000000
00001000
00000000
00000010
00010000
00001000
00000000
00000000
00000000
,
00010000
00000000
00100000
00010000
01000000
00000000
00100000
00000000
01000000
00000000
00010000
00000000
01100000
00000000
01000000
00000000
,
00010000
00100000
00001000
00100000
00010000
00000000
00011000
00000000
,
00011000
00000000
00000100
00001000
00000100
00000000
00010000
00000000
00001000
00000000
00000000
00000000
00010000
00000000
00000000
00000000
,
00001000
00000000
00100000
00010000
00100000
00000000
00001000
00000000
00100000
00000000
00000000
00000000
00001000
00000000
00000000
00000000
,
00010000
00000100
00010000
00001000
00010000
00000000
00100000
00000000
00010000
01000000
00001000
00000000
01000000
00000000
00010000
00000000
,
01000000
00100000
01000000
00010000
10000000
00000000
00100000
00000000
10000000
00000000
00000000
00000000
00010000
00000000
00100000
00000000
,
00001000
00100000
00010000
00000000
00100000
00010000
00001000
00000000
00010000
00000000
00000100
00000000
00001000
00000000
00000010
00000000
,
00001000
00000100
00001000
00000000
00000010
00010000
00001000
00000000
00000100
00010000
00001000
00000000
00010000
00000000
00000100
00000000
,
00100000
00001000
00100000
00000100
00100000
00000000
00001000
00000000
00100000
00010000
00100000
00001000
00010000
00000000
00000100
00000000
,
00010000
00000000
00000000
00010000
00001000
00000000
00000000
00001000
00010000
00001000
00000100
00001000
00010000
00000100
00001000
00000000
,
00000010
00000000
00001000
00000100
00001000
00000000
00000100
00000000
00010000
00000000
00001000
00010000
00000100
00000000
00100000
00000000
,
00001000
00100000
00010000
00000000
00100000
00000100
00100000
00001000
01000000
00000000
00000100
00000000
01000000
00000000
00010000
01000000
,
00001000
00000000
10000000
00010000
10000000
00000000
00001000
10000000
00010000
00000000
10000000
01000000
10000000
01000000
00100000
10000000
,
00010000
00000000
01000000
00100000
01000000
00000000
00010000
01000000
00001000
00000000
00100000
00000000
00001000
00000000
00100000
00000000
,
00000100
00010000
00000010
00001000
00000010
00000000
00001000
00000000
00000100
00000000
00001000
00000010
00010000
00000000
00000100
00000000
,
00010000
00000010
00010000
00000100
00010000
00000000
00001000
00000000
00100000
00000000
00001000
00000000
00100000
00000000
00010000
00000000
,
00100000
00010000
01000000
00000000
00100000
00000000
01000000
00000000
00000000
00000000
01000000
00100000
00010000
00000000
01000000
00000000
,
00100000
00000000
10000000
00010000
10000000
00000000
00100000
00000000
10000000
00000000
00000000
00000000
01000000
00000000
00000000
00000000
;

//--------------- dance-double - PWG ----------------
#NOTES:
     dance-double:
     PWG:
     Challenge:
     10:
     0,0,0,0,0:
00000000
00000000
00000000
00000000
,
00000000
00000000
00000000
00000000
,
00000000
00000000
00000000
00000000
,
00000000
00000000
00000000
00000000
,
00100000
01000000
00010000
01000000
00100000
00000000
10000000
00000000
00010000
00000000
01000000
00001000
00100000
00000000
00010000
00000000
,
00001000
00100000
00010000
00000000
00100000
00000000
01000000
00000000
00010000
00000000
01000000
00000000
00100000
00000000
01000000
00010000
,
10000000
00100000
10000000
00010000
10000000
00000000
01000000
00100000
01000000
00010000
01000000
00100000
01000000
00000000
00000000
00000000
,
00101000
00000000
00101000
00000000
00010000
00000000
00100000
00000000
00001000
00000000
00010000
00000100
00010000
00000000
00001000
00000000
,
00010000
00000100
00010000
00000010
00001000
00000000
00000100
00000000
00001000
00000000
00000010
00010000
00000100
00000000
00010000
00000000
,
00001000
00010000
00000100
00010000
00001000
00000000
00100000
00010000
00100000
00000000
00001000
00000000
00100000
00000000
00010000
00000000
,
00100000
00001000
00100000
00000100
00010000
00000000
00000010
00001000
00000100
00001000
00000010
00000000
00001000
00000000
00000001
00000000
,
00000001
00000010
00000100
00001000
00000100
00000010
00000001
00000000
00000100
00000000
00001000
00000000
00000010
00000000
00001000
00000000
,
00000100
00001000
00000100
00000000
00010000
00000000
00001000
00000000
00010000
00000000
00001000
00100000
00010000
00000000
00100000
00000000
,
00010000
00000000
01000000
00100000
01000000
00000000
00010000
00100000
00001000
00100000
00010000
00000000
01000000
00000000
00001000
00000000
,
00100000
00000100
00010000
00001000
00100000
00000000
00010000
00000000
01000000
00001000
01000000
00010000
01000000
00000000
00100000
00000000
,
10000000
00010000
10000000
00100000
01000000
00010000
01000000
00000000
00001000
00000000
00100000
00010000
00100000
00000000
00000100
00000000
,
00010000
00001000
00000100
00000000
00100000
00000000
00001000
00000000
00000100
00100000
00000100
00000000
00010000
00000000
00001000
00000000
,
00010000
00000100
00001000
00000010
00001000
00000000
00000100
00001000
00000010
00000000
00100010
00000000
00100000
00000000
00100010
00000000
,
00000100
00010000
00000010
00010000
00000100
00000000
00010000
00000000
00000100
00000000
00100000
00000000
00000100
00000000
00100000
00000000
,
00000010
00100000
00000010
00100000
00000010
00000000
00010000
00000100
00010000
00000100
00010000
00000000
00001000
00100000
00001000
00000000
,
01000000
00010000
01000000
00100000
01000000
00000000
00010000
10000000
00100000
10000000
00010000
00000000
01000000
00010000
01000000
00000000
,
00001000
00100000
00000100
00100000
00001000
00000000
00010000
00000100
00010000
00001000
00010000
00000000
00000100
00100000
00001000
00100000
,
00010000
00100000
00001000
00100000
00000100
00010000
00001000
00010000
00000100
00000000
00010000
00000100
00001000
00000000
00000010
00000000
,
00001000
00000100
00001000
00000010
00001000
00000000
00000100
00010000
00000010
00010000
00001000
00000000
00010000
00000000
00000100
00000000
,
00010000
00001000
00010000
00000000
00001000
00000000
00000000
00000000
00001000
00010000
00001000
00000000
00001000
00000000
00000000
00000000
,
00010000
00001000
00010000
00000000
00001000
00000000
00000000
00000000
00011000
00000000
00001000
00000000
00001000
00010000
00001000
00000000
,
00001000
00010000
00001000
00000000
00001000
00010000
00001000
00000000
00011000
00000000
00001000
00010000
00001000
00010000
00001000
00000000
,
00010000
00001000
00100000
00010000
00100000
00001000
01000000
00010000
01000000
00100000
00010000
10000000
00100000
00000000
00000000
00000000
,
10000000
01000000
00010000
01000000
00100000
00000000
00001000
00100000
00010000
00000000
00101000
00000000
00100000
00000000
00010100
00000000
,
00010000
00000000
00001000
00010000
00000100
00000000
00010000
00000000
00000010
00001000
00000100
00001000
00000010
00000000
00001000
00000000
,
00000100
00001000
00000010
00001000
00000001
00000100
00000010
00000100
00000001
00000000
00001000
00000000
00000010
00000000
00001000
00000000
,
00000100
00000000
00010000
00000010
00010000
00000000
00000100
00000000
00010000
00001000
00100000
00000100
00100000
00000000
00001000
00000000
,
00100000
00000000
00010000
01000000
00001000
00000000
01000000
00000000
00010000
00000000
01000000
00000000
00100000
00000000
01000000
00000000
,
00010000
01000000
00100000
00000000
01000000
00000000
00010000
00000000
10000000
00000000
00000000
10000000
00100000
00000000
10000000
00000000
,
00010000
01000000
00100000
00000000
01000000
00010000
01000000
00000000
00100000
00000000
01000000
00000000
00010000
00000000
00000000
00000000
,
00010000
00000000
00100000
00001000
00100000
00000000
00010000
00000000
00100000
00000000
00000000
00000000
00001000
00100000
00000100
00100000
,
00001000
00000000
00010000
00000100
00010000
00000000
00001000
00000000
00010000
00000000
00000100
00100000
00001000
00000000
00100000
00000000
,
00010000
00000000
00100000
00001000
00100000
00000000
00010000
00000000
00100000
00000000
00001000
00000000
00010000
00000000
00100000
00000000
,
01000000
00000000
00010000
01000000
00001000
00000000
01000000
00000000
01100000
00000000
10010000
00000000
01100000
00000000
10000000
00000000
,
00010000
00000000
01000000
00010000
01000000
00000000
00001000
00000000
00100000
00001000
00010000
00000100
00010000
00000000
00001000
00000000
,
00010000
00000000
00000100
00100000
00001000
00000000
00100000
00000000
00000100
00100000
00000100
00100000
00000100
00000000
00100000
00000000
,
00000010
01000000
00000010
01000000
00000010
00000000
01000000
00000000
00000010
01000000
00000010
00100000
00000010
00100000
00000010
00100000
,
00000100
00100000
00000100
01000000
00000100
01000000
00000100
01000000
00001000
00000000
01000000
00000000
00000100
00000000
00100000
00000000
,
00000010
00001000
00000100
00001000
00000001
00001000
00000100
00010000
00000010
00010000
00000100
00010000
00001000
00100000
00000100
00100000
,
00001000
00000000
00100000
00000100
01000000
00000000
00010000
00000000
01000000
00001000
10000000
00100000
10000000
00000000
00010000
00000000
,
01000000
00000000
00100000
01000000
00010000
00000000
01000000
00000000
00100000
01000000
00010000
01000000
00001000
00000000
00100000
00000000
,
00010000
00001000
00000100
00010000
00001000
00000100
00001000
00100000
,
00000100
00000000
00100000
00001000
00100000
00000000
00000100
00000000
00010000
00000000
00000000
00010000
00000100
00000000
00010000
00000000
,
00000010
00001000
00000010
00000000
00001000
00000000
00000000
00000000
00000100
00001000
00000100
00000000
00001000
00000000
00010000
00001000
,
00010000
00000000
00000000
00000000
00001000
00000000
00000000
00000000
00100000
00010000
00100000
00000000
00010000
00000000
00000000
00000000
,
00010000
00000000
00000000
00100000
00000000
00000000
00010000
00000000
00000000
00000000
00010000
00000000
00100000
00000000
00000000
00000000
,
00010000
00100000
00010000
00000000
00001000
00000000
00010000
00001000
,
00100000
00000000
00000100
00010000
00000010
00001000
00000100
00000000
,
00000100
00000000
00010000
00000000
00001000
00100000
00000000
00000000
00010000
00000000
00000000
00000000
00010000
00000000
00000000
00000000
,
00100000
00000000
00000000
00010000
00000000
00010000
00000000
00000000
00001000
00000000
00000000
00001000
00000000
00000000
00010000
00000000
,
00000100
00000000
00011000
00000000
00100000
00000000
00100000
00001000
,
00010000
00000000
00000000
00010000
00001000
00000000
00010000
00000000
00000100
00000000
00000000
00000000
00000000
00000000
00000100
00000000
,
00010000
00100000
00000000
00000000
00001000
00000000
00000000
00000000
00100000
00000000
00000000
00000000
00000000
00000000
00010000
00000000
,
00100000
00000000
00000000
00001000
00000000
00000000
00100000
00000000
00010000
00000000
00000000
00100000
00000000
00000000
00001000
00000000
,
00100000
00000000
00010000
00000000
01000000
00000000
00100000
01000000
00010000
00000000
01000000
00000000
00100000
00000000
10000000
00000000
,
00010000
01000000
00100000
00000000
01000000
00010000
00100000
00000000
00001000
00000000
00100000
00000000
00010000
00000000
00000000
00000000
,
00001000
00000000
00000000
00001000
00010000
00000000
00000100
00000000
,
00001000
00000000
00000000
00000100
00000000
00000000
00010000
00000000
00000000
00000000
00001000
00000000
00000000
00000000
00010000
00000000
,
00001000
00100000
00010000
00000000
;
