#VERSION:0.83;
#TITLE:Lephise's Song of Resurrection;
#SUBTITLE:;
#ARTIST:Eriko Imura + Tomoko Tatsuta;
#TITLETRANSLIT:;
#SUBTITLETRANSLIT:;
#ARTISTTRANSLIT:;
#GENRE:;
#ORIGIN:;
#CREDIT:;
#BANNER:songofresurrection-bn.png;
#BACKGROUND:songofresurrection-bg.png;
#PREVIEWVID:;
#JACKET:songofresurrection-jacket.png;
#CDIMAGE:;
#DISCIMAGE:;
#LYRICSPATH:;
#CDTITLE:cdtitle.png;
#MUSIC:songofresurrection.mp3;
#OFFSET:-0.485000;
#SAMPLESTART:75.295998;
#SAMPLELENGTH:14.222000;
#SELECTABLE:YES;
#BPMS:0.000=103.806,
8.000=109.091,
9.000=116.505,
11.000=124.585,
16.000=123.935,
24.000=118.812,
28.000=134.831,
32.000=113.475,
36.000=125.687,
44.000=117.264,
56.000=119.641,
60.000=122.543,
68.000=122.511,
72.000=102.302,
76.000=123.235,
84.000=119.776,
91.500=128.824,
95.500=125.523,
99.500=120.907,
103.500=120.150,
119.500=121.642,
123.500=125.174,
125.000=105.263,
126.000=86.957,
127.000=85.653,
131.000=54.695,
132.000=120.499,
146.000=97.720,
147.000=111.248,
150.000=122.825,
154.000=115.163,
158.000=116.167,
162.000=130.933,
166.000=121.704,
167.000=119.443,
170.000=116.902,
174.000=123.839,
176.000=105.356,
178.000=117.878,
182.000=137.615,
183.000=83.102,
184.000=112.570,
186.000=117.388,
194.000=97.127,
198.000=85.227,
200.000=76.923,
201.000=43.478,
202.000=38.241,
203.000=28.382;
#STOPS:;
#DELAYS:;
#WARPS:;
#TIMESIGNATURES:0.000=4=4;
#TICKCOUNTS:0.000=4;
#COMBOS:0.000=1;
#SPEEDS:0.000=1.000=0.000=0;
#SCROLLS:0.000=1.000;
#FAKES:;
#LABELS:0.000=Song Start;
#BGCHANGES:0.000=songofresurrection.avi=1.000=0=0=0=StretchNoLoop====,
206.000=songofresurrection-bg.png=1.000=1=0=1===CrossFade==,
99999=-nosongbg-=1.000=0=0=0 // don't automatically add -songbackground-
;
#KEYSOUNDS:;
#ATTACKS:
;

//---------------dance-single - ----------------
#NOTEDATA:;
#CHARTNAME:;
#STEPSTYPE:dance-single;
#DESCRIPTION:;
#CHARTSTYLE:;
#DIFFICULTY:Hard;
#METER:5;
#RADARVALUES:0.262574,0.365425,0.000000,0.126760,0.095070,232.000000,232.000000,0.000000,16.000000,0.000000,0.000000,0.000000,0.000000,0.000000,0.262574,0.365425,0.000000,0.126760,0.095070,232.000000,232.000000,0.000000,16.000000,0.000000,0.000000,0.000000,0.000000,0.000000;
#CREDIT:;
#NOTES:
0000
0000
0000
0000
,
0000
0000
0000
0000
,
1000
0001
0010
0000
0000
0000
0200
1000
,
1300
0000
1000
0001
0000
0010
0000
0001
,
1000
0010
1000
0100
0000
0010
0001
0010
,
0100
1000
0010
1000
0000
0010
0100
0001
,
0100
0001
1000
0020
0000
1000
1030
0001
,
0000
0010
0100
0000
0000
1000
0100
1000
,
0000
0100
0000
0001
0000
0100
0000
1000
,
0100
0010
0001
0010
0000
0001
1000
0010
,
1000
0010
0100
0001
0000
1000
0001
1000
,
0100
0010
0001
0010
0100
0001
0100
1000
,
0100
1000
0001
1000
,
0020
0000
1000
0000
0001
0000
1000
1030
,
0000
0000
0000
0001
,
2000
0000
0000
3000
,
0000
0000
0000
0000
1000
0000
0010
1000
,
0000
0000
0000
0000
,
0000
0000
0000
0000
,
0001
1000
0100
0010
0001
0010
1000
0010
,
0000
0001
1000
0000
0010
0100
1000
0100
,
0010
1000
0010
0100
0001
0010
0001
0100
,
0010
1000
0100
0010
0001
0100
0001
0010
,
0100
1000
0010
0000
0100
0001
0010
0001
,
1000
0000
0000
0010
0000
0000
0000
0000
0000
0000
0000
0000
0000
1000
0000
0000
0000
0001
0000
0000
0000
1000
0000
0000
,
0000
0001
0010
0000
0001
0000
0010
0100
,
1000
0010
0100
0001
0100
0010
1000
0100
,
0010
0001
0010
0000
0001
1000
0100
1000
,
0010
0100
0001
0010
0100
0010
0001
0010
,
0000
0100
0000
1000
0000
0010
0000
0200
,
0000
0001
0000
1000
0000
0001
0000
0320
,
0000
1030
0001
0020
,
0000
0000
0030
0001
,
2000
0000
0000
0000
,
0000
0000
0000
0000
,
3000
0000
0000
0000
,
0000
0000
0020
1000
,
0100
1000
0230
0000
,
0001
1000
0301
0010
,
0100
1000
0010
1000
,
0001
0000
0000
0010
0000
0000
0001
0010
0001
0010
0100
1000
,
0100
0010
0001
1000
0010
1000
0010
0000
0000
1000
0000
0000
,
0001
0010
0200
0000
,
1300
0010
1000
0001
1000
0001
0010
0100
1000
0100
0000
0000
,
2000
0000
0000
0000
0000
0000
3001
1000
0001
1000
0010
0100
,
0001
0100
0010
0100
0001
0100
0020
0000
0000
0030
0000
0000
,
1000
0001
0020
0000
,
0001
1000
0001
0000
,
0000
0030
0002
1000
,
0100
1000
0103
0010
,
1000
0010
0100
0002
,
0000
0013
0000
0000
;

//---------------dance-single - ----------------
#NOTEDATA:;
#CHARTNAME:;
#STEPSTYPE:dance-single;
#DESCRIPTION:;
#CHARTSTYLE:;
#DIFFICULTY:Challenge;
#METER:6;
#RADARVALUES:0.319163,0.487233,0.007922,0.150527,0.190140,282.000000,281.000000,1.000000,19.000000,54.000000,0.000000,8.000000,0.000000,0.000000,0.319163,0.487233,0.007922,0.150527,0.190140,282.000000,281.000000,1.000000,19.000000,54.000000,0.000000,8.000000,0.000000,0.000000;
#CREDIT:;
#NOTES:
// measure 0
0000
0000
0000
0000
,  // measure 1
0000
0000
0000
0000
,  // measure 2
1000
1000
0020
0000
0000
0000
1030
0001
,  // measure 3
1000
0000
0001
0010
0000
0001
0100
0001
,  // measure 4
0100
0010
1000
0010
MMMM
1000
0001
0010
,  // measure 5
0100
1000
0010
0100
MMMM
0001
0100
0001
,  // measure 6
1000
0100
0010
0002
0000
0010
0013
0100
,  // measure 7
1000
0010
1000
0010
0000
1000
0001
0100
,  // measure 8
0010
1000
0010
0100
0001
0010
0001
0100
,  // measure 9
0001
1000
0010
1000
MMMM
0001
0010
0100
,  // measure 10
1000
0010
1000
0001
MMMM
0100
0001
0010
,  // measure 11
0001
0002
0100
0100
,  // measure 12
0203
0010
0320
1030
,  // measure 13
1000
0001
1000
0010
0100
0001
0010
0001
,  // measure 14
1000
0100
0010
0001
0000
1000
0001
1000
,  // measure 15
0010
1000
0010
0100
0000
0010
1000
0000
,  // measure 16
2000
0000
0000
0000
3001
0000
0001
0010
,  // measure 17
0001
0100
0010
1000
0000
0001
0000
2000
,  // measure 18
0000
0000
3000
0000
,  // measure 19
0010
1000
0100
0010
0001
1000
0100
0001
,  // measure 20
0100
1000
0001
000M
0010
00M0
0100
0M00
,  // measure 21
1000
0010
1000
MMMM
0001
0010
0100
1000
,  // measure 22
0001
0100
0010
MMMM
1000
0001
1000
0010
,  // measure 23
0100
0001
0100
0000
0001
0010
0100
1000
,  // measure 24
0001
0000
0000
1000
0000
0000
0010
0000
0000
0000
0000
0000
0000
0100
0000
0000
0000
0001
0000
0000
0000
0010
0000
0000
,  // measure 25
0000
0001
0010
0001
1000
0001
0010
0100
,  // measure 26
1000
0010
1000
MMMM
0001
0100
0001
0010
,  // measure 27
0001
1000
0010
MMMM
1000
0100
0010
0001
,  // measure 28
1000
0020
0000
0100
0000
0100
0000
0230
,  // measure 29
0000
0001
0000
0302
0000
1000
0000
1003
,  // measure 30
0100
0010
0100
1000
0100
0010
0100
0020
,  // measure 31
0000
0000
0031
MMMM
1000
MMMM
2000
0000
,  // measure 32
0000
0000
0000
0000
3000
M000
0001
0000
,  // measure 33
0004
0000
0000
0000
,  // measure 34
0000
0000
0000
0000
0003
000M
0000
0000
,  // measure 35
0000
0000
0000
0000
,  // measure 36
0000
0000
4004
0003
,  // measure 37
0010
0000
0000
3010
0000
0000
0010
1000
0001
0010
0100
1000
,  // measure 38
0010
1000
0100
0010
0001
1000
0004
0000
0000
0010
0000
0000
,  // measure 39
0010
0000
0000
0013
0000
0000
0010
0001
1000
0010
0100
0001
,  // measure 40
0010
0001
0100
0010
1000
0010
0100
0001
0100
0001
0010
MMMM
,  // measure 41
0001
0010
0100
1000
0010
1000
0001
1000
0001
0040
0000
0100
,  // measure 42
0430
0000
1000
4300
0000
0000
3001
1000
0001
1000
0010
1000
,  // measure 43
MMMM
0001
0010
0001
1000
0100
0010
0100
1000
0100
0001
0100
,  // measure 44
2000
0000
0000
0100
0000
0000
3100
0000
0000
0001
0010
0001
,  // measure 45
1000
0001
1000
0010
1000
0100
1000
0000
0000
0002
0000
0000
,  // measure 46
0010
0013
0001
1000
,  // measure 47
0020
0100
0430
0000
,  // measure 48
0000
0300
0001
1000
,  // measure 49
0002
0010
0023
0100
,  // measure 50
0130
1000
2000
3002
,  // measure 51
0000
00M3
0000
0000
;

//---------------dance-single - ----------------
#NOTEDATA:;
#CHARTNAME:;
#STEPSTYPE:dance-single;
#DESCRIPTION:;
#CHARTSTYLE:;
#DIFFICULTY:Medium;
#METER:3;
#RADARVALUES:0.162977,0.203014,0.000000,0.110915,0.000000,144.000000,144.000000,0.000000,14.000000,0.000000,0.000000,0.000000,0.000000,0.000000,0.162977,0.203014,0.000000,0.110915,0.000000,144.000000,144.000000,0.000000,14.000000,0.000000,0.000000,0.000000,0.000000,0.000000;
#CREDIT:;
#NOTES:
0000
0000
0000
0000
,
0000
0000
0000
0000
,
0001
0000
0000
0000
0000
0000
1000
0100
,
0010
0000
0000
0001
0000
0001
0000
1000
,
0000
0020
0000
0000
0030
0000
0100
0000
,
0001
0010
0000
0100
,
1000
0000
0010
0000
0000
1000
0001
0010
,
0000
0000
0000
0000
0000
0001
0010
0001
,
0000
1000
0000
0100
0000
0010
0000
0001
,
0000
1000
0000
0000
0010
0000
1000
0000
,
0010
0000
0100
0001
,
0010
0001
1000
0100
,
0010
0001
0010
1000
,
0020
0000
0001
0000
0031
0000
1000
0001
,
0000
0000
0000
1000
,
2000
0000
0000
0000
,
3000
0000
0000
0000
0010
0000
1000
0001
,
0000
0000
0000
0000
,
0000
0000
0000
0000
,
0001
0000
0010
0000
0001
0100
0001
0100
,
0000
0010
1000
0010
,
0100
0000
0000
0000
0000
0001
0000
1000
,
0000
0010
0000
0000
0000
1000
0000
0001
,
0000
0001
0000
0000
1000
0100
0010
0000
,
0000
0000
0000
0000
0000
1000
0000
1000
,
0000
0001
0000
0010
0000
0100
0000
1000
,
0000
0010
0000
0000
0000
0100
0000
0001
,
0000
0010
0000
0000
0000
0100
0000
1000
,
0000
0001
0000
1000
0000
0100
0000
0010
,
0000
0001
0000
1000
0000
1000
0000
0020
,
0000
1000
0000
1000
0000
1000
0000
0130
,
0000
0100
0001
0020
,
0000
0030
0000
0001
,
2000
0000
0000
0000
,
0000
3000
0000
0000
,
0000
0000
0000
0000
,
0000
0000
1000
0010
,
1000
0001
0200
0000
,
0310
0000
0002
0010
,
0013
0001
1000
0100
,
0010
0001
2000
0000
,
0000
3000
0000
0010
,
1000
0010
0200
0000
,
0301
0000
0010
0001
,
2000
0001
3001
1000
,
0010
1000
0001
0010
,
0010
0010
0001
1000
,
0100
0001
0200
0000
,
0300
0000
1000
1000
,
0001
0001
0010
0001
,
1000
0100
2000
3002
,
0000
0013
0000
0000
;

//---------------dance-single - ----------------
#NOTEDATA:;
#CHARTNAME:;
#STEPSTYPE:dance-single;
#DESCRIPTION:;
#CHARTSTYLE:;
#DIFFICULTY:Easy;
#METER:1;
#RADARVALUES:0.116574,0.162411,0.007922,0.039612,0.000000,103.000000,102.000000,1.000000,5.000000,0.000000,0.000000,0.000000,0.000000,0.000000,0.116574,0.162411,0.007922,0.039612,0.000000,103.000000,102.000000,1.000000,5.000000,0.000000,0.000000,0.000000,0.000000,0.000000;
#CREDIT:TonyAkita;
#NOTES:
0000
0000
0000
0000
,
0000
0000
0000
0000
,
1000
0000
0000
0001
,
0001
0000
0000
0000
0000
0010
0000
0000
,
0000
0001
0000
0000
0000
0000
1000
0000
,
1000
0000
0000
0010
,
1000
0000
0000
0001
,
0100
0000
0010
0000
0000
0010
0000
1000
,
0000
0001
0000
1000
0000
0001
0000
0100
,
0000
0000
0000
0001
,
0001
0000
0000
1000
,
1000
0000
0100
0001
,
0010
0000
0001
0000
,
1000
0000
0010
0000
,
1000
0000
0000
0001
,
0002
0000
0000
0003
,
0000
0000
0010
0000
,
2000
0000
0000
0000
,
3000
0000
0000
0000
,
0000
0000
1000
0010
,
1000
0000
0001
0000
,
1000
0000
0000
0000
0000
0010
0000
0010
,
0000
0000
0000
0000
0000
1000
0000
0001
,
0000
0000
0000
0000
0000
0100
0000
0001
,
0000
0010
0000
0000
0000
0001
0000
0001
,
0000
0000
0000
1000
0000
0000
0000
1000
,
0000
0000
0000
0000
0000
0010
0000
0010
,
0000
0000
0000
0000
0000
1000
0000
1000
,
0000
0001
0000
0010
0000
0100
0000
1000
,
0000
0000
0000
0001
0000
0000
0000
1000
,
0000
0000
0000
0010
0000
0000
0000
0010
,
0000
1000
0100
0020
,
0000
0000
0030
0001
,
2000
0000
0000
0000
,
0000
0000
3000
0000
,
0000
0000
0000
0000
,
0000
0000
0000
0001
,
1000
0001
0010
0000
,
0010
0000
0000
0001
,
1000
0100
0010
0001
,
0010
0001
1000
0000
,
1000
0000
0001
0000
,
0010
0001
0100
0000
,
0020
0000
0030
0000
,
0001
0000
1000
0000
,
1000
0000
0000
0010
,
1000
0100
1000
0000
,
0001
0010
0100
0000
,
0000
0000
0010
0000
,
0001
0000
1000
0000
,
1000
0000
0010
0100
,
0000
1001
0000
0000
;
