#TITLE:Into The Light;
#SUBTITLE:(Piano cover by Hasit Nanda);
#ARTIST:SICK INDIVIDUALS & DBSTF;
#TITLETRANSLIT:;
#SUBTITLETRANSLIT:;
#ARTISTTRANSLIT:;
#GENRE:;
#CREDIT:;
#BANNER:;
#BACKGROUND:;
#LYRICSPATH:;
#CDTITLE:cdtitle.png;
#MUSIC:Into The Light (Piano cover by Hasit Nanda).mp3;
#OFFSET:-0.320000;
#SAMPLESTART:34.880135;
#SAMPLELENGTH:14.960001;
#SELECTABLE:YES;
#BPMS:0.000000=124.999992
;
#STOPS:151.500000=0.500000
;
#BGCHANGES:;
#KEYSOUNDS:;
#ATTACKS:;

//---------------dance-single - ----------------
#NOTES:
     dance-single:
     :
     Challenge:
     10:
     0.609374,0.755163,0.416642,0.436482,0.357122,430.000000,388.000000,42.000000,44.000000,6.000000,0.000000,0.609374,0.755163,0.416642,0.436482,0.357122,430.000000,388.000000,42.000000,44.000000,6.000000,0.000000:
// measure 0
0000
0000
0000
0000
,  // measure 1
0000
0000
0000
0000
,  // measure 2
1000
0001
0001
0100
0010
0100
0001
0000
,  // measure 3
0001
0100
0001
0010
0000
0001
1000
1000
,  // measure 4
0001
0010
0100
0010
0001
0001
1000
0000
,  // measure 5
0010
0000
0000
0000
0001
0000
0000
0000
0010
0000
0000
0000
1000
0000
0000
0001
1000
0000
0000
0000
0000
0000
0000
0000
0100
0000
0000
0000
0000
0000
0000
0000
,  // measure 6
1000
0001
0100
0010
0010
1000
1000
0100
,  // measure 7
0001
0100
1000
0001
0010
0000
0100
0000
,  // measure 8
1002
0103
0010
1000
0001
0100
0010
0100
,  // measure 9
2001
0000
0000
0000
3100
0000
0000
0000
0010
0000
0000
0000
0001
0000
0000
1000
0001
0000
0000
0000
0100
0000
0000
0000
0010
0000
0000
0000
1000
0000
0000
0000
,  // measure 10
2100
3001
0001
1000
1000
0100
0200
0300
,  // measure 11
1002
0000
0000
0000
0103
0000
0000
0000
0010
0000
0000
1000
0002
0000
0000
0000
0003
0000
0000
0000
0100
0000
0000
0000
0100
0000
0000
0000
0100
0000
0000
0000
,  // measure 12
1020
0130
0001
0010
1000
0010
0100
1000
,  // measure 13
0012
0000
0000
0000
1003
0000
0000
0000
0010
0000
0000
0000
0100
0000
0000
0010
1000
0000
0000
0000
0100
0000
0000
0000
1000
0000
0000
0000
0010
0000
0000
0000
,  // measure 14
0210
0301
0100
1000
0100
0010
1000
0100
,  // measure 15
0120
0130
1000
1002
0000
0013
0010
0100
,  // measure 16
1200
1000
1000
1000
,  // measure 17
1300
1000
1000
1000
,  // measure 18
1020
0000
0000
0000
0130
0000
0000
0000
0002
0010
0000
0010
0003
0000
0001
0000
,  // measure 19
0201
1000
1300
0100
0001
0000
0010
0100
,  // measure 20
1200
0000
0000
0000
0310
0000
0000
0000
0002
0100
0000
0100
0003
0000
0001
0000
,  // measure 21
2001
0000
0100
0000
3100
0000
0001
0000
0100
0000
0000
1000
0001
0000
0100
0000
,  // measure 22
1002
0000
0000
0000
0013
0000
0000
0000
0002
1000
0000
1000
0003
0000
0001
0100
,  // measure 23
0020
0001
0031
0010
0100
0000
0001
0010
,  // measure 24
0120
0000
0000
0000
1030
0000
0000
0000
0020
0001
0000
0001
0030
0000
1000
0000
,  // measure 25
1020
0000
0100
0000
0130
0000
0010
0000
1000
0000
0000
0010
0100
0000
0001
0000
,  // measure 26
0101
0000
0100
0000
0101
0000
0001
0000
1000
0000
0100
1000
0000
0100
1000
0010
,  // measure 27
1000
0000
0001
0000
0100
0000
0001
0010
0100
0000
0010
0100
0000
1000
0100
1000
,  // measure 28
0001
1000
1010
1010
0101
0101
0110
0110
,  // measure 29
2002
3003
2020
3030
0202
0303
0022
0033
2200
0000
0000
0000
0000
0000
3300
0000
,  // measure 30
1001
0000
0100
0000
1000
0000
0010
0000
0100
0000
0010
1000
0000
0010
1000
0001
,  // measure 31
1000
0100
0010
0000
0100
0000
1000
0001
0000
1000
0001
0000
0010
0000
0100
0000
,  // measure 32
0001
0000
0100
0000
1000
0000
0010
0000
1000
0000
0100
0010
0000
0100
1000
0001
,  // measure 33
1000
0100
0010
0000
0100
M00M
0100
0001
1000
0100
0010
0000
0220
0000
0330
0000
,  // measure 34
1100
0000
0001
0000
0010
0000
1000
0000
0010
0000
0001
1000
0000
0001
1000
0100
,  // measure 35
1000
0010
0100
0000
0010
0000
1000
0100
0000
1000
0100
0000
0001
0000
0100
0000
,  // measure 36
0010
0000
0001
0000
0100
0000
0001
0000
0010
0000
0001
0100
0000
0001
1000
0001
,  // measure 37
0010
0100
1000
0000
0010
M00M
0010
0001
0100
0010
1000
0000
2002
0000
3003
0000
,  // measure 38
0110
0000
0110
0000
1001
0000
0010
0001
0000
0010
0001
1000
0001
0100
0010
0000
,  // measure 39
0100
0000
0001
1000
0000
0001
1000
0000
0010
0000
0100
0000
1000
0000
0100
0000
,  // measure 40
0001
0000
0010
0000
0001
0000
0100
0010
0000
0100
0001
1000
0001
0100
0010
0000
,  // measure 41
0100
M00M
0100
1000
0001
0100
0010
0000
0220
0000
0330
0000
0101
0000
1000
0000
,  // measure 42
0010
0000
0001
0000
0010
0000
1000
0001
0000
1000
0001
0100
0001
0010
0100
0000
,  // measure 43
0010
0000
0001
0100
0000
0001
0100
0000
1000
0000
0100
0000
0010
0000
1000
0000
,  // measure 44
0100
0000
1000
0000
0010
0000
1000
0100
0000
1000
0001
1000
0010
0000
0001
0000
,  // measure 45
1000
0000
0000
0000
0100
0000
0000
0000
0001
0000
0000
0000
0000
0000
0000
0000
1000
0000
0000
0000
0000
0000
0000
0001
1000
0000
0000
0000
0100
0000
0000
0000
,  // measure 46
0010
0100
1000
1000
0001
0000
0100
1000
,  // measure 47
0100
0000
0000
0000
0001
0000
0000
1000
0001
0000
0000
0000
0000
0000
0000
0000
0010
0000
0000
0000
0000
0000
0000
0000
0001
0000
0000
0000
1000
0000
0000
0000
,  // measure 48
0010
0100
0100
0001
0001
0010
1010
0010
,  // measure 49
0010
0220
0330
1000
1000
0001
0202
0000
,  // measure 50
0000
0000
0000
0303
;
