#TITLE:Girls (live);
#SUBTITLE:;
#ARTIST:Takagi Masakatsu;
#TITLETRANSLIT:;
#SUBTITLETRANSLIT:;
#ARTISTTRANSLIT:;
#GENRE:Ongaku;
#CREDIT:tikal. requiem;
#MUSIC:[Keyboardmania] - Girls (live).ogg;
#BANNER:[Keyboardmania] - Girls (live).png;
#BACKGROUND:[Keyboardmania] - Girls (live)-bg.png;
#CDTITLE:cdtitle.png;
#SAMPLESTART:46.187;
#SAMPLELENGTH:19.894;
#SELECTABLE:YES;
#OFFSET:0.718;
#BPMS:0.000=82.890
,8.000=86.779
,9.500=80.148
,10.000=86.078
,12.000=88.852
,14.000=87.849
,16.000=86.026
,18.000=85.360
,19.000=82.934
,20.000=86.875
,22.000=89.856
,23.000=91.135
,23.500=88.507
,24.000=92.134
,25.000=81.940
,26.000=89.754
,28.000=87.113
,29.000=90.400
,30.000=87.512
,31.000=84.491
,31.333=80.167
,31.667=72.899
,32.000=66.281
,33.000=67.730
,34.000=67.344
,35.000=127.098
,37.000=117.287
,38.000=138.245
,38.500=124.080
,39.500=130.654
,40.000=134.029
,44.000=121.488
,44.500=153.867
,46.000=132.485
,47.000=139.209
,48.500=119.848
,49.000=126.538
,49.750=148.819
,50.500=142.744
,52.000=135.741
,55.000=141.899
,56.000=139.439
,58.000=139.783
,61.000=139.361
,73.000=138.877
,79.000=144.128
,82.000=143.654
,84.500=143.617
,85.625=143.442
,86.500=139.882
,88.000=144.751
,91.000=144.375
,95.500=139.249
,96.500=146.637
,98.500=143.855
,108.500=146.449
,116.500=146.341
,118.000=142.947
,120.500=145.769
,122.500=147.059
,124.000=146.522
,127.000=146.000
,128.500=139.429
,130.000=146.193
,131.500=137.536
,133.000=131.276
,134.500=147.942
,136.000=140.228
,139.000=141.415
,145.000=141.756
,151.000=142.583
,154.000=143.781
,156.000=131.211
,157.000=139.687
,163.000=142.707
,175.000=135.083
,175.500=147.574
,176.000=142.754
,181.000=146.956
,187.000=146.414
,193.000=150.842
,197.000=140.438
,199.000=151.413
,202.000=147.785
,204.500=162.651
,205.000=161.466
,206.500=145.416
,208.000=147.363
,211.000=150.778
,214.000=150.000
,217.000=154.827
,220.000=153.013
,221.500=151.541
,223.000=153.143
,224.500=143.207
,226.000=158.168
,227.000=124.190
,227.500=138.129
,228.000=124.976
,228.500=104.034
,229.000=62.283
,231.000=68.171
,233.000=66.539
,234.000=71.742
,235.000=67.652
,236.000=69.887
,237.000=66.746
,238.000=72.730
,239.000=70.184
,240.000=66.322
,241.000=62.250
,242.000=55.220
,243.000=49.670
,244.000=50.000
;
#STOPS:;
#DISPLAYBPM:50.000:152.000;
#BGCHANGES:;
#FGCHANGES:;

//--------------- dance-single - tikal. requiem ----------------
#NOTES:
     dance-single:
     tikal. requiem:
     Hard:
     6:
     0,0,0,0,0:
0000
0000
0000
0000
,
0000
0000
0000
0000
,
1000
0000
0000
0100
0010
0000
0001
0000
,
1000
0000
0000
0100
0010
0000
0001
0000
,
1000
0000
0000
0010
0100
0000
0001
0000
,
1000
0000
0000
0010
0100
0000
0001
0000
,
1000
0000
0000
0100
0000
0100
0010
0000
0000
0001
0000
1000
,
0001
0000
0000
0100
0000
0100
0010
0000
0000
1000
0000
0001
,
1000
1000
1000
2002
,
0000
3003
0001
0010
0001
1000
0000
0100
,
1000
0010
1000
0001
0000
0100
0001
0100
,
0001
1000
0000
0010
1000
0000
0000
0100
,
0010
0100
1000
0000
0010
1000
0001
0100
,
0001
0000
0010
0001
1000
0100
1000
0000
,
0100
1000
0001
0010
0001
0000
0000
0100
,
0010
0000
2000
0000
3001
0010
0001
0000
,
2000
0000
3001
1000
0001
0000
2000
0000
,
3001
0100
0001
0000
1000
0010
0000
0100
,
0001
1000
0002
0000
1003
0100
1000
0000
,
0002
0000
1003
0001
1000
0000
0002
0000
,
1003
0010
1000
0000
0001
0100
0000
0010
,
1000
0001
0000
0000
1000
0001
0010
0100
,
1000
0000
0001
1000
0010
0100
0010
0000
,
1000
0001
0100
0010
1000
0000
0001
1000
,
0100
0010
0000
0000
0001
1000
0010
0100
,
0001
0000
1000
0001
0010
0100
0010
0000
,
0001
1000
0100
0010
0001
0000
1000
0001
,
0100
0010
0000
1000
0100
0010
0100
1000
,
0001
0000
0100
0010
0100
0001
0000
1000
,
0010
0100
0010
1000
0001
0000
0010
0100
,
0010
0001
0000
1000
0001
0100
0001
1000
,
0001
0000
1000
0100
1000
0001
0000
1000
,
0001
0010
0001
1000
0001
0100
0000
0010
,
1000
0000
0002
0000
0000
1000
0000
0000
,
1000
0000
0000
1003
0000
0000
0020
0000
,
0000
0100
0000
0000
0100
0000
0000
0130
,
0000
0000
2000
0000
0000
0001
0000
0000
,
0001
0000
0000
3001
0000
0000
0200
0000
,
0000
0310
0000
0000
0002
0000
0000
1003
,
0000
0000
0020
0000
0000
0100
0000
0000
,
0100
0000
0000
0130
0000
0000
2000
0000
,
0000
0100
0000
0000
3002
0000
0000
0203
,
0000
0000
0320
0000
0000
0001
0000
0000
,
0100
0000
0000
2030
0000
0000
3002
0000
,
0000
0023
0000
0000
0130
0010
0100
0010
,
0100
0010
0001
0000
1000
0001
0100
0010
,
1000
0000
0001
1000
0100
0010
0100
0000
,
1000
0001
0010
0100
1000
0000
0001
1000
,
0010
0100
0000
0000
0001
1000
0100
0010
,
0001
0010
0000
0100
1000
0000
0002
0000
,
0000
2003
0000
0000
3020
0000
0000
0130
,
0010
0100
0000
0001
0100
0010
0100
0001
,
1000
0000
0100
0010
0100
1000
0000
0001
,
0010
0100
0010
0001
1000
0000
0010
0100
,
0010
1000
0000
0001
1000
0100
1000
0001
,
1000
0000
0001
0100
0001
1000
0020
0000
,
0000
2030
0000
0000
3200
0000
0000
0320
,
0000
0000
0032
0000
0000
0003
1001
0000
,
2000
3200
0320
0032
,
2003
3020
2030
3002
,
0023
0230
0320
0032
,
2000
0000
0000
0000
0000
3003
0000
0000
;

//--------------- dance-single - tikal. requiem ----------------
#NOTES:
     dance-single:
     tikal. requiem:
     Challenge:
     8:
     0,0,0,0,0:
0000
0000
0000
0000
,
0000
0000
0000
0000
,
1000
0000
0000
0100
0010
0000
0001
0000
,
1000
0000
0000
0100
0010
0000
0001
0000
,
1000
0000
0000
0010
0100
0000
0001
0000
,
1000
0000
0000
0010
0100
0001
1000
0100
,
0010
0000
0010
0001
0010
0100
1000
0000
1000
0001
0100
0010
,
0100
0000
0100
0001
0100
0010
1000
0000
1000
0001
0010
0100
,
0100
0000
0000
0000
0000
0000
0000
0000
0000
0000
0000
0000
0000
0000
0000
0000
0000
0000
0000
0000
0000
0000
0000
0000
0000
0000
0000
0000
0000
0000
0000
0000
0000
0000
0000
0000
0000
0000
0000
0000
0000
0000
0000
0000
0000
0000
0000
0000
0100
0000
0000
0000
0000
0000
0000
0000
0000
0000
0000
0000
0000
0000
0000
0000
0000
0000
0000
0000
0000
0000
0000
0000
0000
0000
0000
0000
0000
0000
0000
0000
0000
0000
0000
0000
0000
0000
0000
0000
0000
0000
0000
0000
0000
0000
0000
0000
0100
0000
0000
0000
0000
0000
0000
0000
0000
0000
0000
0000
0000
0000
0000
0000
0000
0000
0000
0000
0000
0000
0000
0000
0000
0000
0000
0000
0000
0000
0000
0000
0000
0000
0000
0000
0000
0000
0000
0000
0000
0000
0000
0400
0000
0000
0000
0000
0040
0000
0000
0000
0000
0000
0000
0000
0000
0000
0000
0000
0000
0000
0000
0000
0000
0000
0000
0000
0000
0000
0000
0000
0000
0000
0000
0000
0000
0000
0000
0000
0000
0000
0000
0000
0000
0000
0000
0000
0000
0000
0000
0000
0000
0000
0000
0000
,
0000
0000
0000
0000
0000
0000
0000
0000
0300
0000
0000
0000
0031
0000
0000
0000
0000
0000
0100
0000
0000
0000
0000
0000
0001
0000
0000
0000
0000
0000
1000
0000
0000
0000
0000
0000
0000
0000
0000
1000
0000
0000
0100
0000
0000
0000
0000
0000
,
1000
0000
0010
0000
1000
0000
0001
0000
0000
0001
0010
0000
0001
0000
0010
0000
,
0001
0000
1000
0000
0000
1000
0010
0000
1000
0000
0010
0000
0100
0000
0001
0000
,
0010
0000
0100
0000
1000
0000
0000
1000
0001
0000
0100
0000
0001
0000
0010
0000
,
0001
0000
0000
0001
1000
0000
0010
0000
1000
0000
0100
0000
1000
0000
0000
1000
,
0001
0000
0010
0000
0001
0000
0100
0000
0010
0000
0000
1000
0001
1000
0001
0000
,
0010
0000
0100
0000
2000
0000
0000
3010
0100
0000
0001
0000
0100
0000
0001
0000
,
2000
0000
0000
3010
0100
0000
0001
0000
0010
0000
0001
0000
2000
0000
0000
3100
,
0010
0001
0100
0001
1000
0100
1000
1000
,
0001
0000
1000
0000
0002
0000
0000
0013
0100
0000
1000
0000
0100
0000
1000
0000
,
0002
0000
0000
0013
0100
0000
1000
0000
0010
0000
1000
0000
0002
0000
0000
0103
,
0010
1000
0100
1000
0001
0100
0001
0001
,
1000
0000
0000
0000
0000
0000
0000
0000
0000
0000
0000
0000
0001
0000
0000
0000
0000
0000
0000
0000
0000
0000
0000
0000
0000
0000
0000
0000
0000
0000
0000
0000
0000
0000
0000
0000
0000
0000
0000
1000
0000
0000
0000
0000
0000
0000
0100
0000
0000
0000
0000
0000
0000
1000
0000
0000
0000
0000
0000
0000
0001
0000
0000
0000
0000
0000
0000
0000
0000
0000
0000
0000
0010
0000
0000
0000
0000
0000
0000
0000
0000
0000
0000
0000
0100
0000
0000
0000
0000
0000
0000
0000
0000
0000
0000
0000
,
0100
0000
0000
1000
0010
1000
0001
0000
0100
0000
0010
0000
1000
0000
0000
0001
,
0010
0001
1000
0000
0010
0000
0100
0000
0002
0000
0000
0000
0013
0100
1000
0000
,
0010
0000
0100
0000
0000
0000
0000
0001
0100
0001
1000
0000
0010
0000
0100
0000
,
0100
0000
0000
0001
0010
0001
1000
0000
0100
0000
0010
0000
0001
0000
0000
1000
,
0010
1000
0001
0000
0010
0000
0100
0000
2000
0000
0000
0000
3010
0100
0001
0000
,
0010
0000
0100
0000
0000
0000
1000
0001
1000
0001
0100
0000
0010
0000
1000
0000
,
1000
0000
0001
1000
0001
1000
0010
0000
0100
0000
0001
0000
1000
0000
0001
1000
,
0001
1000
0100
0000
0010
0000
0001
0000
2000
0000
0000
3001
1000
0001
0010
0000
,
0100
0000
1000
0000
0000
0000
0001
1000
0001
1000
0100
0000
0010
0000
0001
0000
,
0001
0000
1000
0001
1000
0001
0010
0000
0100
0000
1000
0000
0001
0000
1000
0001
,
1000
0001
0100
0000
0010
0000
1000
0000
0001
0000
0010
0000
0001
0000
0001
0000
,
1000
0001
0200
0000
0000
0010
0000
0000
,
0010
0000
0000
0310
0000
0000
0002
0000
,
0000
1000
0000
0000
1000
0000
0000
1003
,
0000
0000
0020
0000
0000
0100
0000
0000
,
0100
0000
0000
0130
0000
0000
2000
0000
,
0000
0100
0000
0000
3002
0000
0000
0100
,
0000
0000
2003
0000
0000
0001
0000
0000
,
0001
0000
0000
3001
0000
0000
0002
0000
,
0000
1000
0000
0000
0203
0000
0000
0320
,
0000
0000
0230
0000
0000
1000
0000
0000
,
0010
0000
0000
0301
0000
0000
1000
0100
,
1000
0001
0100
0001
1000
0010
1000
0001
,
0010
0000
0001
0000
1000
0000
0000
0001
0010
0001
1000
0000
0100
0000
0010
0000
,
0010
0000
0000
0001
0100
0001
1000
0000
0010
0000
0100
0000
0001
0000
0000
1000
,
0100
1000
0001
0000
0100
0000
0010
0000
0010
0000
0000
1000
0010
1000
0100
0000
,
0010
0000
0001
0000
1000
0000
0000
0001
0010
0001
1000
0000
0100
0000
0010
0000
,
0001
1000
0001
0001
0100
0001
1000
0100
,
0100
0010
0100
0100
0010
0001
0001
1000
,
0001
0000
1000
0000
0000
0000
0001
1000
0001
1000
0010
0000
0100
0000
0001
0000
,
0001
0000
1000
0001
1000
0001
0100
0000
0010
0000
1000
0000
0001
0000
1000
0001
,
1000
0001
0010
0000
0100
0000
1000
0000
0002
0000
0000
1003
0001
1000
0100
0000
,
0010
0000
0001
0000
0000
0000
1000
0001
1000
0001
0010
0000
0100
0000
1000
0000
,
1000
0000
0001
1000
0001
1000
0100
0000
0010
0000
0001
0000
1000
0000
0001
1000
,
0001
1000
0010
0000
0100
0000
0001
0000
1000
0000
0100
1000
0001
0000
0100
0000
,
0010
0100
0200
0000
0000
0300
0110
0000
,
2000
3200
0320
0032
,
2003
3020
2030
3002
,
0023
0230
0320
0032
,
2000
0000
0000
0000
0000
3003
0000
0000
;
