#TITLE:GEOMETRIA;
#SUBTITLE:;
#ARTIST:Shiron;
#TITLETRANSLIT:;
#SUBTITLETRANSLIT:;
#ARTISTTRANSLIT:;
#GENRE:;
#CREDIT:BadWolf;
#BANNER:[Keyboardmania] - GEOMETRIA.png;
#BACKGROUND:[Keyboardmania] - GEOMETRIA-bg.png;
#LYRICSPATH:;
#CDTITLE:cdtitle.png;
#MUSIC:[Keyboardmania] - GEOMETRIA.ogg;
#OFFSET:-0.380000;
#SAMPLESTART:37.948406;
#SAMPLELENGTH:11.230000;
#SELECTABLE:YES;
#BPMS:0.000000=256.000000
;
#STOPS:
;
#BGCHANGES:;
#KEYSOUNDS:;
#ATTACKS:;

//---------------dance-single - ----------------
#NOTES:
     dance-single:
     :
     Challenge:
     12:
     1.086072,1.390071,0.558758,0.118525,0.414836,898.000000,832.000000,66.000000,14.000000,0.000000,0.000000,1.086072,1.390071,0.558758,0.118525,0.414836,898.000000,832.000000,66.000000,14.000000,0.000000,0.000000:
0000
0000
0000
0000
,
0000
0000
0000
0000
,
0000
0000
0000
0000
,
0000
0000
0000
0000
,
0000
0000
0000
0000
,
1000
0100
0010
0001
0010
0100
1000
0001
,
0000
1000
0010
0100
0010
1000
0001
0010
,
0100
1000
0010
1000
0001
1000
0001
1000
,
0001
0010
1000
0001
0100
1000
0001
0010
,
1000
0001
0100
1000
0001
0010
0100
1000
,
0001
0000
0000
0010
0000
0000
0100
0000
0000
1000
0000
0000
0001
0000
0100
0000
0001
0000
1000
0000
0010
0000
1000
0000
,
0001
0000
0000
0000
1001
0000
0000
0000
1000
0001
1000
0001
1000
0001
1000
0001
,
1000
0010
0100
0010
1000
0010
0100
0010
,
1000
0000
0000
1100
0000
0000
0101
0000
,
0001
0010
0100
0010
0001
0010
0100
0010
,
0001
0000
0000
0101
0000
0000
1100
0000
,
1000
0100
0010
0100
1000
0100
0001
0100
,
1000
0000
0010
0100
0000
0100
0001
0000
,
1000
0010
0001
0010
1000
0010
0100
0010
,
1000
0100
0000
0010
0000
0001
1000
0001
,
1000
0001
1000
0001
1000
0000
0100
0000
0010
0000
0100
0000
1000
0000
0100
0000
,
0000
1010
0000
0011
0000
0001
1000
0001
,
1000
0010
0001
0010
1000
0010
0100
0010
,
1000
0001
1000
0001
1000
0000
0001
0000
0000
0000
1001
0000
0000
0000
0000
0000
,
1000
0100
0000
0100
0010
0000
0010
0001
,
0000
0001
1000
0000
2002
0000
3003
0110
,
0000
1000
0010
0100
0001
0100
0010
1000
,
0001
0010
0100
1000
0100
0010
0001
1000
0001
0000
0000
0000
,
1000
0000
0100
0000
0010
0000
0001
1000
0001
0000
0010
0000
0100
0000
1000
0000
,
0001
0000
0010
0000
0100
0000
1000
0010
1000
0010
1000
0000
0001
1000
0001
0000
,
1000
0000
0100
0000
0010
0001
0010
0000
0001
0000
0100
0000
0010
0000
1000
0000
,
0001
0000
1001
0000
1001
1001
0000
1001
,
0000
0000
1000
0000
0100
0000
0010
0001
0010
0001
0010
0000
0001
0100
0001
0000
,
1000
0010
1000
0000
0001
0000
1000
0100
1000
0100
1000
0100
1000
0100
1000
0100
,
1000
0000
0000
0010
0000
0000
0100
0000
0000
0001
0000
0000
0100
0000
0000
0010
0000
0000
1000
0000
0100
0000
1000
0000
,
0001
0000
0000
0000
0010
0000
0000
0000
0001
0000
0000
0000
1000
0000
0000
0000
0100
0000
0000
0000
0010
0000
0000
0000
0001
0000
0000
0000
0000
0000
1000
0000
0000
0000
0000
0000
0000
0000
0000
0000
0000
0000
0001
0000
0000
1000
0000
0000
,
0001
1000
0001
0100
0010
1000
0010
0100
,
0001
1000
0001
0001
1000
0001
0000
0100
,
0010
0010
0100
0010
0100
0001
1000
1000
,
0001
0000
1000
0000
0001
1000
0001
1000
0001
1000
0001
1000
0001
1000
0001
1000
,
0001
0010
0100
0010
0001
0000
1000
0000
,
1010
1010
0001
0011
,
0011
1000
1100
1100
,
0001
0100
0010
1000
0010
0100
0001
0010
,
0100
1000
0100
0010
0001
1000
0010
0100
,
0001
0100
0001
1000
0100
0010
0001
0010
,
0001
0100
1000
0100
0001
0000
1000
0100
,
0001
0100
1000
0001
1000
0100
0010
0001
,
0010
0100
1000
0000
1010
0000
0101
0000
,
0001
0010
1000
0010
0001
0000
1000
0010
,
0001
0010
1000
0000
0001
0100
0010
1000
,
0010
0000
0100
0000
0001
1000
0001
1000
0002
0000
0000
0000
0003
0000
0000
0000
,
1000
0100
0010
0100
1000
0000
0001
0000
,
0101
0101
1000
1100
,
1100
0001
0011
0011
,
1000
0010
0100
0001
0100
0010
1000
0100
,
0010
0001
0010
0100
1000
0001
0100
0010
,
1000
0010
1000
0000
1100
0000
0011
0000
,
0001
0100
1000
0100
0001
0000
1000
0100
,
0001
0100
1000
0000
0001
0010
0100
1000
,
0100
0010
0001
0000
0101
0000
1010
0000
,
1000
0100
0001
0100
1000
0000
0001
0100
,
1000
0100
0001
0000
1000
0010
0100
0001
,
0100
0000
0010
0000
1000
0001
1000
0001
2000
0000
0000
0000
3000
0000
0000
0000
,
0001
0010
0100
1000
0000
1000
0100
0010
,
0001
0000
1000
0000
0010
0000
0100
0000
0001
0000
1000
0001
1000
0001
1000
0001
,
1000
0100
0010
0001
1000
0010
0100
0001
,
1000
0001
1000
0000
0100
0000
0010
0000
0001
1000
0001
0000
1000
0001
1000
0000
,
0001
0100
1000
0001
0010
1000
0001
0010
,
0100
0000
1000
0000
0001
1000
0001
0000
0100
0000
0010
0000
1000
0000
0010
0000
,
1000
0001
1000
0001
1000
0000
0100
0000
0010
0000
0001
0000
1000
0000
0001
0000
,
0010
0100
1000
0010
0100
0001
0100
0010
,
1000
0000
0100
0000
1000
0001
1000
0000
0001
1000
0001
0000
0010
0000
0100
0000
,
1000
0010
0100
0000
0001
1000
0000
0000
,
1000
0001
1000
0100
0010
0001
1000
0000
,
0001
0100
0001
0100
0010
1000
0010
1000
,
0001
0100
1000
0001
0010
1000
0001
0100
,
1000
0001
0010
1000
0000
1001
0000
0110
,
0000
0000
1000
0000
0001
0000
1000
0100
,
0010
0100
1000
0000
0001
0000
0100
0001
,
0100
0001
0010
0100
1000
0000
0001
0100
,
0001
0100
0010
0000
1000
0100
0010
0001
,
1000
0100
0001
0100
1000
0000
1001
0000
,
0002
0000
0000
0000
2003
0000
0000
0000
3001
1000
0001
1000
0001
1000
0001
1000
,
0001
0000
0000
0000
0000
0000
0000
0000
0000
0000
0000
0000
1000
0000
0000
0001
0000
0000
1000
0000
0000
0001
0000
0000
1000
0000
0000
0000
0100
0000
0000
0000
0010
0000
0000
0000
0001
0000
0000
0000
0010
0000
0000
0000
0100
0000
0000
0000
,
1000
0000
0000
0001
0000
0000
1000
0000
0000
0001
0000
0000
1000
0000
0000
0000
0010
0000
0000
0000
1000
0000
0000
0000
0001
0000
0000
0000
0100
0000
0000
0000
0001
0000
0000
0000
1000
0000
0000
0000
0100
0000
0000
0000
1000
0000
0000
0000
,
0001
0010
0001
2000
0000
0000
3002
0000
0000
0203
0000
0000
,
0301
0010
0100
1000
0100
0010
0001
0100
,
0010
0000
1000
0000
0010
0000
0100
0000
0001
1000
0001
1000
0001
0000
0010
0000
,
0100
1000
1001
0000
0000
0000
0000
0000
,
0001
0011
0000
1000
1010
0000
0001
0101
,
0000
1000
1100
0000
2002
0000
0000
3003
,
0001
0010
0100
0010
0001
0000
1000
0000
,
1010
1010
0001
0011
,
0011
1000
1100
1100
,
0001
0100
0010
1000
0010
0100
0001
1000
,
0100
0010
0001
1000
0001
0010
0100
1000
,
0100
0000
0000
0010
0000
0000
0001
0000
0100
0000
0001
0000
1000
0000
0010
0000
1000
0000
0001
0000
0100
0000
0010
0000
,
1000
0100
0001
0100
1000
0000
0001
0100
,
1000
0100
0001
0000
1000
0010
0001
0010
,
1000
0000
0000
0001
1000
0001
1000
0001
1000
0001
0000
0000
,
1000
0100
0010
0100
1000
0000
0001
0100
,
0010
0100
0001
0000
1000
0100
0010
0001
,
0010
0000
0100
0000
1000
0001
1000
0001
2000
0000
0000
0000
3000
0000
0000
0000
,
0001
0100
1000
0001
0010
1000
0001
0010
,
0100
1000
0001
0101
0000
0110
0000
1010
,
1000
0000
0001
0010
1000
0001
0100
1000
,
0001
0100
0010
0100
0001
1000
0001
1000
,
0001
0010
0100
0001
0100
1000
0001
1000
,
0000
0001
1000
0010
1000
0001
0010
0100
,
1000
0000
0000
0000
0001
0000
1000
0000
0001
1000
0001
1000
0001
1000
0001
1000
,
0001
0000
1000
1010
0000
0010
0110
0000
,
0100
0101
0000
0001
0011
0000
0010
0110
,
0000
0100
1100
0000
1000
1001
0000
0001
,
0101
0000
0100
1100
0000
1000
1010
0000
,
0010
0011
0000
0001
0101
0000
0100
1100
,
0000
1000
1010
0000
0001
0011
0000
1000
,
0001
0100
1000
0001
0010
1000
0001
0010
,
1000
0001
0100
1000
0000
0000
0000
2002
,
0000
0000
0000
0000
,
0000
0000
0000
0000
,
0000
0000
0000
0000
0000
3003
0000
0000
;

//---------------dance-single - ----------------
#NOTES:
     dance-single:
     :
     Hard:
     10:
     0.887725,0.926714,0.465632,0.177787,0.000000,734.000000,679.000000,55.000000,21.000000,0.000000,0.000000,0.887725,0.926714,0.465632,0.177787,0.000000,734.000000,679.000000,55.000000,21.000000,0.000000,0.000000:
0000
0000
0000
0000
,
0000
0000
0000
0000
,
0000
0000
0000
0000
,
0000
0000
0000
0000
,
0000
0000
0000
0000
,
1000
0010
1000
0010
0100
0010
0100
0001
,
0000
1000
0001
0010
0001
0010
0100
0010
,
0100
1000
0001
1000
0001
1000
0001
1000
,
0001
0100
0001
1000
0010
1000
0001
0010
,
0001
1000
0100
1000
0001
0010
0100
1000
,
0100
0010
0001
1000
0002
0000
0000
0000
,
0003
0000
1001
0000
1000
0100
0010
0001
,
1000
0001
1000
0001
1000
0001
1000
0001
,
1000
0000
0000
1010
0000
0000
0101
0000
,
0001
1000
0001
1000
0001
1000
0001
1000
,
0001
0000
0000
0011
0000
0000
1100
0000
,
1000
0100
0010
0100
0010
0100
0010
0100
,
1000
0000
0000
1010
0000
0000
0101
0000
,
0001
0010
0100
0010
0100
0010
0100
0010
,
0001
1000
0000
1001
0000
0001
1000
0001
,
1000
0100
0010
0001
0010
0001
0010
0001
,
0000
1000
0000
1001
0000
0001
1000
0001
,
1000
0010
0100
0010
0100
0010
0100
0010
,
1000
0100
0010
0001
0000
1001
0000
0000
,
1000
0010
0000
0010
0100
0000
0100
0001
,
0000
0001
1000
0000
2002
0000
3003
0110
,
0000
0001
0010
0100
0010
0001
1000
0001
,
1000
0100
0010
0001
1000
0000
0000
0000
,
0001
0100
0001
0100
0010
1000
0010
1000
,
0001
0100
0010
1000
0010
0100
0001
1000
,
0001
0010
0100
1000
0100
0010
0001
1000
,
0001
0000
1001
0000
1001
1001
0000
1001
,
0000
1000
0001
0100
0010
1000
0010
0100
,
0001
1000
0001
1000
0001
0010
0100
1000
,
0000
0001
0010
0100
0010
0001
1000
0010
,
1000
0001
0100
0001
1000
0001
0000
1000
,
0100
0010
0100
1000
0001
0100
0001
0100
,
0010
1000
0010
1000
0010
1000
0000
0100
,
0010
0100
0010
0100
0010
0001
1000
0001
,
1000
0001
1000
0100
0010
0001
0010
0100
,
1000
0000
0001
1000
0001
0000
0100
0000
,
0110
0110
0001
0010
,
0100
1000
0100
0010
,
0001
0100
0001
0100
0001
0100
0010
1000
,
0010
1000
0010
1000
0100
0010
0100
0010
,
0100
0010
0001
0000
1001
0000
1001
0000
,
1000
0100
0010
0100
1000
0000
0001
0010
,
0100
0010
0001
0000
1000
0100
0010
0100
,
1000
1001
0110
1001
,
0001
0100
0010
0100
0001
0000
1000
0010
,
0100
0010
1000
0000
0001
0010
0100
1000
,
0100
0010
0002
0000
2003
0000
3000
0000
,
0001
0000
1000
0001
1000
0000
0010
0000
,
0110
0110
1000
0100
,
0010
0001
0010
0100
,
1000
0010
1000
0010
1000
0010
0100
0001
,
0100
0001
0100
0001
0010
0100
0010
0100
,
0010
0100
1000
0000
1001
0000
1001
0000
,
0001
0010
0100
0010
0001
0000
1000
0100
,
0010
0100
1000
0000
0001
0010
0100
0010
,
0001
1001
0110
1001
,
1000
0010
0100
0010
1000
0000
0001
0100
,
0010
0100
0001
0000
1000
0100
0010
0001
,
0010
0100
2000
0000
3002
0000
0003
0000
,
1000
0100
0010
0001
0000
1000
0001
0010
,
0100
1000
0000
0001
0100
0001
0100
0001
,
1000
0000
1000
0100
0000
0100
0010
0000
,
0010
0001
1000
0001
1000
0001
1000
0001
,
0010
0100
1000
0000
0001
1000
0100
0010
,
0001
1000
0001
1000
0001
1000
0001
1000
,
0001
0010
0100
1000
0100
0010
0001
0100
,
0001
0100
0000
0010
1000
0010
1000
0001
,
1000
0001
0000
1000
0010
0100
0001
0100
,
0010
1000
0001
0000
1000
0001
0000
0000
,
1000
0001
1000
0001
0010
0100
0000
0000
,
0000
0000
0000
0000
,
1000
0010
1000
0001
0100
0001
1000
0100
,
1000
0001
0100
0001
0000
1001
0000
1001
,
0000
1000
0100
0010
,
0001
0010
0100
1000
,
0001
0100
0010
1000
,
0010
0100
0001
1000
,
0001
1000
0001
1000
0001
0000
0110
0000
,
2000
0000
3002
0000
1003
0100
0010
0001
,
1000
0000
0001
0010
0100
1000
0001
0000
,
1000
0100
0010
0001
1000
0000
0001
0010
,
0100
1000
0002
0000
2003
0000
3002
0000
,
1003
0000
0010
0100
0010
0100
0010
0000
,
1000
0001
1000
0001
1000
0000
0001
0010
,
0100
1000
0001
0000
0000
0000
0000
0000
,
1000
0010
0000
0010
0100
0000
0100
0001
,
0000
0001
1000
0000
1001
0000
0000
0000
,
0001
0000
1000
0001
1000
0000
0010
0000
,
0110
0110
1000
0100
,
0010
0001
0010
0100
,
1000
0010
1000
0010
1000
0010
0100
0001
,
0100
0001
0100
0001
0010
0100
0010
0100
,
0010
0100
2000
0000
3020
0000
0230
0000
,
0301
0010
0100
0010
0001
0000
1000
0100
,
0010
0100
1000
0000
0001
0010
0100
0010
,
0001
2002
0000
3003
,
1000
0010
0100
0010
1000
0000
0001
0100
,
0010
0100
0001
0000
1000
0100
0010
0001
,
0010
0100
2000
0000
3002
0000
0003
0000
,
1000
0010
1000
0001
0100
0001
1000
0100
,
0010
0001
1000
0001
0000
1001
0000
1001
,
0000
0000
0001
0010
0001
1000
0100
1000
,
0001
0100
0010
1000
0010
0100
0001
0100
,
0001
0010
0001
1000
0100
1000
0001
1000
,
0000
0001
0010
0100
0010
0001
1000
0100
,
0010
0000
0001
1000
0001
1000
0001
1000
,
0001
0000
0000
0110
0000
0000
1010
0000
,
0000
0011
0000
0000
0101
0000
0000
1100
,
0000
0000
1001
0000
0000
0110
0000
0000
,
0011
0000
0000
1010
0000
0000
1100
0000
,
0000
0101
0000
0000
1001
0000
0000
0110
,
0000
0000
1001
0000
0000
0110
0000
0000
,
1000
0100
0010
0001
0010
0100
1000
0010
,
0100
0001
0100
0010
0000
0000
0000
2002
,
0000
0000
0000
0000
,
0000
0000
0000
0000
,
0000
0000
0000
0000
0000
3003
0000
0000
;

//---------------dance-single - ----------------
#NOTES:
     dance-single:
     :
     Medium:
     8:
     0.564806,0.720777,0.440234,0.237049,0.000000,467.000000,415.000000,52.000000,28.000000,0.000000,0.000000,0.564806,0.720777,0.440234,0.237049,0.000000,467.000000,415.000000,52.000000,28.000000,0.000000,0.000000:
0000
0000
0000
0000
,
0000
0000
0000
0000
,
0000
0000
0000
0000
,
0000
0000
0000
0000
,
0000
0000
0000
0000
,
1000
0000
0000
0001
0000
0000
0000
1000
,
0000
0001
1000
0000
0100
0000
0010
0000
,
0001
0010
0200
0300
,
1000
0000
0000
1001
0000
0000
0110
0000
,
0000
1001
0000
0000
0001
0000
0010
0000
,
0100
1000
0001
1000
,
0001
1001
0000
0000
,
1000
0001
0001
0001
,
1000
0000
0000
1001
0000
0000
0110
0000
,
0001
1000
1000
1000
,
0001
0000
0000
1001
0000
0000
0110
0000
,
1000
0100
0100
0100
,
0010
0000
0000
1001
0000
0000
0110
0000
,
0001
0010
0010
0010
,
0000
0100
0000
1000
0000
0001
1000
0001
,
0000
1000
1000
1000
,
0000
0001
0000
1000
0000
0001
1000
0001
,
1000
0010
0010
0010
,
0000
1000
0001
1000
0000
1001
0000
0000
,
0001
0010
0000
0010
0100
0000
0100
1000
,
0000
1000
0001
0000
1001
0000
0000
0110
,
0000
0000
0000
0000
,
2000
0002
3003
0000
,
1000
0000
0100
0000
0010
0000
0001
1000
,
0000
0001
1000
0000
0001
1000
0001
0000
,
0100
0010
0000
0100
0010
0100
0000
0001
,
1000
0000
0001
0000
1000
0001
0000
1001
,
0000
1000
0100
0010
,
0001
0010
0100
1000
,
0001
0000
1000
0000
0001
0000
1000
0001
,
0000
0100
0010
0000
0010
0100
0000
0000
,
0100
0001
0000
0001
1000
0000
0100
0000
,
0010
0010
0010
0100
,
0100
0100
1000
1000
,
1000
0002
2003
3000
,
0001
0000
1000
0001
1000
0000
0010
0000
,
0100
0010
1000
0100
,
0010
0001
0010
0100
,
1000
0010
1000
0001
,
0010
0001
1000
0100
,
1000
0001
1000
1001
,
0001
0010
0100
1000
,
0100
0010
0001
1000
,
0001
1001
0110
1001
,
1000
0010
0100
0001
,
0100
0010
1000
0001
,
1000
2002
3003
0000
,
1000
0000
0001
1000
0001
0000
0100
0000
,
0010
0100
0001
0010
,
0100
1000
0100
0010
,
0001
0100
0001
1000
,
0100
1000
0001
0010
,
0001
1000
0001
1001
,
1000
0100
0010
0001
,
0010
0100
1000
0001
,
1000
1001
0110
1001
,
0001
0100
0010
1000
,
0010
0100
0001
1000
,
0001
2002
3003
0000
,
0001
0000
1000
0010
0000
0010
0100
0000
,
0100
0001
0000
0001
1000
0000
0001
0000
,
1001
0000
0000
0110
0000
0000
1001
0000
,
0000
0110
0000
0000
0001
0000
1000
0000
,
0001
0010
0100
1000
,
0100
0010
0001
1000
,
0001
0100
0010
1000
,
0001
0010
0100
1000
,
0010
0100
0001
1000
,
0100
0000
0010
0000
0001
1000
0000
0000
,
0000
1000
0001
0000
0010
0000
0100
0000
,
1000
0000
0000
0000
,
1001
0000
0000
0110
0000
0000
1001
0000
,
0000
0110
0000
1001
0000
1001
0000
1001
,
0000
0000
0000
0000
,
0000
0000
0000
0000
,
0000
0000
0000
0000
,
0000
0000
0000
0000
,
0001
1000
0001
1000
0001
0000
1001
0000
,
2000
3002
1003
0100
,
0010
0001
0100
0010
,
1000
0100
0010
0001
,
0100
0010
1000
0001
,
2002
0000
0000
3003
0000
0000
0220
0000
,
0000
0330
0000
0000
2002
0000
0000
3003
,
0000
1001
0000
0000
,
1000
0100
0000
0100
0010
0000
0010
0001
,
0000
0001
1000
0000
1001
0000
0000
0000
,
0001
0000
1000
0001
1000
0000
0010
0000
,
0100
0010
1000
0100
,
0010
0001
0010
0100
,
1000
0010
1000
0001
,
0010
0001
1000
0100
,
1000
0002
0203
0320
,
1030
0100
0010
0001
,
0010
0100
1000
0001
,
1000
2002
0000
3003
,
0001
0100
0010
1000
,
0010
0100
0001
1000
,
0001
2002
3003
0000
,
1000
0000
1000
0100
0000
0100
0010
0000
,
0000
0000
0001
1000
0000
0001
0000
1000
,
0000
0000
0001
0000
0001
0010
0000
0010
,
0100
0000
0000
0000
0000
1000
0001
1000
,
0001
0000
0001
0100
0000
0000
0000
0010
,
0000
1000
0001
0000
0010
0000
0100
0000
,
1000
0001
2000
3002
,
1003
0000
0000
1010
0000
0000
0001
0000
,
0000
0011
0000
0000
1000
0000
0000
1100
,
0000
0000
0001
0000
0000
0101
0000
0000
,
1000
0000
0000
1001
0000
0000
0010
0000
,
0000
0110
0000
0000
1000
0000
0000
1001
,
0000
0000
0100
0000
0000
0110
0000
0000
,
1000
0000
1000
0010
0000
0010
0100
0001
,
0100
0001
0100
0001
0000
0000
0000
2002
,
0000
0000
0000
0000
,
0000
0000
0000
0000
,
0000
0000
0000
0000
0000
3003
0000
0000
;

//---------------dance-single - ----------------
#NOTES:
     dance-single:
     :
     Easy:
     6:
     0.440234,0.514841,0.093126,0.126991,0.000000,364.000000,353.000000,11.000000,15.000000,0.000000,0.000000,0.440234,0.514841,0.093126,0.126991,0.000000,364.000000,353.000000,11.000000,15.000000,0.000000,0.000000:
0000
0000
0000
0000
,
0000
0000
0000
0000
,
0000
0000
0000
0000
,
0000
0000
0000
0000
,
0000
0000
0000
0000
,
1000
0000
0000
0001
0000
0000
0000
1000
,
0000
0001
0010
0100
,
1000
0002
0000
0003
,
1000
0000
0000
0010
0000
0000
0100
0000
,
0000
0001
0000
0000
2002
0000
0000
0000
,
0000
0000
3003
0000
,
1000
0001
0200
0000
,
0301
0010
0010
0010
,
0001
0000
0000
1000
0000
0000
0001
0000
,
1000
0010
0010
0010
,
1000
0000
0000
0001
0000
0000
1000
0000
,
0001
0100
0100
0100
,
0001
0000
0000
1000
0000
0000
0001
0000
,
1000
0100
0100
0100
,
0000
1000
0000
0001
0000
1000
0000
0000
,
0000
0001
0001
0001
,
0000
1000
0000
0001
0000
1000
0000
0000
,
0001
0100
0100
0100
,
0001
0000
1000
0000
0000
0001
0000
0000
,
0000
1000
0000
0000
0100
0000
0000
0010
,
0000
0000
0001
0000
1000
0000
0000
0001
,
0000
0000
0000
0000
,
2002
0000
3003
0000
,
1000
0010
1000
0010
,
0100
0001
0100
0001
,
1000
0001
1000
0001
,
1000
0000
0010
0000
0100
0000
0000
0010
,
0000
1000
0100
0010
,
0001
0010
0100
1000
,
0001
0100
0001
0100
,
0000
0001
0000
0000
1000
0000
0000
0000
,
0001
1000
0001
1000
,
0001
0100
0001
1000
,
0010
1000
0001
0100
,
0001
1000
0100
0010
,
0001
1000
0001
0100
,
0010
0100
0001
1000
,
0001
0010
0100
0010
,
0001
0001
0001
1000
,
1000
1000
0010
0010
,
0010
0100
0100
0100
,
0001
0010
0100
1000
,
0100
0010
0001
0010
,
0100
1000
0001
1000
,
0001
0100
0010
1000
,
0010
0100
0001
0100
,
0010
2000
0000
3000
,
0001
1000
0001
0010
,
0100
0010
0001
1000
,
0001
0100
0010
0100
,
0001
0001
0001
1000
,
1000
1000
0100
0100
,
0100
0010
0010
0010
,
0001
0100
0010
1000
,
0010
0100
0001
0100
,
0010
1000
0001
1000
,
0001
0010
0100
1000
,
0100
0010
0001
0010
,
0100
2000
0000
3000
,
0001
0000
0000
0100
0000
0000
0001
0000
,
0000
0100
0000
0000
0010
0000
0000
0000
,
1000
0000
0000
0100
0000
0000
0010
0000
,
0000
0001
0000
0000
1000
0000
0001
0000
,
1000
0010
1000
0010
,
0100
0001
0100
0001
,
1000
0100
0010
0001
,
0100
0010
0100
0010
,
1000
0001
1000
0001
,
1000
0000
0001
0000
,
0000
1000
0000
0001
0000
1000
0000
0000
,
0000
0000
0000
0000
,
0001
0000
0000
0010
0000
0000
0100
0000
,
0000
1000
0000
0001
0000
1000
0000
0001
,
0000
0000
0000
0000
,
0000
0000
0000
0000
,
0000
0000
0000
0000
,
0000
0000
0000
0000
,
1000
0001
1000
1001
,
0002
0000
1003
1000
,
1000
0010
0010
0010
,
0100
0100
0100
0001
,
0001
0001
1000
0001
,
1001
0000
0000
0110
,
0000
0000
1001
0000
,
0000
0110
0000
0000
,
1001
0000
0000
0110
,
0000
0000
1001
0000
,
1000
0001
1000
0100
,
0010
0100
1000
0001
,
1000
0010
0100
0010
,
1000
1000
1000
0001
,
0001
0001
0010
0010
,
0010
0200
0000
0300
,
1000
0010
0100
0001
,
0100
0010
1000
0010
,
0100
0002
0000
0003
,
1000
0100
0010
0001
,
0010
0100
1000
0100
,
0010
0002
0000
0003
,
1000
0000
0000
0001
0000
0000
1000
0000
,
0000
0010
0010
0010
,
0010
0000
1000
0000
0000
0001
0000
0000
,
1000
0000
0100
0010
,
0001
0000
0000
1000
0000
0000
0000
0001
,
0000
0000
1000
0000
0000
0010
0000
0000
,
0100
0000
0000
0002
0000
0000
0003
0000
,
1000
0000
0000
1000
0000
0000
0100
0000
,
0000
0100
0000
0000
0010
0000
0000
0010
,
0000
0000
0001
0000
0000
0001
0000
0000
,
0100
0000
0000
0100
0000
0000
0010
0000
,
0000
0010
0000
0000
1000
0000
0000
1000
,
0000
0000
0001
0000
0000
0001
0000
0000
,
1000
0000
0000
0100
0000
0000
0010
0000
,
0000
0001
0000
1000
0000
0000
0000
2002
,
0000
0000
0000
0000
,
0000
0000
0000
0000
,
0000
0000
0000
0000
0000
3003
0000
0000
;

//---------------dance-single - ----------------
#NOTES:
     dance-single:
     :
     Beginner:
     4:
     0.174158,0.360389,0.042330,0.059262,0.000000,144.000000,139.000000,5.000000,7.000000,0.000000,0.000000,0.174158,0.360389,0.042330,0.059262,0.000000,144.000000,139.000000,5.000000,7.000000,0.000000,0.000000:
// measure 0
0000
0000
0000
0000
,  // measure 1
0000
0000
0000
0000
,  // measure 2
0000
0000
0000
0000
,  // measure 3
0000
0000
0000
0000
,  // measure 4
0000
0000
0000
0000
,  // measure 5
1000
0000
0000
0000
,  // measure 6
0000
0001
0000
1000
,  // measure 7
0000
0001
0000
0000
,  // measure 8
0100
0000
0000
0010
,  // measure 9
0000
0000
0100
0000
,  // measure 10
0000
0000
0001
0000
,  // measure 11
0000
0000
1000
0000
,  // measure 12
0002
0000
0000
0000
,  // measure 13
1003
0000
0000
0000
,  // measure 14
2000
0000
0000
0000
,  // measure 15
3001
0000
0000
0000
,  // measure 16
0001
0000
0001
0000
,  // measure 17
0001
0000
0000
0000
,  // measure 18
1000
0000
1000
0000
,  // measure 19
1000
0000
0000
0000
,  // measure 20
0010
0000
0010
0000
,  // measure 21
0010
0000
0000
0000
,  // measure 22
0100
0000
0100
0000
,  // measure 23
0100
0000
0000
0000
,  // measure 24
0001
0000
0000
1000
,  // measure 25
0000
0000
0001
0000
,  // measure 26
0000
0000
0000
0000
,  // measure 27
0000
0000
0000
0000
,  // measure 28
1000
0000
0000
0000
,  // measure 29
0100
0000
0000
0000
,  // measure 30
0010
0000
0000
0000
,  // measure 31
0001
0000
0000
0000
,  // measure 32
1000
0000
0000
0000
,  // measure 33
0010
0000
0000
0000
,  // measure 34
0100
0000
0000
0000
,  // measure 35
0001
0000
0000
0000
,  // measure 36
1000
0000
0000
0000
,  // measure 37
0001
0000
0000
1000
,  // measure 38
0000
0000
0000
0000
0000
0001
0000
0000
,  // measure 39
0000
2000
0000
3000
,  // measure 40
0001
0000
0000
0010
,  // measure 41
0000
0000
0100
0000
,  // measure 42
0000
1000
0000
0000
,  // measure 43
0001
0000
0000
0100
,  // measure 44
0000
0000
0010
0000
,  // measure 45
0000
1000
0000
0000
,  // measure 46
0001
0000
0000
1000
,  // measure 47
0000
0000
0001
0000
,  // measure 48
0000
1000
0000
0000
,  // measure 49
0010
0000
0000
0100
,  // measure 50
0000
0000
0010
0000
,  // measure 51
0000
0100
0000
0000
,  // measure 52
0001
0000
0000
0010
,  // measure 53
0000
0000
0100
0000
,  // measure 54
0000
1000
0000
0000
,  // measure 55
0001
0000
0000
0100
,  // measure 56
0000
0000
0010
0000
,  // measure 57
0000
1000
0000
0000
,  // measure 58
0001
0000
0000
1000
,  // measure 59
0000
0000
0001
0000
,  // measure 60
0000
1000
0000
0000
,  // measure 61
0010
0000
0000
0100
,  // measure 62
0000
0000
0010
0000
,  // measure 63
0000
0100
0000
0000
,  // measure 64
0001
0000
0000
1000
,  // measure 65
0000
0000
0001
0000
,  // measure 66
0000
0000
0000
0000
,  // measure 67
1000
0000
0000
0000
,  // measure 68
0001
0000
0000
0000
,  // measure 69
0100
0000
0000
0000
,  // measure 70
0010
0000
0000
0000
,  // measure 71
1000
0000
0000
0001
,  // measure 72
0000
0000
1000
0000
,  // measure 73
0000
0000
0001
0000
,  // measure 74
0000
0100
0000
0000
0000
0010
0000
0000
,  // measure 75
0000
0000
0000
0000
,  // measure 76
1000
0000
0000
0100
,  // measure 77
0000
0000
0000
0010
0000
0000
0000
0001
,  // measure 78
0000
0000
0000
0000
,  // measure 79
0000
0000
0000
0000
,  // measure 80
0000
0000
0000
0000
,  // measure 81
0000
0000
0000
0000
,  // measure 82
1000
0001
1000
0000
,  // measure 83
0001
0000
0000
0000
,  // measure 84
1000
0000
0000
0100
,  // measure 85
0000
0000
0010
0000
,  // measure 86
0000
0001
0000
0000
,  // measure 87
1000
0000
0000
0010
,  // measure 88
0000
0000
0100
0000
,  // measure 89
0000
0001
0000
0000
,  // measure 90
1001
0000
0000
1001
,  // measure 91
0000
0000
1001
0000
,  // measure 92
1000
0000
0000
0100
,  // measure 93
0000
0000
0010
0000
,  // measure 94
0000
0001
0000
0000
,  // measure 95
1000
0000
0000
0010
,  // measure 96
0000
0000
0100
0000
,  // measure 97
0000
0001
0000
0000
,  // measure 98
1000
0000
0000
0001
,  // measure 99
0000
0000
1000
0000
,  // measure 100
0000
0001
0000
0000
,  // measure 101
0100
0000
0000
0010
,  // measure 102
0000
0000
0100
0000
,  // measure 103
0000
0010
0000
0000
,  // measure 104
1000
0000
0000
0001
,  // measure 105
0000
0000
0000
0000
,  // measure 106
0000
0010
0000
0000
,  // measure 107
0100
0000
0000
0000
,  // measure 108
1000
0000
0000
0000
0000
0000
0000
0001
,  // measure 109
0000
1000
0000
0000
,  // measure 110
0010
0000
0000
0000
,  // measure 111
1000
0000
0000
1000
,  // measure 112
0000
0000
0100
0000
,  // measure 113
0000
0100
0000
0000
,  // measure 114
0010
0000
0000
0010
,  // measure 115
0000
0000
0001
0000
,  // measure 116
0000
0001
0000
0000
,  // measure 117
2002
0000
0000
0000
,  // measure 118
0000
0000
0000
3003
0000
0000
0000
0220
,  // measure 119
0000
0000
0000
0000
,  // measure 120
0000
0000
0000
0000
,  // measure 121
0000
0000
0000
0000
0000
0330
0000
0000
;
