#VERSION:0.83;
#TITLE:Doki Doki Literature Club;
#SUBTITLE:;
#ARTIST:Dan Salvato;
#TITLETRANSLIT:;
#SUBTITLETRANSLIT:;
#ARTISTTRANSLIT:;
#GENRE:;
#ORIGIN:;
#CREDIT:;
#BANNER:Doki Doki Literature Club.png;
#BACKGROUND:Doki Doki Literature Club-bg.png;
#PREVIEWVID:;
#JACKET:;
#CDIMAGE:;
#DISCIMAGE:;
#LYRICSPATH:;
#CDTITLE:;
#MUSIC:Doki Doki Literature Club.ogg;
#OFFSET:-0.290000;
#SAMPLESTART:35.232269;
#SAMPLELENGTH:17.454544;
#SELECTABLE:YES;
#BPMS:0.000=110.000;
#STOPS:;
#DELAYS:;
#WARPS:;
#TIMESIGNATURES:0.000=4=4;
#TICKCOUNTS:0.000=4;
#COMBOS:0.000=1;
#SPEEDS:0.000=1.000=0.000=0;
#SCROLLS:0.000=1.000;
#FAKES:;
#LABELS:0.000=Song Start;
#BGCHANGES:;
#KEYSOUNDS:;
#ATTACKS:
;

//---------------dance-single - ----------------
#NOTEDATA:;
#CHARTNAME:;
#STEPSTYPE:dance-single;
#DESCRIPTION:;
#CHARTSTYLE:;
#DIFFICULTY:Edit;
#METER:9;
#RADARVALUES:0.471332,0.534902,0.076197,0.304787,0.354315,433.000000,423.000000,10.000000,40.000000,0.000000,0.000000,0.000000,0.000000,0.000000,0.471332,0.534902,0.076197,0.304787,0.354315,433.000000,423.000000,10.000000,40.000000,0.000000,0.000000,0.000000,0.000000,0.000000;
#CREDIT:;
#NOTES:
0000
0000
0000
0000
,
0000
0000
0000
0000
,
0000
0000
0000
0000
,
0000
0000
0000
0000
,
1000
0000
1000
0100
0010
0000
0100
1000
,
0001
0000
0000
0000
0001
0000
0100
0000
0010
0000
0000
0000
0100
0010
0100
0000
,
0001
0000
0001
0010
0100
0000
0010
0001
,
1000
0000
1000
0010
0100
0001
2000
0000
,
3001
0000
0000
0000
1000
0000
1000
0000
2000
0000
0000
0000
0000
0000
3001
1000
,
0100
0000
0100
1000
0001
0000
0100
0000
0010
0000
0000
0000
0010
0000
0100
0000
,
0001
0000
0010
0000
0100
0000
1000
0100
1000
0000
1000
0100
1000
0000
0100
0000
,
0020
0000
0032
0000
2003
0000
3010
0100
0000
0010
2000
0000
3002
0000
0023
0000
,
0130
0000
0000
0000
0100
0000
1000
0000
0002
0000
0000
0000
0000
0000
0013
0001
,
1000
0000
0001
1000
0010
0000
0100
0000
0001
0000
0000
0000
0001
0000
0100
0000
,
0010
0000
1000
0000
0100
0000
0010
0001
0010
0000
0010
0001
0010
0000
0100
0000
,
2000
0000
0000
0000
0000
0000
3020
0000
0000
0000
0000
0000
0230
0000
0000
0000
0000
0000
0310
0000
0000
1000
0000
0000
0000
0000
0000
0001
0000
0000
0020
0000
0000
0000
0000
0000
0230
0000
0000
0000
0000
0000
1300
0000
0001
0000
1000
0000
,
0001
0000
1000
0010
0100
0000
0010
0000
1000
0000
0100
0000
0010
0000
0100
0000
,
1000
0000
0000
0000
0010
0000
0100
0000
0001
0000
0000
0000
0100
0001
0000
0000
0100
0000
0000
0000
0001
0100
0000
0000
0101
0000
0000
0000
0000
0000
0000
0000
,
0010
0000
1000
0000
0001
0010
0000
0100
0000
1000
0100
0000
0010
0000
0001
1000
,
0100
0000
0000
0000
0000
0000
0010
0000
0000
0000
0000
0000
0001
0000
0000
1000
0000
0000
0100
0000
0000
0000
0000
0000
0010
0000
0000
0000
0000
0000
0001
0000
0000
0000
0000
0000
1000
0000
0000
0000
0000
0000
0001
0000
1000
0000
0001
0000
,
1000
0000
0001
0100
0010
0000
0100
0000
0001
0000
0010
0000
0100
0000
0010
0000
,
0001
0000
0000
0000
0100
0000
0010
0000
1000
0000
0000
0000
0010
1000
0000
0000
0010
0000
0000
0000
1000
0010
0000
0000
1010
0000
0000
0000
0000
0000
0000
0000
,
0100
0000
0001
0000
1000
0100
0000
0010
0000
0001
0010
0000
0100
0000
1000
0001
,
0010
0000
0100
0000
1000
0001
0010
0000
0200
0000
0000
0000
2300
0000
0000
0000
,
3001
0000
0100
0000
0020
0030
0020
0130
0000
0001
0000
0001
1000
0000
0000
0000
,
2000
3100
0020
2030
3010
0200
0310
0002
,
1003
0000
0010
0000
0100
0000
0100
0010
0000
1000
0000
1000
0001
0000
0000
0000
,
2000
3010
0200
2300
3100
0002
0013
0200
,
1300
0000
0010
0000
0100
0000
0100
0010
0000
1000
0000
1000
0001
0000
0000
0000
,
1000
0000
0001
1000
0010
0100
0000
0001
0000
1000
0010
0100
0000
0010
1000
0000
,
0001
0000
0001
0010
0000
0010
0100
0000
0100
1000
0000
1000
0001
0010
0100
0000
,
0010
0001
0000
0001
1000
0010
0000
0010
,
0200
0000
0302
0000
0023
0000
0230
0000
2300
0000
0000
0000
3010
0000
0010
1000
,
0001
0000
1000
0100
0010
0000
0001
0000
1000
0000
0000
0000
1000
0000
0010
0000
,
0100
0000
0000
0001
0000
0000
0010
0000
0000
0100
0000
0000
0010
0000
0000
0001
0000
0000
1000
0000
0000
0010
0000
0010
,
0100
0000
0000
0100
0000
0100
0001
0000
0000
1000
0000
0000
0010
0000
0000
0000
0000
0000
0110
0000
0000
0000
0000
0000
,
0010
0000
1000
0000
0001
0000
0010
0000
0200
0000
0000
0000
1000
0000
0310
0100
,
1000
0000
0100
1000
0001
0000
0100
0000
0010
0000
0000
0000
0010
0000
0100
0000
,
0001
1000
0100
0010
0100
0001
0100
0010
,
0011
0010
0110
0100
1100
1000
1001
0000
,
0002
1000
0000
0013
0002
1000
0000
0103
,
0001
0000
0000
1000
0000
0000
0100
0000
0000
0000
0000
0000
0010
0000
0000
0100
0000
0000
1000
0000
0000
0100
0000
0000
0010
0000
0000
0001
0000
0000
1000
0000
0000
0010
0000
0000
0100
0000
0000
0001
0000
0000
1000
0000
0001
0000
1000
0000
,
0001
0000
1000
0010
0100
0000
0010
0000
1000
0000
0100
0000
0010
0000
0100
0000
,
1000
0000
0000
0000
0010
0000
0100
0000
0001
0000
0000
0000
0100
0001
0000
0000
0100
0000
0000
0000
0001
0100
0000
0000
0101
0000
0000
0000
0000
0000
0000
0000
,
0010
0000
1000
0000
0001
0010
0000
0100
0000
1000
0100
0000
0010
0000
0001
1000
,
0100
0000
0000
0000
0000
0000
0010
0000
0000
0000
0000
0000
0001
0000
0000
1000
0000
0000
0100
0000
0000
0000
0000
0000
0010
0000
0000
0000
0000
0000
0001
0000
0000
0000
0000
0000
1000
0000
0000
0000
0000
0000
0001
0000
1000
0000
0001
0000
,
1000
0000
0001
0100
0010
0000
0100
0000
0001
0000
0010
0000
0100
0000
0010
0000
,
0001
0000
0000
0000
0100
0000
0010
0000
1000
0000
0000
0000
0010
1000
0000
0000
0010
0000
0000
0000
1000
0010
0000
0000
1010
0000
0000
0000
0000
0000
0000
0000
,
0100
0000
0001
0000
1000
0100
0000
0010
0000
0001
0010
0000
0100
0000
1000
0001
,
0010
0000
0100
0000
1000
0001
0010
0000
0100
0000
0010
0000
0110
0000
1000
0001
,
0010
0000
0100
0000
1000
0001
0010
0000
0100
0000
0010
0000
0001
0000
1000
0000
,
0010
0000
1000
0001
0000
0010
0100
0000
1000
0000
0010
0000
0100
0000
0000
0000
,
0002
0000
0003
0002
0000
0000
0000
0000
,
0000
0000
0000
0000
2003
0000
3000
2000
,
3001
0000
0000
0000
;

//---------------dance-single - ----------------
#NOTEDATA:;
#CHARTNAME:;
#STEPSTYPE:dance-single;
#DESCRIPTION:;
#CHARTSTYLE:;
#DIFFICULTY:Hard;
#METER:7;
#RADARVALUES:0.382073,0.390890,0.106676,0.091436,0.007620,351.000000,337.000000,14.000000,12.000000,0.000000,0.000000,0.000000,0.000000,0.000000,0.382073,0.390890,0.106676,0.091436,0.007620,351.000000,337.000000,14.000000,12.000000,0.000000,0.000000,0.000000,0.000000,0.000000;
#CREDIT:;
#NOTES:
// measure 0
0000
0000
0000
0000
,  // measure 1
0000
0000
0000
0000
,  // measure 2
0000
0000
0000
0000
,  // measure 3
0000
0000
0000
0000
,  // measure 4
1000
0000
1000
0100
0010
0000
0100
1000
,  // measure 5
0001
0000
0001
0100
0010
0000
0100
0100
,  // measure 6
0001
0000
0001
0010
0100
0000
0010
0001
,  // measure 7
1000
0000
1000
0010
0100
0001
2000
0000
,  // measure 8
3001
0000
1000
1000
2000
0000
0000
3010
,  // measure 9
0100
0000
0010
0100
0001
0000
0100
0001
,  // measure 10
1000
0100
0010
0001
1000
0001
1000
0010
,  // measure 11
1000
0001
0010
0100
0010
0001
1000
0010
,  // measure 12
0000
0000
0001
1000
0020
0000
0000
0130
,  // measure 13
0001
0010
0100
1000
0001
0000
0001
0100
,  // measure 14
0010
1000
0001
0010
0100
0010
0100
0010
,  // measure 15
0001
1000
0010
0100
0001
0010
0100
1000
,  // measure 16
1000
0010
0101
0010
0000
0010
0101
0010
,  // measure 17
1000
0001
0010
1000
0010
0001
0011
0000
,  // measure 18
0100
1000
0001
0010
0100
0000
0100
0010
,  // measure 19
0001
1000
0100
0100
0010
0001
0200
0001
,  // measure 20
0301
0100
1010
0100
0000
0100
1010
0100
,  // measure 21
0001
1000
0100
0001
0100
1000
1100
0000
,  // measure 22
0010
0001
1000
0100
0010
0000
0010
0100
,  // measure 23
1000
0001
0010
0010
0200
0000
2300
0000
,  // measure 24
3001
0100
0010
0010
1000
1000
0001
0000
,  // measure 25
1000
0010
0001
0010
1000
0100
0010
0100
,  // measure 26
1000
0010
0100
0010
1000
1000
0001
0000
,  // measure 27
1000
0100
0001
0100
1000
0010
0100
0001
,  // measure 28
1000
0100
0010
0100
1000
1000
0001
0000
,  // measure 29
1000
0010
0100
1000
0100
0010
1000
0001
,  // measure 30
0010
0000
0000
1000
0000
0000
0100
0000
0000
0001
0000
0000
0010
0000
0100
0000
,  // measure 31
0010
0001
0000
0001
1000
0010
0200
0000
,  // measure 32
0310
0000
0100
0100
0100
0000
1001
0000
,  // measure 33
1000
0100
0001
0100
1000
0000
0001
0010
,  // measure 34
0100
1000
0010
1000
0100
0010
0001
0100
,  // measure 35
0001
0010
0100
1000
0001
0000
1001
0000
,  // measure 36
0001
0100
1000
0100
0001
0000
1000
0010
,  // measure 37
0100
0001
0010
0100
1000
0000
1000
0100
,  // measure 38
0010
0001
0100
0001
0010
0100
1000
0010
,  // measure 39
1000
0100
0001
0010
1000
0001
0010
0100
,  // measure 40
1000
0001
0000
0001
0100
0010
0000
0010
,  // measure 41
0100
0001
0010
1000
0001
1000
0010
0001
,  // measure 42
1000
0010
0101
0010
0000
0010
0101
0010
,  // measure 43
1000
0001
0010
1000
0010
0001
0011
0000
,  // measure 44
0100
1000
0001
0010
0100
0000
0100
0010
,  // measure 45
0001
1000
0100
0100
0010
0001
0200
0001
,  // measure 46
0301
0100
1010
0100
0000
0001
1010
0100
,  // measure 47
0001
1000
0100
0001
0100
1000
1100
0000
,  // measure 48
0010
0001
1000
0100
0010
0000
0010
0100
,  // measure 49
1000
0001
0010
0010
0100
0000
0010
0100
,  // measure 50
1000
0001
0010
0010
0100
1000
0000
1000
,  // measure 51
0001
0010
1000
0010
0100
1000
0010
0000
,  // measure 52
2000
0000
3000
2000
0000
0000
0000
0000
,  // measure 53
0000
0000
0000
0000
3002
0000
0003
0002
,  // measure 54
1003
0000
0000
0000
;

//---------------dance-single - ----------------
#NOTEDATA:;
#CHARTNAME:;
#STEPSTYPE:dance-single;
#DESCRIPTION:;
#CHARTSTYLE:;
#DIFFICULTY:Challenge;
#METER:9;
#RADARVALUES:0.466978,0.534902,0.045718,0.304787,0.354315,429.000000,423.000000,6.000000,40.000000,0.000000,0.000000,0.000000,0.000000,0.000000,0.466978,0.534902,0.045718,0.304787,0.354315,429.000000,423.000000,6.000000,40.000000,0.000000,0.000000,0.000000,0.000000,0.000000;
#CREDIT:;
#NOTES:
0000
0000
0000
0000
,
0000
0000
0000
0000
,
0000
0000
0000
0000
,
0000
0000
0000
0000
,
1000
0000
1000
0100
0010
0000
0100
1000
,
0001
0000
0000
0000
0001
0000
0100
0000
0010
0000
0000
0000
0100
0010
0100
0000
,
0001
0000
0001
0010
0100
0000
0010
0001
,
1000
0000
1000
0010
0100
0001
2000
0000
,
3001
0000
0000
0000
1000
0000
1000
0000
2000
0000
0000
0000
0000
0000
3001
1000
,
0100
0000
0100
1000
0001
0000
0100
0000
0010
0000
0000
0000
0010
0000
0100
0000
,
0001
0000
0010
0000
0100
0000
1000
0100
1000
0000
1000
0100
1000
0000
0100
0000
,
0020
0000
0032
0000
2003
0000
3010
0100
0000
0010
2000
0000
3002
0000
0023
0000
,
0130
0000
0000
0000
0100
0000
1000
0000
0002
0000
0000
0000
0000
0000
0013
0001
,
1000
0000
0001
1000
0010
0000
0100
0000
0001
0000
0000
0000
0001
0000
0100
0000
,
0010
0000
1000
0000
0100
0000
0010
0001
0010
0000
0010
0001
0010
0000
0100
0000
,
2000
0000
0000
0000
0000
0000
3020
0000
0000
0000
0000
0000
0230
0000
0000
0000
0000
0000
0310
0000
0000
1000
0000
0000
0000
0000
0000
0001
0000
0000
0020
0000
0000
0000
0000
0000
0230
0000
0000
0000
0000
0000
1300
0000
0001
0000
1000
0000
,
0001
0000
1000
0010
0100
0000
0010
0000
1000
0000
0100
0000
0010
0000
0100
0000
,
1000
0000
0010
0100
0001
0000
1000
0100
0001
0000
0001
0100
1000
0000
0000
0000
,
0010
0000
0100
0000
0001
0010
0000
0100
0000
1000
0100
0000
0010
0000
0001
1000
,
0100
0000
0000
0000
0000
0000
0010
0000
0000
0000
0000
0000
0001
0000
0000
1000
0000
0000
0100
0000
0000
0000
0000
0000
0010
0000
0000
0000
0000
0000
0001
0000
0000
0000
0000
0000
1000
0000
0000
0000
0000
0000
0001
0000
1000
0000
0001
0000
,
1000
0000
0001
0100
0010
0000
0100
0000
0001
0000
0010
0000
0100
0000
0010
0000
,
0001
0000
0100
0010
1000
0000
0001
0010
1000
0000
1000
0010
0001
0000
0000
0000
,
0100
0000
0010
0000
1000
0100
0000
0010
0000
0001
0010
0000
0100
0000
1000
0001
,
0010
0000
0100
0000
1000
0001
0010
0000
0200
0000
0000
0000
2300
0000
0000
0000
,
3001
0000
0100
0000
0020
0030
0020
0130
0000
0001
0000
0001
1000
0000
0000
0000
,
2000
3100
0020
2030
3010
0200
0310
0002
,
1003
0000
0010
0000
0100
0000
0100
0010
0000
1000
0000
1000
0001
0000
0000
0000
,
2000
3010
0200
2300
3100
0002
0013
0200
,
1300
0000
0010
0000
0100
0000
0100
0010
0000
1000
0000
1000
0001
0000
0000
0000
,
1000
0000
0001
1000
0010
0100
0000
0001
0000
1000
0010
0100
0000
0010
1000
0000
,
0001
0000
0001
0010
0000
0010
0100
0000
0100
1000
0000
1000
0001
0010
0100
0000
,
0010
0001
0000
0001
1000
0010
0000
0010
,
0200
0000
0302
0000
0023
0000
0230
0000
2300
0000
0000
0000
3010
0000
0010
1000
,
0001
0000
1000
0100
0010
0000
0001
0000
1000
0000
0000
0000
1000
0000
0010
0000
,
0100
0000
0000
0001
0000
0000
0010
0000
0000
0100
0000
0000
0010
0000
0000
0001
0000
0000
1000
0000
0000
0010
0000
0010
,
0100
0000
0000
0100
0000
0100
0001
0000
0000
1000
0000
0000
0010
0000
0000
0000
0000
0000
0110
0000
0000
0000
0000
0000
,
0010
0000
1000
0000
0001
0000
0010
0000
0200
0000
0000
0000
1000
0000
0310
0100
,
1000
0000
0100
1000
0001
0000
0100
0000
0010
0000
0000
0000
0010
0000
0100
0000
,
0001
1000
0100
0010
0100
0001
0100
0010
,
0011
0010
0110
0100
1100
1000
1001
0000
,
0002
1000
0000
0013
0002
1000
0000
0103
,
0001
0000
0000
1000
0000
0000
0100
0000
0000
0000
0000
0000
0010
0000
0000
0100
0000
0000
1000
0000
0000
0100
0000
0000
0010
0000
0000
0001
0000
0000
1000
0000
0000
0010
0000
0000
0100
0000
0000
0001
0000
0000
1000
0000
0001
0000
1000
0000
,
0001
0000
1000
0010
0100
0000
0010
0000
1000
0000
0100
0000
0010
0000
0100
0000
,
1000
0000
0010
0100
0001
0000
1000
0100
0001
0000
0001
0100
1000
0000
0000
0000
,
0010
0000
0100
0000
0001
0010
0000
0100
0000
1000
0100
0000
0010
0000
0001
1000
,
0100
0000
0000
0000
0000
0000
0010
0000
0000
0000
0000
0000
0001
0000
0000
1000
0000
0000
0100
0000
0000
0000
0000
0000
0010
0000
0000
0000
0000
0000
0001
0000
0000
0000
0000
0000
1000
0000
0000
0000
0000
0000
0001
0000
1000
0000
0001
0000
,
1000
0000
0001
0100
0010
0000
0100
0000
0001
0000
0010
0000
0100
0000
0010
0000
,
0001
0000
0100
0010
1000
0000
0001
0010
1000
0000
1000
0010
0001
0000
0000
0000
,
0100
0000
0010
0000
1000
0100
0000
0010
0000
0001
0010
0000
0100
0000
1000
0001
,
0010
0000
0100
0000
1000
0001
0010
0000
0100
0000
0010
0000
0110
0000
1000
0001
,
0010
0000
0100
0000
1000
0001
0010
0000
0100
0000
0010
0000
0001
0000
1000
0000
,
0010
0000
1000
0001
0000
0010
0100
0000
1000
0000
0010
0000
0100
0000
0000
0000
,
0002
0000
0003
0002
0000
0000
0000
0000
,
0000
0000
0000
0000
2003
0000
3000
2000
,
3001
0000
0000
0000
;
