#TITLE:Bud Ran Back Out;
#SUBTITLE:;
#ARTIST:Kyle Gann;
#TITLETRANSLIT:;
#SUBTITLETRANSLIT:;
#ARTISTTRANSLIT:;
#GENRE:;
#CREDIT:;
#MUSIC:Bud Ran Back Out.ogg;
#BANNER:ban.png;
#BACKGROUND:BG.png;
#CDTITLE:;
#SAMPLESTART:22.315;
#SAMPLELENGTH:18.240;
#SELECTABLE:YES;
#OFFSET:-0.690;
#BPMS:0.000=160.000
,34.000=97.250
,36.000=160.000
,40.000=106.666
,42.750=160.000
,43.000=100.000
,44.000=120.000
,47.000=106.666
,49.000=141.180
,52.000=250.000
,262.000=250.100
,272.000=250.000
,326.000=250.100
,336.000=250.000
,342.000=250.100
,344.000=250.200
,346.000=250.300
,347.000=250.400
,348.000=250.250
,349.000=250.100
,350.000=250.000
,440.000=251.500
,441.125=253.000
,442.000=255.000
,443.000=250.000
,552.875=241.500
,553.500=250.000
,561.000=249.800
,562.000=249.600
,563.000=249.200
,564.000=250.000
,588.000=248.700
,588.500=247.700
,589.000=246.100
,589.500=243.320
,590.000=249.520
,590.750=250.700
,591.500=250.000
,639.500=248.000
,640.500=250.000
,643.000=255.000
,644.000=251.000
,645.000=252.000
,646.000=255.000
,647.000=250.000
,648.500=252.000
,651.500=253.000
,652.500=250.000
,653.000=245.000
,653.750=240.000
,655.000=245.000
,656.000=250.000
,656.500=252.000
,657.500=257.000
,661.500=214.000
,662.750=255.000
,665.000=260.000
,666.500=252.000
,667.000=250.000
,667.500=249.000
,668.000=250.000
,668.500=251.000
,669.000=252.000
,669.500=257.000
,670.250=256.000
,675.000=237.000
,675.750=260.000
,677.000=255.500
,679.000=258.500
,679.750=256.000
,680.500=258.500
,682.500=252.000
,683.500=244.500
,686.250=232.000
,687.000=251.000
,689.250=258.500
,690.000=257.000
,690.750=252.000
,693.000=258.500
,693.750=266.000
,694.500=265.000
,698.000=250.000
;
#STOPS:778.250=0.060;
#BGCHANGES:;
#FGCHANGES:;

//--------------- dance-single - ----------------
#NOTES:
     dance-single:
     :
     Beginner:
     3:
     0,0,0,0,0:
0000
0000
0000
0000
,
0001
0000
0000
0000
,
1000
0000
0000
0000
,
0001
0000
0000
0000
,
0100
0000
0000
0000
,
0010
0000
0000
0000
,
0100
0000
0000
0000
,
0001
0000
0000
0000
,
0100
0000
0001
0000
,
0100
0000
0000
0000
,
0001
0000
0000
0000
,
0100
0000
0000
0000
,
0000
0010
0000
0000
,
1000
0000
0001
0000
,
0000
0000
1000
0000
,
0000
0000
0001
0000
,
0000
0000
0100
0000
,
0000
0000
0010
0000
,
0000
0000
1000
0000
,
0000
0000
0001
0000
,
0000
0000
0100
0000
,
0000
0000
0010
0000
,
0000
0000
1000
0000
,
0000
0000
0001
0000
,
0000
0000
0100
0000
,
0010
0000
1000
0000
,
0000
0000
0001
0000
,
0000
0000
0100
0000
,
0000
0000
0010
0000
,
0000
0000
1000
0000
,
0000
0000
0001
0000
,
0000
0000
0100
0000
,
0000
0000
0010
0000
,
0000
0000
1000
0000
,
0000
0000
1000
0000
,
0001
0000
0100
0000
,
0010
0000
1000
0000
,
0000
0000
0001
0000
,
0000
0000
1001
0000
,
0000
0000
0110
0000
,
0000
0000
0010
0000
,
0000
0000
1000
0000
,
0000
0000
1000
0000
,
0010
0000
1000
0000
,
0000
0000
1000
0000
,
0000
0000
0001
0000
,
0000
0000
0110
0000
,
0000
0000
1000
0000
,
0000
0000
0001
0000
,
0000
0000
0100
0000
,
0000
0000
0010
0000
,
0000
0000
1000
0000
,
0000
0000
0001
0000
,
0000
0000
0100
0000
,
0000
0000
1001
0000
,
0000
0000
0010
0000
,
0000
0000
1001
0000
,
0000
0000
0001
0000
,
0000
0000
1001
0000
,
0000
0000
1000
0000
,
0000
0000
0001
0000
,
0000
0000
0100
0000
,
0000
0000
0010
0000
,
0000
0000
1000
0000
,
0000
0000
0001
0000
,
0000
0000
0001
0000
,
0000
0000
0100
0000
,
0000
0000
0010
0000
,
0000
0000
1001
0000
,
0000
0000
0100
0000
,
0000
0000
0100
0000
,
0000
0000
0001
0000
,
0000
0000
1000
0000
,
0000
0000
0010
0000
,
0000
0000
0100
0000
,
0000
0000
1000
0000
,
0000
0000
0001
0000
,
0000
0000
0100
0000
,
0000
0000
0010
0000
,
0000
0000
1000
0000
,
0001
0000
0100
0000
,
0010
0000
1000
0000
,
0000
0000
0001
0000
,
0000
0000
0100
0000
,
0000
0000
0010
0000
,
0000
0000
0010
0000
,
1000
0000
0001
0000
,
1000
0000
0010
0000
,
0000
0000
0100
0000
,
0000
0000
0001
0000
,
0100
0000
0010
0000
,
1000
0000
0001
0000
,
0100
0000
0010
0000
,
1000
0000
0001
0000
,
0100
0000
0100
0000
,
0010
0000
0010
0000
,
1000
0000
0001
0000
,
0100
0000
0010
0000
,
0000
0000
0010
0000
,
1000
0000
0001
0000
,
0100
0000
0010
0000
,
1000
0000
1001
0000
,
0000
0000
1001
0000
,
0000
0000
0110
0000
,
0000
0110
0000
0000
,
1001
0000
0000
1001
,
0000
0000
1001
0000
,
0000
0000
0000
0000
,
0000
0000
1000
0000
,
0001
0000
1000
0000
,
0010
0000
0100
0100
,
0100
0000
0000
0000
;

//--------------- dance-single - ----------------
#NOTES:
     dance-single:
     :
     Easy:
     7:
     0,0,0,0,0:
0000
0000
0000
0000
,
1001
0000
0100
0000
,
0001
0000
0000
0000
,
1001
0000
0010
0000
,
0100
0000
0000
0000
,
1001
0000
0001
0000
,
0100
0000
0000
0000
,
1001
0000
0010
0000
,
0100
0000
0000
0000
,
1001
0000
1000
0000
,
1000
0000
0000
0000
,
1001
0000
0001
1000
,
0000
0001
0000
0000
,
0100
0001
1000
0100
,
1000
0000
0001
0000
0100
0000
0000
0100
,
0000
0000
0000
0000
0010
0000
0000
0010
,
0000
0000
1000
0001
,
0100
0010
1000
0010
,
0000
1000
0001
0010
,
0001
1000
0100
0010
,
0100
0000
1000
0000
,
0000
0001
0100
0010
,
1000
0100
0010
0001
,
0100
0010
1000
0100
,
1000
0001
0010
0100
,
1000
0010
0100
0000
,
0000
1000
0001
0100
,
0010
1000
0100
0010
,
0100
0000
1000
0000
,
0000
0100
0010
1000
,
1000
0000
0010
0100
,
0100
0000
0001
1000
,
0100
1000
0001
0010
,
0001
0100
0010
1000
,
0100
0000
0100
0100
,
0010
1000
0001
0010
,
0100
0000
1000
0001
,
0000
1000
0001
0100
,
0010
1000
0100
0010
,
0001
0100
0010
1000
,
0001
0010
0100
1000
,
0010
0100
0001
1000
,
0000
0100
0010
1000
,
0100
0000
0010
0001
,
0100
0000
1010
0000
,
0000
1000
0001
0010
,
0001
0000
0000
0000
1001
0000
0000
1000
,
0000
0010
0200
0300
,
0110
0000
0000
0000
0000
0000
1001
0000
0000
0000
0000
0001
,
0000
0100
0010
2000
,
3000
0001
0200
0300
,
0010
2000
3000
0001
,
0202
0303
0101
0000
,
0000
0001
0100
0010
,
1010
0000
0000
0000
1001
0000
0000
0001
,
0000
0100
0010
1000
,
1010
0000
0000
0000
1000
0000
0000
0001
,
0000
0000
0000
0000
0100
0000
0000
0000
0010
0000
0000
0000
0100
0000
0000
0110
,
0000
0000
0001
0000
,
1000
0000
0001
0000
,
0100
0000
0010
0000
,
1000
1100
1100
0000
,
0100
0000
1001
0000
,
1000
0000
1010
0000
,
0010
0000
1001
0000
,
0001
0000
0100
0001
,
0100
0010
1000
0001
,
0010
0001
0100
0010
,
1000
0000
1001
0001
,
0100
0010
1000
0100
,
0010
0100
1000
0001
,
0010
0001
0010
0000
,
1001
0000
0101
0000
,
0110
0000
1000
0001
,
0010
0001
1000
0100
,
1000
0001
0100
0000
,
0110
0000
1001
0000
,
0110
0000
1000
0000
,
0001
0000
0100
0100
,
0010
1000
0100
0010
,
0100
1000
0001
0100
,
0010
1000
0001
1000
,
0010
1000
0100
1000
,
0001
0100
0010
0100
,
0001
1000
0100
0010
,
0100
1000
1001
0000
,
0001
0100
0110
0010
,
1000
0100
1100
0000
,
0011
0001
0100
0010
,
1000
0100
1000
0000
,
0001
0100
0010
0000
,
1000
0001
0100
0000
,
0010
1000
0100
0000
,
1000
0001
0100
0000
,
0000
0000
1001
0001
,
0100
0010
2020
0000
,
0000
0000
0000
0000
,
3030
0000
1000
0002
,
0200
0303
2010
0000
,
3200
0000
2300
0000
,
3020
0000
0130
0000
,
0101
0000
0000
0000
1010
0000
0000
1001
,
0000
0000
0000
0000
1010
0000
0000
0100
,
0000
0000
0000
0000
0001
0000
0000
1000
,
0000
0000
0010
0000
0000
0100
0000
0000
,
0001
0000
0000
0001
0000
0000
1000
0000
,
0000
1000
0000
0000
0002
0000
0003
0000
,
0200
0300
0020
0030
,
1000
0000
0002
0003
,
2002
3003
0220
0330
,
0011
0000
1001
0010
,
0010
0000
0000
0000
;

//--------------- dance-single - ----------------
#NOTES:
     dance-single:
     :
     Medium:
     9:
     0,0,0,0,0:
0000
0000
0000
0000
0000
0000
0000
0000
0000
0000
0000
0000
0000
0000
0000
1000
,
0001
0000
0001
1000
,
0001
0000
1000
0000
0001
0000
0100
0000
0000
0000
0000
0000
0000
0000
0000
0001
,
0100
0000
1000
0010
,
1000
0000
0010
1000
0000
0000
0000
0000
0000
0000
0000
0000
0000
0000
0000
1000
,
0100
0000
1000
0010
,
1000
0000
0100
0010
0000
0001
0000
0000
0000
0000
0000
0000
0000
0000
0000
0001
,
1000
0000
0100
0010
,
0001
1000
0000
0000
1001
0000
0000
0000
,
0011
0000
0000
0000
0000
0000
0000
1000
0100
0000
0000
0000
1000
0000
0000
0000
,
0001
0000
0000
0000
0000
0000
0000
0000
0000
0000
0000
0001
0100
0000
0000
0000
,
0010
0000
0000
1000
0000
0000
0001
0000
0000
1000
0001
0000
,
0000
0000
0000
0000
0000
0000
1000
0001
0000
0000
0000
0000
0000
0000
0000
0000
0000
0000
0000
0000
0000
0000
0000
0000
,
1000
0001
1001
1000
,
0010
0000
0100
0000
0110
0000
0000
0101
,
0000
0000
0001
0000
1001
0000
0000
1010
,
0000
1000
0001
0100
,
0010
1000
0100
0010
,
0000
0001
1000
0000
0001
0100
0001
0000
,
1000
0100
1000
0000
0001
0000
0100
0000
,
0110
0000
0000
1000
0010
1000
0000
0000
,
0010
2000
3020
0230
,
0302
0000
0103
0000
0101
0000
0000
1010
,
0000
0000
0001
0000
1001
0000
0000
0110
,
0000
0001
0100
0010
,
1000
0001
1000
0001
,
0000
0000
0001
0010
0001
0000
1000
0100
,
1000
0010
0100
0001
,
1001
0000
0000
1000
0001
1000
0000
0000
,
0001
0100
0010
1000
,
0001
1000
0000
0001
0100
0000
0010
0000
,
1000
0001
0000
0000
1000
0000
0100
0000
,
0010
0000
0001
0100
0010
0000
0000
1000
,
0000
0001
0010
0100
,
1000
0001
0000
0100
0010
0000
0100
0000
,
0001
0000
1000
0000
0001
1000
0001
1000
,
0010
0100
0000
0000
0001
0000
1000
0000
,
0000
0000
0001
0000
1000
0100
1000
0000
,
0010
0100
0010
0000
0110
0000
0000
1001
,
0000
0000
0000
0000
0101
0000
0000
0110
,
0000
0010
1010
1000
,
1001
0000
0001
0000
0100
0010
1000
0010
,
0000
0000
0000
0000
1000
0100
0000
0010
,
0001
0010
0000
0100
1000
0000
0010
0000
,
1010
0000
0000
1000
0001
1000
0000
0000
,
0001
0200
0320
1030
,
1010
0000
0000
0000
1010
0000
0000
1010
,
0000
0000
1001
0000
0001
0100
0010
1000
,
0100
0000
0000
0000
0000
0000
0110
0000
0000
0000
0000
0011
,
0000
0000
1000
0100
0010
0001
1000
0010
,
0000
0000
1000
0001
1000
0000
0000
0001
,
0100
0000
0000
0000
0000
0001
0000
0000
0000
0000
0000
0000
0000
0000
0000
0000
1000
0000
0000
0000
0000
0000
0000
0000
0100
0000
0000
0000
0000
0000
0000
0000
,
1100
0000
0010
0001
1000
0000
0000
0000
,
0000
0001
0100
0010
1000
0000
0001
0000
,
1001
0000
0000
0000
0101
0000
0000
0110
,
0000
1010
2000
3010
,
0110
0000
0000
0000
0110
0000
0000
0011
,
0000
0000
0000
0000
0001
0000
0100
0000
0001
0000
0010
0000
0001
0000
0000
1000
,
0000
0000
0000
MMMM
0000
0000
0000
0000
,
0000
MMMM
0000
0000
0000
0000
MMMM
0000
,
0000
0000
0000
0000
0000
0000
1000
0000
0010
0000
0100
0000
,
0001
1001
0101
0010
,
1000
0001
0101
0010
,
1000
0000
0010
0000
1010
0000
0000
1000
,
0001
0010
0000
0000
0011
0000
0000
0101
,
0000
0000
0000
0000
0001
0010
0100
1000
,
0001
0100
0010
1000
0001
0010
0001
1000
,
0100
0010
0100
1000
0001
1000
0001
0100
,
0010
0000
0101
0001
,
0100
0010
1000
0100
,
0010
0001
0100
0020
,
2030
0000
0000
3100
0000
0000
0001
0000
0100
0000
0010
0000
,
1000
0000
0001
0000
0100
0000
0010
0000
1000
0000
0100
0000
,
0010
0000
0001
0001
,
1000
0100
0010
0001
0100
0010
1000
0000
,
0001
0000
0000
0100
0000
0000
0010
0000
0000
1000
0000
0000
0001
0000
0000
0000
0010
0000
0000
0000
0100
0000
0000
0000
,
1000
0000
0010
0000
0100
0000
0001
0000
0010
0000
0001
0000
,
0100
0000
0000
0010
0000
0000
0000
0000
1000
0000
0000
0000
1010
0000
0000
0000
,
0000
0000
0010
1000
,
0100
0000
0000
0010
0000
0000
0001
1000
0001
1000
0000
0000
,
0010
0100
0020
0000
,
0000
0030
1001
0001
,
0100
0010
0110
0010
,
1000
0100
1010
0100
,
0000
0002
0000
0000
0000
0000
0203
0000
,
0000
0300
0101
0001
,
0100
0010
1000
0100
,
0010
0001
0101
0000
,
1010
0100
0202
0303
,
0022
0033
0001
2002
,
0000
3003
0101
0000
,
2002
3003
0000
0000
0202
0000
0303
0000
,
0202
0303
0002
0000
,
0000
0003
1001
1000
,
0000
0000
0101
0001
,
0100
0000
0000
0010
0000
0000
0010
0000
1000
0000
0100
0000
,
0010
0000
0001
0000
0100
0000
0010
0000
1000
0000
0001
0000
,
0100
0000
0010
0000
1000
0000
0001
0000
1000
0000
0100
0000
,
0010
0000
0100
0000
1000
0000
0010
0000
0100
0000
0001
0000
,
1000
0000
0010
0000
1000
0000
0001
0000
0100
0000
0010
0000
,
1000
0010
0100
0001
,
1000
0000
0000
0000
0010
0000
0000
0000
0100
0000
0000
0000
0101
0000
0000
0000
0000
0000
0000
0000
0000
2002
0000
0000
,
0000
3003
0000
0000
1010
0000
0000
0220
,
0000
0330
0200
0000
0301
0000
0000
1000
,
0000
0000
0001
0000
0000
0100
0000
0000
,
0010
0000
0000
1000
0000
0000
0001
0000
,
0000
0100
0000
0000
0020
0000
2030
0000
,
3002
2003
3010
0100
,
0001
0000
0000
0010
0000
0000
0001
0000
0100
0000
0010
0000
,
1000
0000
0010
0000
0100
0000
0010
0000
1000
0000
0100
0000
,
1000
0000
0010
0000
0100
0000
0010
0000
0000
1010
0000
0000
,
1010
0000
0000
0000
;

//--------------- dance-single - ----------------
#NOTES:
     dance-single:
     :
     Hard:
     11:
     0,0,0,0,0:
0000
0000
0000
0000
0000
0000
0000
0000
0000
0000
0000
0000
0000
0000
0000
1000
,
0001
0000
0001
1000
,
0001
0010
0001
0010
0001
0000
0100
0000
0000
0000
0000
0000
0000
0000
0000
0001
,
0100
0000
1000
0010
,
1000
0001
1000
0010
0000
0000
0000
0000
0000
0000
0000
0000
0000
0000
0000
1000
,
0100
0000
1000
0010
,
1000
0100
0010
0001
0000
1000
0000
0000
0000
0000
0000
0000
0000
0000
0000
0001
,
1000
0000
0100
0010
,
0001
0000
1000
0000
0001
0000
0000
0000
0000
0000
0000
0000
0000
0001
0000
0000
1001
0000
0000
0000
0000
0000
0000
0000
0000
0000
0000
0000
0000
0000
0000
0000
,
0011
0000
0000
0000
0000
0000
0000
1000
0100
0000
0000
0000
1000
0000
0000
0000
,
0001
0000
0000
0000
0000
0000
0000
0000
0000
0000
0000
0001
0100
0000
0000
0000
,
0010
0000
0000
1000
0000
0000
0001
0000
0000
1000
0001
0000
,
0000
0000
0000
0000
0000
0000
1000
0001
0000
0000
0000
0000
0000
0000
0000
0000
0000
0000
0000
0000
0000
0000
0000
0000
,
1000
0100
0010
0001
1000
0100
0010
0001
,
0100
0010
1000
0001
1000
0100
0010
0001
,
0010
0100
1000
0010
1000
0100
0010
0001
,
0100
0010
1000
0001
1000
0100
0010
0001
,
1000
0000
0000
0010
0000
0000
0100
0000
0000
0001
0000
0000
1000
0000
0100
0000
0010
0000
0001
0000
0000
0000
0000
0000
,
0100
0010
1000
0001
0010
0100
1000
0010
,
0100
0001
0010
0100
1000
0010
0100
0001
,
0020
0030
0000
0001
1000
0001
0000
1000
,
0001
1000
0100
0010
0001
1000
0001
0010
,
0100
1000
0010
0100
0001
0100
0010
1000
,
0010
0100
0001
1000
0001
0010
0100
1000
,
0010
0100
0001
0010
0100
1000
0010
0100
,
0001
0000
0000
1000
0000
0000
0010
0000
0000
0100
0000
0000
0001
0000
1000
0000
0010
0000
0100
0000
0000
0000
0000
0000
,
0001
0100
0010
1000
0001
0010
0100
1000
,
0010
0100
0001
0010
0100
1000
0010
0100
,
0002
0000
0003
1000
0001
1000
0000
0000
,
0001
1000
0100
0010
0100
1000
0010
0100
,
0010
0010
0000
1000
0100
0001
0100
1000
,
0010
1000
0000
0000
0001
0010
0100
1000
,
0010
0100
0001
0010
0100
0100
1000
0010
,
0010
0100
0001
0100
0010
1000
0100
0010
,
0001
0002
0003
1000
0001
0010
0100
1000
,
0001
1000
0010
1000
0001
0010
0100
1000
,
0010
0000
0000
2000
0000
0000
3000
0000
0000
0000
0000
0000
0001
0000
0100
0000
0010
0000
0100
0000
0000
0000
0000
0000
,
0000
0001
1000
0100
0010
0001
1000
0010
,
1000
0010
0100
0001
1000
0100
0010
0001
,
0100
0010
1000
0001
1000
0100
0010
0100
,
1000
0010
0100
0001
1000
0010
0100
0010
,
1000
0000
0000
0010
0000
0000
0100
0000
0000
0001
0000
0000
1000
0000
0001
0000
1000
0000
0001
0000
0000
0100
0000
0000
,
0001
1000
0010
0100
0010
0100
0001
1000
,
0001
0100
0001
0010
0001
0100
0001
0010
,
0001
0000
0000
1000
0100
0010
0000
0000
,
0001
0100
0020
0000
2030
0000
3001
0000
,
1001
0000
1000
0000
1010
0000
0000
0101
,
0000
0000
0101
0000
0100
0001
0010
0001
,
1000
0000
0000
0000
0001
0000
0000
0000
1001
0000
0000
0000
0001
0000
0000
0011
,
0000
0000
0100
0010
0001
0100
0001
2000
,
3000
0000
0001
0100
0001
0000
0000
1000
,
0002
0000
0003
0000
0010
0001
0010
0001
,
1000
0000
0001
1000
0001
0000
0000
0000
,
1000
0001
0200
0000
0320
0000
1030
0000
,
1001
0000
0001
0000
1001
0000
0000
1100
,
0000
0000
1001
0000
1000
0001
0010
0001
,
1000
0000
1000
0000
1010
0000
0000
1001
,
0000
0000
0000
0000
1000
0000
0010
0000
0100
0000
0010
0000
1000
0000
0000
0001
,
0000
0000
0001
0100
0010
0100
0001
0000
,
1000
1000
0000
0000
0001
0001
0000
0000
,
0101
0000
0000
0000
0000
0000
1000
0000
0100
0000
1000
0000
,
1001
0000
0110
0000
0010
1000
0010
1000
,
0010
0100
0001
0010
0100
1000
0010
0100
,
0001
1000
0100
0010
0100
1000
0001
1000
,
0010
0000
0000
0000
0100
0000
0010
0000
0000
0000
0000
0000
1000
0000
0000
0001
0000
0000
0010
0000
0000
0100
0000
0000
,
1000
0001
0100
0010
1000
0010
1000
0100
,
0010
0001
1000
0010
0100
0010
1000
0001
,
0010
0001
0100
0001
0100
0010
1000
0010
,
1000
0000
0010
0000
0100
0000
0001
0000
0000
0000
0000
0000
1001
0000
0000
0000
0000
0000
0001
0000
0000
0010
0000
0000
,
0100
1000
0010
0100
0001
0010
0100
1000
,
0001
0100
0010
0100
0001
1000
0001
0000
,
1000
0000
0000
0100
0000
0000
1000
0000
0000
0010
0000
0000
1000
0000
0000
0000
0001
0000
0000
0000
0100
0000
0000
0000
,
0010
0000
1000
0000
0001
0000
1000
0000
0010
0000
0100
0000
,
0110
0000
0100
0000
0001
0100
0010
1000
,
0001
0010
0001
0100
0010
1000
0001
0010
,
0001
0000
0000
0100
0000
0000
0010
0000
0000
1000
0000
0000
0010
0000
0000
0000
0100
0000
0000
0000
0001
0000
0000
0000
,
1000
0000
0010
0000
0010
0000
0100
0000
0001
0000
0001
0000
,
1001
0000
0000
1000
0000
0000
0000
0000
0100
0000
0000
0000
1001
0000
0000
0000
,
0010
0000
0000
0000
0000
0000
0000
0000
0100
0000
0000
0000
0000
0010
0000
0000
0100
0000
0000
0000
0000
0001
0000
0000
0010
0000
0000
0000
0000
0100
0000
0000
,
0010
0000
0000
0000
0000
0000
0000
0000
0000
0000
0000
0000
0000
0000
0000
0001
0000
0000
0000
0000
0000
0000
0000
0000
0010
0000
0000
0000
0000
0000
0000
0000
0000
0000
0000
0000
0000
0000
0000
0001
0000
0000
0000
0000
0000
0000
0000
0000
0100
0000
0000
0000
0000
0000
0000
0000
0010
0000
0000
0000
0000
0000
0000
0000
0100
0000
0000
0000
0000
0000
0000
0000
0001
0000
0000
0000
0000
0000
0000
0000
0000
0000
0000
0000
0000
0000
0000
0000
0000
0000
0000
0000
0000
0000
0000
0000
,
0010
0000
0000
0100
0000
1000
0004
0400
0000
0000
0000
0000
,
0000
0000
0000
0000
0000
0000
0000
0000
0303
0000
0000
0000
0000
0000
0000
0000
1001
0000
0000
0000
0000
0000
0000
0000
1000
0000
0000
0000
0000
0010
0000
0000
,
0100
0000
0000
0000
0000
0001
0000
0000
1000
0000
0000
0000
0000
0001
0000
0000
0010
0000
0000
0000
0000
0100
0000
0000
0010
0000
0000
0000
0000
0001
0000
0000
,
0010
0000
0000
0000
0000
0000
0000
0000
0000
0000
0000
0000
0000
0000
0000
0100
0000
0000
0000
0000
0000
0000
0000
0000
0010
0000
0000
0000
0000
0000
0000
0000
0000
0000
0000
0000
0000
0000
0000
0001
0000
0000
0000
0000
0000
0000
0000
0000
0100
0000
0000
0000
0000
0000
0000
0000
0010
0000
0000
0000
0000
0000
0000
0000
1000
0000
0000
0000
0000
0000
0000
0000
0001
0000
0000
0000
0000
0000
0000
0000
0010
0000
0000
0000
0000
0000
0000
0000
0100
0000
0000
0000
0000
0000
0000
0000
,
0000
0000
0000
4000
0000
0000
0000
0000
0000
0000
0000
0000
3100
0000
0010
0000
0001
0000
4000
0000
0000
0000
0000
0000
,
0000
0000
0000
0000
0000
0000
0000
0000
3010
0000
0000
0000
0000
0000
0000
0000
1001
0000
0000
0000
0000
0000
0000
0000
0000
0000
0000
0000
0000
1000
0000
0000
,
0010
0000
0000
0000
0000
1000
0000
0000
0100
0000
0000
0000
0000
0010
0000
0000
0100
0000
0000
0000
0000
1000
0000
0000
0001
0000
0000
0000
0000
0100
0000
0000
,
0010
0000
0000
0000
0000
0100
0000
0000
0001
0000
0000
0000
0000
0010
0000
0000
0100
0000
0000
0000
0000
0010
0000
0000
0000
0000
0000
0000
0000
0001
0000
0000
,
1000
0000
0000
0000
0000
0100
0000
0000
0010
0000
0000
0000
0000
0001
0000
0000
1000
0000
0000
0000
0000
0010
0000
0000
0000
0000
0000
0000
0000
0100
0000
0000
,
0001
0000
0000
0000
0000
0010
0000
0000
0000
0000
0000
0000
0000
0001
0000
0000
0100
0000
0000
0000
0000
0010
0000
0000
2000
0000
0000
0000
0000
0000
0000
0000
,
0000
0000
0000
0000
0000
0000
3010
0000
1000
0000
0000
0000
,
2002
0000
0000
0000
3003
0000
0000
0000
0000
0000
0000
0000
0000
1000
0000
0000
0001
0000
0000
0000
0000
0010
0000
0000
0000
0000
0000
0000
0000
0100
0000
0000
,
1000
0000
0000
0000
0000
0010
0000
0000
0000
0000
0000
0000
0000
0100
0000
0000
0001
0000
0000
0000
0000
0000
0100
0000
0000
0000
0000
0000
0010
0000
0000
0000
,
0100
0000
0000
0000
0000
0000
0000
0000
0000
0001
0000
0000
0000
0000
0000
0000
0000
0000
0000
0000
0000
0000
0000
0000
0000
0000
0000
0000
1000
0000
0000
0000
0000
0000
0000
0000
0000
0000
0000
0000
0000
0000
0000
0000
0000
0000
0000
0000
0001
0000
0000
0000
0000
0000
0000
0000
0000
0000
0000
0000
0000
0000
0000
0000
0000
0000
0000
0000
0000
0000
0000
0000
0101
0000
0000
0000
0000
0000
0000
0000
0000
0000
0000
0000
0000
0000
0000
0000
0000
0000
0000
0000
0000
0000
0000
0000
,
0000
0000
0000
0000
0000
0000
0000
0000
0000
0000
0000
0000
0000
0001
0000
0000
0100
0000
0000
0000
0000
0001
0000
0000
1000
0000
0000
0000
0000
0010
0000
0000
,
0100
0000
0000
0000
0000
0010
0000
0000
1000
0000
0000
0000
0000
0010
0000
0000
0100
0000
0000
0000
0001
0000
0000
0000
1000
0000
0000
0000
0100
0000
0000
0000
,
0010
0001
1000
0010
1000
0100
0010
0001
,
0100
0010
1000
0000
1000
0010
0100
0001
,
0100
0001
1000
0010
1000
0100
1000
0100
,
0010
0001
0010
0001
0100
0010
0100
0010
,
1000
0001
1000
0001
1000
0000
0000
0000
,
0001
1000
0001
0000
0100
0010
0100
0001
,
0100
0010
0100
0001
0010
0100
0010
0001
,
0100
0000
0000
0000
0000
0000
0001
0000
0000
0000
0000
0000
0010
0000
0000
0000
0000
0000
0000
0000
0100
0000
0000
0000
0010
0000
0000
0000
0000
0000
0000
0000
0000
0100
0000
0000
0000
0000
0000
0000
0000
0000
0001
0000
0000
0000
0000
0000
,
0000
0000
0000
0100
0000
0000
0010
0000
0000
1000
0000
0000
1000
0000
0000
0000
0001
0000
0100
0000
0000
0000
0010
0000
,
1000
0000
0001
0100
0000
0010
1000
0000
0001
0100
0000
0010
,
1000
0000
0000
0000
0100
0000
0010
0000
0000
0000
0001
0000
0100
0000
0000
0010
0000
0000
0100
0000
0000
0001
0000
0000
,
0100
0010
1000
0100
0010
0001
0100
0010
,
1000
0001
0010
0001
0100
0001
1000
0010
,
1000
0000
0001
1000
0100
0010
0100
0010
,
0100
0010
0001
0000
0101
0000
1001
0000
,
1001
0000
0000
0000
;

//--------------- dance-single - ----------------
#NOTES:
     dance-single:
     :
     Challenge:
     13:
     0,0,0,0,0:
0000
0000
0000
0000
0000
0000
0000
0000
0000
0000
0000
0000
0000
0000
0000
0000
0000
0000
0000
0000
0000
0000
0000
0000
0000
0000
0000
0000
0000
0000
1000
0001
,
1000
0000
0001
1000
,
0001
0000
0010
0000
0001
0000
0010
0000
0001
0000
0000
0000
0100
0000
0000
0000
0000
0000
0000
0000
0000
0000
0000
0000
0000
0000
0000
0000
0000
0000
0001
0100
,
0001
0000
1000
0010
,
1000
0000
0001
0000
1000
0000
0010
0000
0000
0000
0000
0000
0000
0000
0000
0000
0000
0000
0000
0000
0000
0000
0000
0000
0000
0000
0000
0000
0000
0000
1000
0100
,
1000
0000
1000
0010
,
1000
0000
0100
0000
0010
0000
0001
0000
0000
0000
1000
0000
0000
0000
0000
0000
0000
0000
0000
0000
0000
0000
0000
0000
0000
0000
0000
0000
0000
0000
0001
1000
,
0001
0000
0100
0010
,
1000
0001
1000
0001
1000
0000
0000
0000
0000
0000
0000
0000
0000
0001
0000
0000
1001
0000
0000
0000
0000
0000
0000
0000
0000
0000
0000
0000
0000
0000
0000
0000
,
0011
0000
0000
0000
0000
0000
0000
0000
0000
0000
0000
0000
0000
0000
1000
0100
1000
0000
0000
0000
0000
0000
0000
0000
0001
0000
0000
0000
0000
0000
0000
0000
,
1000
0000
0000
0000
0000
0000
0000
0000
0000
0000
0000
0000
0000
0000
0000
0000
0000
0000
0000
0000
0000
0000
0001
0100
0001
0000
0000
0000
0000
0000
0000
0000
,
0100
0000
0000
0010
0000
0000
1000
0000
0000
0001
1000
0000
,
0000
0000
0000
0000
0000
0000
1000
0001
0000
0000
0000
0000
0000
0000
0000
0000
0000
0000
0000
0000
0000
0000
0000
0000
,
1000
0100
0010
0001
1000
0100
0010
0001
,
0100
0000
0010
0000
1000
0000
0001
0000
1000
0010
1000
0000
0010
0000
0100
0001
,
0100
0000
0010
0000
1000
0000
0001
0000
1000
0100
1000
0000
0010
0000
0100
0000
,
0001
0000
0010
0000
0100
0000
1000
0000
0001
0100
0001
0000
0010
0000
0100
0000
,
1000
0000
0000
0010
0000
0000
1000
0000
0000
0000
0000
0000
0010
0000
0000
0000
0000
0000
0100
0000
0000
0000
0000
0000
0001
0000
0000
0000
0100
0000
0000
0000
0010
0000
0000
0000
1000
0000
0000
0000
0000
0000
0000
0000
0000
0000
0000
0000
,
0100
0000
0010
0000
0001
0000
1000
0000
0001
0100
0010
0100
0001
0000
1000
0000
,
0001
0100
0010
1000
0001
0000
0010
0000
0100
1000
0010
1000
0001
0000
0010
0000
,
0011
0000
0000
0000
0000
0000
0010
0001
0010
0000
0001
0000
0000
0000
1000
0000
,
0001
0000
1000
0000
0100
0000
0010
0000
0001
1000
0001
1000
0001
0000
0010
0000
,
0100
0000
1000
0000
0010
0000
0100
0000
0001
0010
0001
0000
0100
0000
0010
1000
,
0010
0000
0100
0000
0001
0000
1000
0000
0001
0010
0001
0000
1000
0000
0010
0100
,
0010
0000
1000
0000
0001
0000
0010
0000
0100
1000
0100
0000
0010
0000
0001
0000
,
1000
0000
0000
0010
0000
0000
1000
0000
0000
0000
0000
0000
0010
0000
0000
0000
0000
0000
0100
0000
0000
0000
0000
0000
0001
0000
0000
0000
1000
0000
0000
0000
0010
0000
0000
0000
0100
0000
0000
0000
0000
0000
0000
0000
0000
0000
0000
0000
,
1000
0000
0100
0000
0010
0000
0001
0000
1000
0010
1000
0010
0100
0000
0001
0000
,
0010
0000
1000
0001
1000
0000
0010
0000
1000
0001
1000
0000
0010
0000
0100
0000
,
0101
0000
0000
0000
0000
0000
1000
0010
1000
0000
0001
0000
0000
0000
0000
0000
,
0001
1000
0100
0001
0100
1000
0010
0100
,
0010
0010
0000
1000
0100
0001
0100
1000
,
0010
0000
0010
0000
0000
0000
0000
1000
0001
0000
0010
0000
0100
0000
1000
0000
,
0010
0000
0100
0000
0001
0000
0010
0000
0100
1000
0100
0010
0001
0000
1000
0010
,
0100
0001
1000
0000
0001
0000
0100
0000
0010
0000
1000
0000
0100
0000
0010
0000
,
0001
0000
0002
0000
0003
0000
1000
0000
0001
0010
0001
0000
1000
0100
1000
0000
,
0001
1000
0001
0000
1000
0100
1000
0000
0001
0010
0100
1000
0010
0100
0001
0010
,
0100
0000
0000
2000
0000
0000
3000
0000
0000
0000
0000
0000
0001
0000
0100
0000
0010
0000
0100
0000
0000
0000
0000
0000
,
0000
0000
0001
0000
1000
0100
0010
0001
0100
0010
1000
0001
1000
0100
0010
0100
,
1000
0000
0010
0000
0100
0000
0001
0000
1000
0100
1000
0000
0010
0000
0100
0001
,
0100
0000
0010
0000
1000
0000
0001
0000
1000
0100
1000
0000
0010
0000
0100
0001
,
1000
0000
0010
0000
0100
0000
0001
0000
1000
0100
0010
0000
0001
0000
0100
0000
,
0010
0000
0000
1000
0000
0000
0010
0000
0000
0000
0000
0000
0100
0000
0000
0000
0000
0000
0001
0000
0000
0000
0000
0000
1000
0000
0000
0000
0001
0000
0000
0000
1000
0000
0000
0000
0001
0000
0000
0000
0000
0000
0100
0000
0000
0000
0000
0000
,
0001
1000
0010
0001
0010
0100
0001
1000
,
0001
0010
0100
1000
0010
0000
0100
0000
0001
0010
0100
1000
0010
0100
0001
0010
,
0100
0000
0000
0000
0000
0000
0000
0000
0000
0000
0000
0000
0000
0000
0000
0000
0000
0000
1000
0000
0000
0010
0000
0000
0100
0000
0000
0000
0000
0000
0001
0000
0000
0000
0000
0000
0000
0000
0000
0000
0000
0000
0000
1000
0000
0000
0000
0000
,
0000
0001
0000
0000
0000
0000
0000
0000
0100
0000
0000
0000
0000
0000
0000
0000
0020
0000
0000
0000
0000
0000
0000
0000
0000
0000
0000
0000
0000
0000
0000
0000
2030
0000
0000
0000
0000
0000
0000
0000
0000
0000
0000
0000
0000
0000
0000
0000
3001
0000
0000
0000
0000
0000
0000
0000
0000
0000
0000
0000
0000
0000
0000
0000
,
1001
0000
0000
0000
1000
0000
0000
0001
1000
0000
0000
0000
0010
0000
1001
0000
,
0000
0000
0000
0000
0000
0000
0000
0000
0000
0000
0001
0000
1000
0000
0000
0000
0000
0000
0000
0000
0000
0000
0000
0000
0010
0000
0000
0100
0000
0000
0010
0000
0000
1000
0000
0000
0001
0000
0000
0010
0000
0000
0001
0000
0000
1000
0000
0000
,
0001
0000
0000
0000
1000
0000
0000
0001
1000
0000
0000
0000
0001
0000
0000
0011
,
0000
0000
0100
0010
0001
0100
0001
0101
,
0000
0000
0000
0000
1000
0010
0100
0001
1000
0000
0000
0000
0001
0000
0010
0100
,
1000
0010
0100
0000
0000
0000
0000
0000
0001
0100
0010
1000
0100
0000
0010
0000
,
0001
0000
0000
0000
1000
0100
0010
0100
1000
0000
0000
0000
0000
0000
0000
0000
,
1000
0001
0200
0000
0320
0000
2030
3000
,
1001
0000
0001
0000
1001
0000
0100
1100
,
0000
0000
0000
0000
0000
0000
0000
0000
0000
0000
1000
0000
0001
0000
0000
0000
0000
0000
0000
0000
0000
0000
0000
0000
0010
0000
0000
0100
0000
0000
0001
0000
0000
1000
0000
0000
0100
0000
0000
0010
0000
0000
0100
0000
0000
1000
0000
0000
,
0001
0000
1000
0000
1010
0000
1000
1001
,
0000
0000
0000
0000
1000
0100
0010
0000
0001
0010
0100
0000
1000
0000
0000
0001
,
0000
0000
0000
0000
0001
0010
0100
0000
2000
0000
3100
0010
0001
0000
0000
0000
,
1000
0010
0100
0001
0000
0000
0000
0000
1000
0100
0010
0000
0000
0000
0000
0001
,
0010
0000
0000
0000
0000
0000
0100
0000
0000
0000
0000
0000
0000
0000
0000
0000
0000
0000
0000
0000
0000
0000
0000
0000
0000
0000
0000
0000
1000
0000
0000
0000
0000
0100
0000
0000
0000
0000
0010
0000
0000
0000
0000
0001
0000
0000
0000
0000
1000
0000
0000
0000
0000
0000
0000
0000
0000
0000
0000
0000
0000
0000
0000
0000
0100
0000
0000
0000
0000
0000
0000
0000
0000
0000
0000
0000
0000
0000
0000
0000
1000
0000
0000
0000
0000
0000
0000
0000
0000
0000
0000
0000
0000
0000
0000
0000
,
1001
0000
0110
0000
1010
1000
0010
1000
,
0010
0000
0100
0000
0001
0000
0010
0000
0001
0100
0001
0000
0010
0000
0001
0000
,
0100
0010
0100
0000
0010
0000
1000
0000
0001
0100
0001
0000
0010
0000
0001
0100
,
0001
0000
0000
0000
0010
0000
0100
0000
0000
0000
0000
0000
1100
0000
0000
1000
0000
0000
0010
0000
0000
0100
0000
0000
,
0001
0000
1000
0000
0100
0000
0010
0000
0001
0100
0010
1000
0001
0000
0100
0000
,
0010
0000
1000
0000
0001
0100
0001
0000
0100
0010
0100
0000
0001
0000
0010
0000
,
0100
1000
0100
0000
0010
0001
0010
0000
0100
0000
0010
0000
0001
0000
0000
0000
,
1000
0000
0100
0000
0010
0000
0001
0000
0000
0000
0000
0000
1001
0000
0000
0000
0000
0000
0001
0000
0000
0010
0000
0000
,
0100
1000
0010
0100
0001
0010
0100
1000
,
0001
0100
0010
1000
0001
0010
0001
1000
0100
0010
0100
1000
0001
0000
0000
0000
,
1000
0000
0000
0010
0000
0000
0100
0000
0000
0001
0000
0000
1000
0000
0000
0100
0000
0000
0010
0000
0000
0001
0000
0000
1000
0000
0000
0000
0000
0000
0000
0000
0001
0000
0000
0000
0000
0000
0000
0000
0100
0000
0000
0000
0000
0000
0000
0000
,
0010
0000
1000
0000
0001
0000
1001
0000
1000
0000
0010
0000
,
1010
0000
0100
0000
0001
0100
0010
1000
,
0001
0000
0010
0000
0001
0010
0100
1000
0001
0100
0010
1000
0100
0010
0001
0100
,
0010
0000
0000
1000
0000
0000
0001
0000
0000
0010
0000
0000
0100
0000
0000
0000
0000
0000
1000
0000
0000
0000
0000
0000
0010
0000
0000
0000
0000
0000
0000
0000
0100
0000
0000
0000
0000
0000
0000
0000
0001
0000
0000
0000
0000
0000
0000
0000
,
1000
0000
0010
0000
0010
0000
0100
0000
0001
0000
0001
0000
,
1001
0000
0000
1000
0000
0000
0000
0000
0100
0000
0000
0000
1001
0000
0000
0000
,
0010
0000
0000
0000
0000
0000
0000
0000
0100
0000
0000
0000
0000
0010
0000
0000
0100
0000
0000
0000
0000
0001
0000
0000
0010
0000
0000
0000
0000
0100
0000
0000
,
0010
0000
0000
0000
0000
0000
0000
0000
0000
0000
0000
0000
0000
0000
0000
0001
0000
0000
0000
0000
0000
0000
0000
0000
0010
0000
0000
0000
0000
0000
0000
0000
0000
0000
0000
0000
0000
0000
0000
0001
0000
0000
0000
0000
0000
0000
0000
0000
0100
0000
0000
0000
0000
0000
0000
0000
0010
0000
0000
0000
0000
0000
0000
0000
0100
0000
0000
0000
0000
0000
0000
0000
0001
0000
0000
0000
0000
0000
0000
0000
0000
0000
0000
0000
0000
0000
0000
0000
0000
0000
0000
0000
0000
0000
0000
0000
,
0010
0000
0000
0100
0000
1000
0010
0100
0001
1000
0100
1000
,
0010
0000
0000
0000
0000
0000
0000
0000
0100
0000
0000
0000
0000
0000
0000
0000
0001
0000
0000
0000
0000
0000
0000
0000
1000
0000
0000
0000
0000
0000
0000
0000
0000
0000
0000
0000
0010
0000
0000
0000
0000
0000
0000
0000
0000
0000
0000
0000
1010
0000
0000
0000
0000
0000
0000
0000
0000
0000
0000
0000
0000
0000
0000
0000
0000
0000
0000
0000
0000
0000
0000
0000
1000
0000
0000
0000
0000
0000
0000
0000
0000
0000
0000
0000
0000
0000
0000
0010
0000
0000
0000
0000
0000
0000
0000
0000
,
0100
0000
0000
0000
0000
0001
0000
0000
1000
0000
0000
0000
0000
0001
0000
0000
0010
0000
0000
0000
0000
0100
0000
0000
0010
0000
0000
0000
0000
0001
0000
0000
,
0010
0000
0000
0000
0000
0000
0000
0000
0000
0000
0000
0000
0000
0000
0000
0100
0000
0000
0000
0000
0000
0000
0000
0000
0010
0000
0000
0000
0000
0000
0000
0000
0000
0000
0000
0000
0000
0000
0000
0001
0000
0000
0000
0000
0000
0000
0000
0000
0100
0000
0000
0000
0000
0000
0000
0000
0010
0000
0000
0000
0000
0000
0000
0000
1000
0000
0000
0000
0000
0000
0000
0000
0001
0000
0000
0000
0000
0000
0000
0000
0010
0000
0000
0000
0000
0000
0000
0000
0100
0000
0000
0000
0000
0000
0000
0000
,
0000
0000
0000
0000
0000
0000
1000
0000
0000
0100
0000
0000
1000
0000
0000
0100
0000
0000
1000
0000
0000
0100
0000
0000
0010
0000
0000
0000
0100
0000
0000
0000
0010
0000
0000
0000
0001
0000
0000
0100
0000
0000
0010
0000
0000
1000
0000
0000
,
0001
0000
0000
0000
0000
0000
0010
0000
0000
0000
0000
0000
0001
0000
0000
0000
0000
0000
1000
0000
0000
0000
0000
0000
0001
0000
0000
0000
0000
0000
0000
0000
1000
0000
0000
0000
0000
0000
0000
0000
0000
0000
0000
0000
0000
0000
0000
0000
1001
0000
0000
0000
0000
0000
0000
0000
0000
0000
0000
0000
0000
0000
0000
0000
0000
0000
0000
0000
0000
0000
0000
0000
0000
0000
0000
0000
0000
0000
0000
0000
0000
0000
0000
0000
0000
0000
0000
1000
0000
0000
0000
0000
0000
0000
0000
0000
,
0010
0000
0000
0000
0000
1000
0000
0000
0100
0000
0000
0000
0000
0010
0000
0000
0100
0000
0000
0000
0000
1000
0000
0000
0001
0000
0000
0000
0000
0100
0000
0000
,
0010
0000
0000
0000
0000
0100
0000
0000
0001
0000
0000
0000
0000
0010
0000
0000
0100
0000
0000
0000
0000
0010
0000
0000
0000
0000
0000
0000
0000
0001
0000
0000
,
1000
0000
0000
0000
0000
0100
0000
0000
0010
0000
0000
0000
0000
0001
0000
0000
1000
0000
0000
0000
0000
0010
0000
0000
0000
0000
0000
0000
0000
0100
0000
0000
,
0001
0000
0000
0000
0000
0000
0000
0000
0000
0000
0000
0000
0000
0000
0000
0010
0000
0000
0000
0000
0000
0000
0000
0000
0000
0000
0000
0000
0000
0000
0000
0000
0000
0000
0000
0000
0000
0000
0000
0001
0000
0000
0000
0000
0000
0000
0000
0000
0100
0000
0000
0000
0000
0000
0000
0000
0000
0000
0000
0000
0000
0000
0000
0010
0000
0000
0000
0000
0000
0000
0000
0000
1000
0000
0000
0000
0000
0000
0000
0000
0100
0000
0000
0000
0000
0000
0000
0000
1000
0000
0000
0000
0000
0000
0000
0000
,
0001
0100
0010
0100
0001
1000
0010
0000
1000
0000
0000
0000
,
2002
0000
0000
0000
3003
0000
0000
0000
0000
0000
0000
0000
0000
1000
0000
0000
0001
0000
0000
0000
0000
0010
0000
0000
0000
0000
0000
0000
0000
0100
0000
0000
,
1000
0000
0000
0000
0000
0010
0000
0000
0000
0000
0000
0000
0000
0100
0000
0000
0001
0000
0000
0000
0000
0000
0100
0000
0000
0000
0000
0000
0010
0000
0000
0000
,
0100
0000
0000
0000
0000
0000
0000
0000
0000
0001
0000
0000
0000
0000
0000
0000
0000
0000
0000
0000
0000
0000
0000
0000
0000
0000
0000
0000
1000
0000
0000
0000
0000
0000
0000
0000
0000
0000
0000
0000
0000
0000
0000
0000
0000
0000
0000
0000
1001
0000
0000
0000
0000
0000
0000
0000
0000
0000
0000
0000
0000
0000
0000
0000
0000
0000
0000
0000
0000
0000
0000
0000
0101
0000
0000
0000
0000
0000
0000
0000
0000
0000
0000
0000
0000
0000
0000
0000
0000
0000
0000
0000
0000
0000
0000
0000
,
0000
0000
0000
0000
0000
0000
0000
0000
0000
0000
0000
0000
0000
0001
0000
0000
0100
0000
0000
0000
0000
0001
0000
0000
1000
0000
0000
0000
0000
0010
0000
0000
,
0100
0000
0000
0000
0000
0000
0000
0000
0000
0000
0000
0000
0000
0000
0000
0010
0000
0000
0000
0000
0000
0000
0000
0000
1000
0000
0000
0000
0000
0000
0000
0000
0000
0000
0000
0000
0000
0000
0000
0010
0000
0000
0000
0000
0000
0000
0000
0000
0100
0000
0000
0000
0000
0000
0000
0000
0000
0000
0000
0000
0001
0000
0000
0000
0000
0000
0000
0000
0000
0000
0000
0000
1000
0000
0000
0000
0000
0000
0000
0000
0100
0000
0000
0000
0000
0000
0000
0000
0010
0000
0000
0000
0000
0000
0000
0000
,
0001
0010
0100
1000
0010
0100
0001
0010
0100
1000
0010
0100
,
0001
0000
1000
0000
0001
0000
1000
0000
0001
0000
0000
0000
1000
0000
0000
0010
0000
0000
0100
0000
0000
0001
0000
0000
,
0100
0000
0000
0001
0000
0000
0010
0000
0100
0000
1000
0000
0001
0000
0010
0000
0001
0000
1000
0000
0100
0000
1000
0000
,
0001
0100
0001
1000
0010
1000
0001
0010
0100
1000
0010
0100
,
0001
0000
0000
0000
0000
0000
0000
0000
0000
0000
0000
0000
0000
0000
0000
0000
0010
0000
0000
0000
0000
0000
0000
0000
0000
0000
0000
0000
0000
0000
0000
0000
0100
0000
0000
0000
0000
0000
0000
0000
0000
0000
0000
0000
0000
0000
0000
0000
1000
0000
0000
0000
0000
0000
0000
0000
0000
0000
0000
0000
0000
0000
0000
0000
0100
0000
0000
0000
0000
0000
0000
0000
0000
0000
0000
0000
0000
0000
0000
0000
0010
0000
0000
0000
0000
0000
0000
0000
0000
0000
0000
0000
0000
0000
0000
0000
0001
0000
0000
0000
0000
0000
0000
0000
0000
0000
0000
0000
0000
0000
0000
0000
0000
0000
0000
0000
0100
0000
0000
0000
0000
0000
0000
0000
0000
0000
0000
0000
0000
0000
0000
0000
0000
0000
0010
0000
0000
0000
0000
0000
0000
0000
0000
0000
0000
0000
0000
0000
0000
0000
0000
0000
0100
0000
0000
0000
0000
0000
0000
0000
0000
0000
0000
0000
0000
0000
0000
0000
0000
0000
0000
0010
0000
0000
0000
0000
0000
0000
0000
0000
0000
0000
0000
0000
0000
0000
0000
0000
0000
0000
0000
0000
,
0100
0000
0000
0001
0000
0000
1000
0000
0001
0000
0000
0000
1000
0000
0100
0000
0010
0000
0001
0000
0100
0000
0010
0000
,
1000
0100
0010
0001
0100
0010
1000
0100
0010
0001
0100
0010
,
1000
0000
0000
0000
0100
0000
0000
0000
0010
0000
0000
0000
0001
0000
0000
0000
0000
0000
0000
0000
0100
0000
0000
0000
0010
0000
0000
0000
0000
0000
0000
0000
0000
0100
0000
0000
0000
0000
0000
0000
0000
0000
0001
0000
0000
0000
0000
0000
,
0000
0000
0000
0000
0000
0000
0100
0000
0000
0000
0000
0000
0010
0000
0000
1000
0000
0000
0001
0000
0000
0000
0000
0000
1000
0000
0000
0000
0000
0000
0000
0000
0001
0000
0000
0000
0100
0000
0000
0000
0000
0000
0000
0000
0010
0000
0000
0000
,
1000
0000
0001
0100
0000
0010
1000
0000
0001
0100
0000
0010
,
1000
0000
0100
0010
0000
0001
1000
0100
0010
0001
0010
0100
,
1000
0010
0100
0001
0010
0100
1000
0010
0100
0001
1000
0010
,
0100
0001
0010
0100
1000
0001
1000
0100
0010
0001
1000
0001
,
1000
0001
0010
0100
1000
0010
0100
0001
0100
0010
0100
0001
,
0010
0100
0010
0001
0000
0000
0101
0000
0000
1001
0000
0000
,
1001
0000
0000
0000
;

//--------------- dance-single - Index ----------------
#NOTES:
     dance-single:
     Index:
     Edit:
     19:
     1,1,1,0,1,2452,330,0,0,25,0,1,1,1,0,1,2452,330,0,0,25,0:
0000
0000
0000
0000
0000
0000
0000
0000
0000
0000
0000
0000
0000
0000
0000
0000
0000
0000
0000
0000
0000
0000
0000
0000
0000
0000
0000
0000
0000
0000
1000
0001
,
1000
0000
0001
1000
,
0001
0000
0010
0000
0001
0000
0010
0000
0001
0000
0000
0000
0100
0000
0000
0000
0000
0000
0000
0000
0000
0000
0000
0000
0000
0000
0000
0000
0000
0000
0001
0100
,
0010
0000
1000
0010
,
1000
0000
0001
0000
1000
0000
0010
0000
0000
0000
0000
0000
0000
0000
0000
0000
0000
0000
0000
0000
0000
0000
0000
0000
0000
0000
0000
0000
0000
0000
1000
0100
,
1000
0000
1000
0010
,
1000
0000
0100
0000
0010
0000
0001
0000
0000
0000
1000
0000
0000
0000
0000
0000
0000
0000
0000
0000
0000
0000
0000
0000
0000
0000
0000
0000
0000
0000
0001
1000
,
0001
0000
0100
0010
,
1000
0001
1000
0001
1000
0000
0000
0000
0000
0000
0000
0000
0000
0001
0000
0000
1001
0000
0000
0000
0000
0000
0000
0000
0000
0000
0000
0000
0000
0000
0000
0000
,
0011
0000
0000
0000
0000
0000
0000
0000
0000
0000
0000
0000
0000
0000
1000
0100
1000
0000
0000
0000
0000
0000
0000
0000
0001
0000
0000
0000
0000
0000
0000
0000
,
1000
0000
0000
0000
0000
0000
0000
0000
0000
0000
0000
0000
0000
0000
0000
0000
0000
0000
0000
0000
0000
0000
0001
0100
0001
0000
0000
0000
0000
0000
0000
0000
,
0100
0000
0000
0010
0000
0000
1000
0000
0000
0001
1000
0000
,
0000
0000
0000
0000
0000
0000
1000
0001
0000
0000
0000
0000
0000
0000
0000
0000
0000
0000
0000
0000
0000
0000
0000
0000
,
1000
0100
0010
0001
1000
0010
0100
0001
1000
0100
0010
0001
1000
0010
0100
0001
,
1000
0100
1000
0001
0100
0010
1000
0001
1000
0100
0010
0001
0010
0100
1000
0010
,
0100
0001
1000
0010
1000
0100
0010
0001
0100
0010
1000
0100
1000
0001
1000
0100
,
0010
0001
0100
0010
1000
0100
0010
0001
1000
0010
0100
0001
0010
0100
1000
0010
,
0100
0000
0000
0001
0000
0000
0010
0000
0000
0100
0000
0000
1000
0000
0000
0010
0000
0000
0100
0000
0000
0001
0000
0000
1000
0000
0000
0000
0100
0000
0000
0000
0010
0000
0000
0000
0001
0000
0000
0000
0000
0000
0000
0000
0000
0000
0000
0000
,
0100
0000
0010
1000
0100
0010
0001
0100
0010
1000
0100
0010
0100
1000
0001
0100
,
0010
1000
0001
0010
0100
1000
0100
0010
0001
0100
0010
1000
0001
0010
0001
0000
,
2000
0000
3000
0000
0000
0000
0010
0001
0010
0000
0001
0000
0000
0000
1000
0000
,
0001
0000
1000
0010
0100
0001
1000
0100
1000
0010
0100
0001
1000
0010
0100
0001
,
1000
0100
0010
0001
0010
0100
1000
0001
1000
0010
0100
0001
0100
0010
1000
0100
,
0010
0001
0010
0100
1000
0010
0100
0001
1000
0100
0010
0001
0100
0010
1000
0100
,
0010
0100
1000
0001
0100
0010
1000
0001
1000
0100
0010
0001
0010
0100
1000
0001
,
0100
0000
0000
0010
0000
0000
1000
0000
0000
0001
0000
0000
0010
0000
0000
0100
0000
0000
0010
0000
0000
0001
0000
0000
0100
0000
0000
0000
0001
0000
0000
0000
0010
0000
0000
0000
0100
0000
0000
0000
0000
0000
0000
0000
0000
0000
0000
0000
,
1000
0000
0001
0100
0010
1000
0100
0010
0100
1000
0001
0100
0010
0100
0001
0010
,
0001
1000
0001
0010
0100
1000
0010
0100
0001
0010
0100
1000
0010
0100
0001
1000
,
0001
0000
0000
0000
0000
0000
1000
0100
1000
0000
0001
0000
0000
0000
0000
0000
,
0001
0000
1000
0100
0010
0001
0100
0010
1000
0100
0010
0001
0100
0010
1000
0000
,
0010
0000
0200
0000
0300
0000
0001
1000
0100
1000
0001
0010
0100
1000
0010
0100
,
0001
0000
0020
0000
0030
0000
0000
0001
1000
0001
1000
0010
0100
0001
1000
0100
,
0010
0001
1000
0010
0100
0001
0010
0100
1000
0010
1000
0010
0100
0000
0001
0010
,
0001
0100
0001
0000
0010
0100
1000
0010
0100
0001
0010
0100
1000
0001
0100
0010
,
1000
0000
0002
0000
0003
0000
1000
0000
0100
0010
0100
1000
0010
1000
0001
0100
,
0001
1000
0010
0100
0001
1000
0100
1000
0001
0010
0100
1000
0010
1000
0001
0100
,
0001
0000
0000
2000
0000
0000
3000
0000
0000
0000
0000
0000
0001
0000
0100
0000
0010
0000
0100
0000
0000
0000
0000
0000
,
0000
0000
0001
0000
0100
0010
0100
0001
0010
0001
1000
0010
0100
0001
0010
0100
,
1000
0010
0100
0001
0010
0100
1000
0010
0100
0001
0100
0001
0010
0100
1000
0010
,
1000
0100
0010
0001
1000
0010
0100
0001
1000
0100
0010
0100
1000
0001
0010
0100
,
1000
0010
0100
0001
0010
0100
1000
0010
1000
0100
1000
0010
0100
0001
0010
0100
,
1000
0000
0000
0001
0000
0000
0100
0000
0000
0010
0000
0000
0100
0000
0000
0001
0000
0000
1000
0000
0000
0100
0000
0000
0010
0000
0000
0000
0001
0000
0000
0000
1000
0000
0000
0000
0001
0000
0000
0000
0000
0000
0100
0000
0000
0000
0000
0000
,
0001
0000
0010
0100
1000
0001
0100
0010
1000
0001
0010
0100
0010
0000
0001
0000
,
1000
0010
0100
0001
0010
0000
0100
0000
1000
0010
1000
0100
0010
0001
0100
0010
,
1000
0000
0000
0000
0000
0000
0000
0000
0000
0000
0000
0000
0000
0000
0000
0000
0000
0000
1000
0000
0000
0010
0000
0000
0100
0000
0000
0000
0000
0000
0001
0000
0000
0000
0000
0000
0000
0000
0000
0000
0000
0000
0000
1000
0000
0000
0000
0000
,
0000
0001
0000
0000
0000
0000
0000
0000
0100
0000
0000
0000
0000
0000
0000
0000
0010
0000
0000
0000
1000
0000
0000
0000
0100
0000
0000
0000
0010
0000
0000
0000
0001
0000
0000
0000
1000
0000
0000
0000
0010
0000
0000
0000
0100
0000
0000
0000
0001
0000
0000
0000
0100
0000
0000
0000
0010
0000
0000
0000
1000
0000
0000
0000
,
0001
0000
0000
0000
1000
0000
0000
0001
1000
0000
0000
0000
0010
0000
1001
0000
,
0000
0000
0000
0000
0000
0000
0000
0000
0000
0000
0001
0000
1000
0000
0000
0000
0000
0000
0000
0000
0000
0000
0000
0000
0010
0000
0000
0100
0000
0000
0010
0000
0000
1000
0000
0000
0001
0000
0000
0010
0000
0000
0001
0000
0000
1000
0000
0000
,
0001
0000
0000
0000
1000
0000
0000
0001
1000
0000
0000
0000
0001
0000
0000
0101
,
0000
0000
0000
1000
0100
0010
0001
0100
0010
1000
0100
1000
0001
0000
0100
0000
,
0000
0000
0000
0010
1000
0010
0100
0001
1000
0000
0000
0000
0001
0000
0010
0100
,
1000
0010
0100
0001
0000
0000
0000
0000
1000
0100
0010
0001
0100
0010
1000
0000
,
0001
0000
0000
0000
1000
0100
0010
0100
1000
0000
0000
0000
0000
0000
0000
0000
,
1000
0000
0001
0000
0100
0010
0100
0001
1000
0100
0010
0100
1000
0001
0100
0010
,
1000
0000
0000
0000
0001
0000
0000
0010
0100
0000
0000
0000
0100
0000
1100
0000
,
0000
0000
0000
0000
0000
0000
0000
0000
0000
0000
1000
0000
0001
0000
0000
0000
0000
0000
0000
0000
0000
0000
0000
0000
0010
0000
0000
0100
0000
0000
0001
0000
0000
1000
0000
0000
0100
0000
0000
0010
0000
0000
0100
0000
0000
1000
0000
0000
,
0001
0000
0000
0000
1000
0000
0000
0100
1000
0000
0000
0000
1000
0000
1001
0000
,
0000
0000
0000
1000
0010
0100
0001
1000
0100
0010
0100
1000
0001
0100
0010
0100
,
0000
0000
0000
0000
0001
0010
0100
0000
2000
0000
3100
0010
0001
0000
0000
0000
,
1000
0010
0100
0001
0000
0000
0000
0000
1000
0100
0010
0000
0000
0000
0000
0001
,
0010
0000
0000
0000
0000
0000
0100
0000
0000
0000
0000
0000
0000
0000
0000
0000
0000
0000
0000
0000
0000
0000
0000
0000
0000
0000
0000
0000
1000
0000
0000
0000
0000
0100
0000
0000
0000
0000
0010
0000
0000
0000
0000
0001
0000
0000
0000
0000
1000
0000
0000
0000
0000
0000
0000
0000
0000
0000
0000
0000
0000
0000
0000
0000
0100
0000
0000
0000
0000
0000
0000
0000
0000
0000
0000
0000
0000
0000
0000
0000
1000
0000
0000
0000
0000
0000
0000
0000
0000
0000
0000
0000
0000
0000
0000
0000
,
1001
0000
0000
0000
0110
0000
0000
0000
1010
0000
1000
0100
1000
0010
1000
0100
,
0010
0001
0100
0010
1000
0001
0010
0100
1000
0010
0100
0001
1000
0100
0010
0001
,
1000
0010
0100
0001
1000
0100
0010
0001
1000
0100
0010
0100
1000
0010
1000
0100
,
1000
0000
0000
0000
0000
0000
0000
0000
0010
0000
0000
0000
0100
0000
0000
0000
0000
0000
0000
0000
0000
0000
0000
0000
0101
0000
0000
0000
0000
0000
0000
0000
0000
0001
0000
0000
0100
0000
0000
0010
0000
0000
1000
0000
0000
0100
0000
0000
,
0010
0001
0100
0010
1000
0001
0010
0100
1000
0100
0010
0001
0100
0010
1000
0100
,
0010
0001
0100
0010
1000
0100
1000
0001
0010
0100
1000
0010
0100
0001
1000
0100
,
0010
0100
1000
0001
0100
0010
0100
0001
0010
0001
1000
0100
1000
0001
0100
0001
,
1000
0000
0000
0000
0100
0000
0000
0000
0010
0000
0000
0000
0001
0000
0000
0000
0000
0000
0000
0000
0000
0000
0000
0000
1100
0000
0000
0000
0000
0000
0000
0000
0000
0000
0000
0000
0010
0000
0000
0001
0000
0000
0100
0000
0000
0010
0000
0000
,
1000
0001
0010
0100
0010
0001
1000
0010
0100
0001
1000
0100
0010
0100
1000
0001
,
1000
0100
0010
0001
0100
0010
1000
0100
0010
0001
0100
0010
1000
0001
0000
0000
,
0001
0000
0000
0000
0000
0000
0010
0000
0000
0000
0000
0000
0100
0000
0000
0000
0000
0000
1000
0000
0000
0000
0000
0000
0001
0000
0000
0000
0000
0000
0100
0000
0000
0000
0000
0000
0010
0000
0000
0000
0000
0000
1000
0000
0000
0000
0000
0000
0001
0000
0000
0000
0000
0000
0000
0000
0000
0000
0000
0000
0000
0000
0100
0000
0000
0000
0000
0010
0000
0000
0000
0000
1000
0000
0000
0000
0000
0000
0000
0000
0001
0000
0000
0000
0000
0000
0000
0000
0000
0000
0010
0000
0000
0000
0000
0100
,
0000
0000
0000
0000
0000
0000
0000
0000
0000
0000
0000
0000
0000
0000
0000
0000
0000
0000
0000
0000
0000
0000
1000
0000
0000
0000
0000
0000
0000
0000
0000
0000
0000
0000
0000
0000
0000
0000
0000
0000
0000
0000
0000
0000
0000
0000
0000
0000
0000
0000
0000
0000
0000
0000
0000
0000
0000
0000
0000
0000
0001
0000
0000
0000
0000
0000
0000
0000
0000
0000
0000
0000
0000
0000
0000
0000
0000
0000
0000
0000
0000
0000
0000
0000
0000
0000
0000
0000
0000
0000
0000
0000
0000
0000
0000
1000
1001
0000
0000
0000
0000
0000
0000
0000
0000
0000
0000
0000
0000
0000
0000
0000
0000
0000
0000
0000
0000
0000
0000
0000
0000
0000
0000
0000
0000
0000
0000
0000
1000
0000
0000
0000
0000
0000
0000
0000
0000
0000
0000
0000
0000
0000
0000
0000
0000
0000
0000
0000
0000
0000
0000
0000
0000
0000
0000
0000
0000
0000
0000
0000
0010
0000
0000
0000
0000
0000
0000
0000
0000
0000
0000
0000
0000
0000
0000
0000
0000
0000
0000
0000
0000
0000
0000
0000
0000
0000
0000
0000
0000
0000
0000
0000
,
1010
0000
0000
0000
0100
0000
0000
0001
1000
0100
0010
0001
0100
0010
1000
0100
,
0010
0100
1000
0001
0100
0010
0100
0001
0010
0001
1000
0010
0100
0001
0010
0001
,
0100
0000
0000
0010
0000
0000
1000
0000
0000
0001
0000
0000
0010
0000
0000
0001
0000
0000
1000
0000
0000
0100
0000
0000
0010
0000
0000
0000
0000
0000
0000
0000
0100
0000
0000
0000
0000
0000
0000
0000
0100
0000
0000
0000
0000
0000
0000
0000
,
1000
0000
0010
0000
0010
0000
0100
0000
0001
0000
0001
0000
,
1001
0000
0000
1000
0000
0000
0000
0000
0100
0000
0000
0000
0110
0000
0000
0000
,
0010
0000
0000
0000
0000
0000
0000
0000
1000
0000
0000
0000
0000
0100
0000
0000
0010
0000
0000
0000
0000
0001
0000
0000
0010
0000
0000
0000
0000
0100
0000
0000
,
0010
0000
0000
0000
0000
0000
0000
0000
0000
0000
0000
0000
0000
0000
0000
0001
0000
0000
0000
0000
0000
0000
0000
0000
0010
0000
0000
0000
0000
0000
0000
0000
0000
0000
0000
0000
0000
0000
0000
0001
0000
0000
0000
0000
0000
0000
0000
0000
0100
0000
0000
0000
0000
0000
0000
0000
0010
0000
0000
0000
0000
0000
0000
0000
0100
0000
0000
0000
0000
0000
0000
0000
0001
0000
0000
0000
0000
0000
0000
0000
0000
0000
0000
0000
0000
0000
0000
0000
0000
0000
0000
0000
0000
0000
0000
0000
,
0010
0000
0000
0100
0000
1000
0010
0100
0001
1000
0100
1000
,
0010
0000
0000
0000
0000
0000
0000
0000
0100
0000
0000
0000
0000
0000
0000
0000
0001
0000
0000
0000
0000
0000
0000
0000
1000
0000
0000
0000
0000
0000
0000
0000
0000
0000
0000
0000
0010
0000
0000
0000
0000
0000
0000
0000
0000
0000
0000
0000
1010
0000
0000
0000
0000
0000
0000
0000
0000
0000
0000
0000
0000
0000
0000
0000
0000
0000
0000
0000
0000
0000
0000
0000
1000
0000
0000
0000
0000
0000
0000
0000
0000
0000
0000
0000
0000
0000
0000
0010
0000
0000
0000
0000
0000
0000
0000
0000
,
0100
0000
0000
0000
0000
0001
0000
0000
1000
0000
0000
0000
0000
0001
0000
0000
0010
0000
0000
0000
0000
0100
0000
0000
0010
0000
0000
0000
0000
0001
0000
0000
,
0010
0000
0000
0000
0000
0000
0000
0000
0000
0000
0000
0000
0000
0000
0000
0100
0000
0000
0000
0000
0000
0000
0000
0000
0010
0000
0000
0000
0000
0000
0000
0000
0000
0000
0000
0000
0000
0000
0000
0001
0000
0000
0000
0000
0000
0000
0000
0000
0100
0000
0000
0000
0000
0000
0000
0000
0010
0000
0000
0000
0000
0000
0000
0000
1000
0000
0000
0000
0000
0000
0000
0000
0001
0000
0000
0000
0000
0000
0000
0000
0010
0000
0000
0000
0000
0000
0000
0000
0100
0000
0000
0000
0000
0000
0000
0000
,
0000
0000
0000
0000
0000
0000
1000
0000
0000
0100
0000
0000
1000
0000
0000
0100
0000
0000
1000
0000
0000
0100
0000
0000
0010
0000
0000
0000
0100
0000
0000
0000
0010
0000
0000
0000
0001
0000
0000
0100
0000
0000
0010
0000
0000
1000
0000
0000
,
0001
0000
0000
0000
0000
0000
0010
0000
0000
0000
0000
0000
0001
0000
0000
0000
0000
0000
1000
0000
0000
0000
0000
0000
0001
0000
0000
0000
0000
0000
0000
0000
1000
0000
0000
0000
0000
0000
0000
0000
0000
0000
0000
0000
0000
0000
0000
0000
1001
0000
0000
0000
0000
0000
0000
0000
0000
0000
0000
0000
0000
0000
0000
0000
0000
0000
0000
0000
0000
0000
0000
0000
0000
0000
0000
0000
0000
0000
0000
0000
0000
0000
0000
0000
0000
0000
0000
1000
0000
0000
0000
0000
0000
0000
0000
0000
,
0010
0000
0000
0000
0000
1000
0000
0000
0100
0000
0000
0000
0000
0010
0000
0000
0100
0000
0000
0000
0000
1000
0000
0000
0001
0000
0000
0000
0000
0100
0000
0000
,
0010
0000
0000
0000
0000
0100
0000
0000
0001
0000
0000
0000
0000
0010
0000
0000
0100
0000
0000
0000
0000
0010
0000
0000
0000
0000
0000
0000
0000
0001
0000
0000
,
1000
0000
0000
0000
0000
0100
0000
0000
0010
0000
0000
0000
0000
0001
0000
0000
1000
0000
0000
0000
0000
0010
0000
0000
0000
0000
0000
0000
0000
0100
0000
0000
,
0001
0000
0000
0000
0000
0000
0000
0000
0000
0000
0000
0000
0000
0000
0000
0010
0000
0000
0000
0000
0000
0000
0000
0000
0000
0000
0000
0000
0000
0000
0000
0000
0000
0000
0000
0000
0000
0000
0000
0001
0000
0000
0000
0000
0000
0000
0000
0000
0100
0000
0000
0000
0000
0000
0000
0000
0000
0000
0000
0000
0000
0000
0000
0010
0000
0000
0000
0000
0000
0000
0000
0000
1000
0000
0000
0000
0000
0000
0000
0000
0100
0000
0000
0000
0000
0000
0000
0000
1000
0000
0000
0000
0000
0000
0000
0000
,
0001
0100
0010
0100
0001
1000
0010
0000
1000
0000
0000
0000
,
0100
0000
0000
0000
0010
0000
0000
0000
0100
0000
0000
0000
0000
0000
0000
0000
0000
0000
0000
0000
0000
0000
0000
0000
0000
0000
0000
0000
0000
0000
0000
0000
0000
0000
0000
0000
0000
0000
0000
1000
0000
0000
0000
0000
0000
0000
0000
0000
0001
0000
0000
0000
0000
0000
0000
0000
0000
0000
0000
0000
0000
0000
0000
0010
0000
0000
0000
0000
0000
0000
0000
0000
0000
0000
0000
0000
0000
0000
0000
0000
0000
0000
0000
0000
0000
0000
0000
0100
0000
0000
0000
0000
0000
0000
0000
0000
,
1000
0000
0000
0000
0000
0010
0000
0000
0000
0000
0000
0000
0000
0100
0000
0000
0001
0000
0000
0000
0000
0000
0100
0000
0000
0000
0000
0000
0010
0000
0000
0000
,
0100
0000
0000
0000
0000
0000
0000
0000
0000
0001
0000
0000
0000
0000
0000
0000
0000
0000
0000
0000
0000
0000
0000
0000
0000
0000
0000
0000
1000
0000
0000
0000
0000
0000
0000
0000
0000
0000
0000
0000
0000
0000
0000
0000
0000
0000
0000
0000
1001
0000
0000
0000
0000
0000
0000
0000
0000
0000
0000
0000
0000
0000
0000
0000
0000
0000
0000
0000
0000
0000
0000
0000
0101
0000
0000
0000
0000
0000
0000
0000
0000
0000
0000
0000
0000
0000
0000
0000
0000
0000
0000
0000
0000
0000
0000
0000
,
0000
0000
0000
0000
0000
0000
0000
0000
0000
0000
0000
0000
0000
0001
0000
0000
0100
0000
0000
0000
0000
0001
0000
0000
1000
0000
0000
0000
0000
0010
0000
0000
,
0100
0000
0000
0000
0000
0010
0000
0000
1000
0000
0000
0000
0000
0010
0000
0000
0100
0000
0000
0000
0001
0000
0010
0000
0100
0000
1000
0000
0001
0000
0100
0000
,
0010
1000
0001
0010
0100
1000
0001
0100
0010
1000
0001
0010
0100
1000
0010
0100
,
0001
0000
0000
0000
1000
0000
0000
0000
0001
0000
0000
0000
1000
0000
0000
0000
0001
0000
0000
0000
0000
0000
0000
0000
1000
0000
0000
0000
0000
0000
0000
0000
0000
0000
0000
0000
0010
0000
0000
0100
0000
0000
0001
0000
0000
1000
0000
0000
,
0100
0000
0000
0010
0000
0000
0001
0000
0000
0100
0000
0000
0010
0000
0000
0000
1000
0000
0000
0000
0010
0000
0000
0000
0100
0000
0000
0001
0000
0000
1000
0000
0000
0100
0000
0000
0010
0000
0000
0001
0000
0000
1000
0000
0000
0010
0000
0000
,
1000
0100
0010
0001
0100
0010
1000
0100
0010
0100
1000
0010
0100
0001
0100
0010
,
1000
0000
0000
0000
0000
0000
0000
0000
0000
0000
0000
0000
0000
0000
0000
0000
0010
0000
0000
0000
0000
0000
0000
0000
0000
0000
0000
0000
0000
0000
0000
0000
0100
0000
0000
0000
0000
0000
0000
0000
0000
0000
0000
0000
0000
0000
0000
0000
0001
0000
0000
0000
0000
0000
0000
0000
0000
0000
0000
0000
0000
0000
0000
0000
0100
0000
0000
0000
0000
0000
0000
0000
0000
0000
0000
0000
0000
0000
0000
0000
0010
0000
0000
0000
0000
0000
0000
0000
0000
0000
0000
0000
0000
0000
0000
0000
1000
0000
0000
0000
0000
0000
0000
0000
0000
0000
0000
0000
0000
0000
0000
0000
0000
0000
0000
0000
0100
0000
0000
0000
0000
0000
0000
0000
0000
0000
0000
0000
0000
0000
0000
0000
0000
0000
0010
0000
0000
0000
0000
0000
0000
0000
0000
0000
0000
0000
0000
0000
0000
0000
0000
0000
0100
0000
0000
0000
0000
0000
0000
0000
0000
0000
0000
0000
0000
0000
0000
0000
0000
0000
0000
0010
0000
0000
0000
0000
0000
0000
0000
0000
0000
0000
0000
0000
0000
0000
0000
0000
0000
0000
0000
0000
,
0001
0000
0000
0100
0000
0000
0010
0000
0000
1000
0000
0000
0001
0000
0000
0000
0010
0000
0000
0000
0000
0000
0000
0000
0100
0000
0000
1000
0000
0000
0010
0000
0000
0100
0000
0000
0001
0000
0000
1000
0000
0000
0100
0000
0000
0010
0000
0000
,
0100
1000
0001
0100
0010
0100
0001
0010
0001
1000
0100
0010
0100
1000
0001
1000
,
0001
0000
0000
0000
0000
0000
0000
0000
0000
0000
0000
0000
0000
0000
0000
0000
0100
0000
0000
0000
0000
0000
0000
0000
0000
0000
0000
0000
0000
0000
0000
0000
0010
0000
0000
0000
0000
0000
0000
0000
0000
0000
0000
0000
0000
0000
0000
0000
1000
0000
0000
0000
0000
0000
0000
0000
0001
0000
0000
0000
0000
0000
0000
0000
0000
0000
0000
0000
0000
0000
0000
0000
0000
0000
0000
0000
0000
0000
0000
0000
1000
0000
0000
0000
0000
0000
0000
0000
0001
0000
0000
0000
0000
0000
0000
0000
1000
0000
0000
0000
0000
0000
0000
0000
0000
0000
0000
0000
0000
0000
0000
0000
0000
0000
0000
0000
0000
0000
0000
0000
0000
0000
0000
0000
0000
0000
0000
0000
0000
0000
0000
0000
0010
0000
0000
0000
0000
0000
0001
0000
0000
0000
0000
0000
0000
0000
0000
0000
0000
0000
0000
0000
0000
0000
0000
0000
0000
0000
0000
0000
0000
0000
0000
0000
0000
0000
0000
0000
1000
0000
0000
0000
0000
0000
0000
0000
0000
0001
0000
0000
0000
0000
0000
0000
0000
0000
0000
0000
0000
0000
0000
0000
,
0000
0000
0000
0000
0000
0000
0000
0001
0000
0000
0000
0000
0100
0000
0000
0010
0000
0000
1000
0000
0000
0000
0000
0000
0010
0000
0000
0000
0000
0000
0000
0000
1000
0000
0100
0000
1000
0000
0000
0000
0000
0000
0000
0000
0001
0000
0010
0000
,
0001
0000
0000
0000
1000
0001
1000
0000
0000
0000
0001
0100
0001
0000
0000
0000
1000
0000
0100
0000
0000
0000
0010
0000
,
0001
0000
0100
0010
0000
1000
0001
0100
0010
1000
0010
0100
,
0001
0000
0000
0000
0010
0000
0000
0000
0100
0000
0000
0000
1000
0000
0000
0000
0010
0000
0000
0000
0100
0000
0000
0000
0001
0000
0000
0010
0000
0000
0100
0000
0000
0010
0000
0000
0001
0000
0000
0100
0000
0000
0010
0000
0000
0100
0000
0000
,
0001
0010
0100
0010
0001
1000
0100
1000
0001
0100
0010
1000
0010
0100
0001
1000
,
0100
0010
0100
1000
0001
0100
0010
1000
0001
0010
0100
0010
0001
1000
0010
0100
,
0001
1000
0100
0010
0001
0000
0000
0000
0101
0000
0000
0000
1001
0000
0000
0000
,
1001
0000
0000
0000
;
