#TITLE:Brazilian Rhyme;
#SUBTITLE:(Conclusion);
#ARTIST:Satoru Shionoya + Satoshi Tomiie;
#TITLETRANSLIT:;
#SUBTITLETRANSLIT:;
#ARTISTTRANSLIT:;
#CREDIT:;
#BANNER:;
#BACKGROUND:;
#LYRICSPATH:;
#CDTITLE:;
#MUSIC:Brazilian Rhyme (Conclusion).ogg;
#OFFSET:-1.790;
#SAMPLESTART:48.561;
#SAMPLELENGTH:12.000;
#SELECTABLE:YES;
#BPMS:0.000=127.010,179.000=123.587,182.000=123.570,183.000=120.344,185.000=113.728,186.000=113.723,187.000=107.921,188.000=105.058,189.000=111.877,190.000=123.952,191.000=93.422,192.000=110.684,193.000=124.700,194.000=120.695,195.000=83.848,196.000=114.988,197.000=83.095,198.000=99.605,199.000=33.338,200.000=115.309,201.000=116.615,202.000=126.998,203.000=79.648,204.000=92.176,205.000=123.581,206.000=127.004,207.000=126.998,208.000=127.004,209.000=126.998,210.000=127.004,211.000=126.998,212.000=127.004,213.000=126.998,214.000=127.004,215.000=126.998,216.000=127.004,217.000=126.998,218.000=127.004,219.000=126.998,220.000=127.004,221.000=126.998,222.000=127.004,223.000=126.998,224.000=127.004,225.000=126.998,226.000=127.004;
#STOPS:;
#BGCHANGES:;

//---------------dance-single - ----------------
#NOTES:
     dance-single:
     :
     Hard:
     8:
     0.512,0.603,0.306,0.081,0.482:
0000
0000
0000
0000
,
0000
0000
0000
0000
,
0000
0000
0000
0000
,
0000
0000
0000
0000
,
1000
0000
0100
0000
0010
0000
0001
0100
0000
0000
0001
0100
0000
1000
0000
1000
,
0000
0100
0000
0100
0001
1000
0000
1100
0000
0000
0100
0000
1000
0000
0001
0000
,
0100
0000
1000
0000
0100
0010
0000
0110
0000
0110
0000
0000
0010
0100
0001
0000
,
1000
0000
0100
0000
1000
0100
0010
0100
0000
0000
0000
0000
0010
0001
0010
0001
,
1000
0100
1000
0100
0010
0000
0000
0000
0010
0001
0010
0001
0100
0000
0010
0000
,
0100
0000
0001
0000
0010
0000
0100
0010
0000
0001
1000
0100
0010
0000
0000
0010
,
0001
0010
0001
0010
0000
0100
0000
1000
0000
1000
0100
0010
0001
1000
0001
0000
,
0001
0000
1000
0100
0001
0100
1000
0100
0010
0000
0001
0000
0010
0100
1000
0000
,
1100
0000
1000
0000
0001
0000
0000
0000
0101
0000
0000
0110
0000
0000
0010
0000
,
1000
0010
1000
0010
0100
0001
0100
0001
,
0010
0100
0010
0100
0010
0100
0010
0100
,
1001
0001
1000
0001
1000
0001
1000
0001
,
1000
0100
0001
0100
1000
0010
1000
0100
,
0001
0100
1000
0010
1000
0100
0001
0100
,
1000
0010
0001
0010
1000
0100
1000
0010
,
0001
0000
0010
0000
1000
0000
0100
0000
0001
0000
0100
0000
0010
0001
0100
0010
,
1000
0000
0100
0010
0100
0000
0100
0000
1000
0000
0010
0000
0100
0001
0010
0100
,
0000
0010
0100
1000
0000
1000
0000
0010
0000
1000
0000
0100
0000
0010
0000
0001
,
0000
0000
0001
0000
0001
1000
0000
0010
0000
0000
0100
0000
0001
0010
0000
0000
,
0100
0000
1000
0100
0010
0001
0010
0001
0000
0010
0000
0000
0200
0000
0300
0000
,
1002
0000
0000
1003
0000
1000
0100
0000
0001
0000
0100
0000
0010
0000
0001
0000
,
0101
0000
1001
0000
1100
0000
0000
1000
0000
0001
0000
0000
0200
0000
0300
0000
,
0010
1000
0000
0000
0000
0000
1000
0100
0000
0100
0010
0100
0000
0100
0010
0100
,
0000
0010
0100
0010
0000
0010
0100
0010
0000
0010
0100
0010
0000
1001
0000
0000
,
0102
0000
0000
0103
0000
0000
0220
0000
0300
0000
1000
0000
1030
0000
0100
0000
,
0010
0001
0100
1000
0100
0001
0010
0100
,
1000
0010
0100
0001
0010
1000
0001
1000
,
1010
0010
0001
0100
1000
0001
1000
0100
,
0110
0000
0010
0000
1000
0000
0100
1000
0000
1000
0000
0000
0000
0001
1000
0100
,
1000
0100
0010
0100
1000
0001
1000
0001
1000
0100
0000
0010
0000
0001
0000
0001
,
1000
0000
0100
0000
0100
1000
0000
0000
0100
1000
0000
0000
1100
0000
0000
0000
,
0000
0000
0000
0000
1000
0000
0000
0000
0010
0000
0000
0000
0001
0000
0000
0000
0010
0000
0000
0000
1000
0000
0000
0000
0000
0000
0000
0000
0000
0000
0000
0000
0000
1000
0000
0000
0001
0000
0000
1000
0000
0000
0000
0000
0000
0000
0000
0000
,
1001
0000
0000
0000
0001
0000
0000
0000
0001
0000
0000
0001
0100
0000
0010
0000
,
0110
0000
0010
0000
1010
0000
1000
0001
,
1001
0000
0001
0000
0001
0011
0010
0000
,
1100
0000
0001
0000
1000
0000
0000
0000
1000
0000
0100
0000
0000
0110
0000
0000
,
1001
0000
0000
0000
0001
0000
0000
0000
0001
0000
0000
0001
0100
0000
0010
0000
,
0110
0000
0000
0010
0000
0000
1000
0000
1010
0000
0000
1000
0000
0000
0001
0000
,
1001
1000
0001
0000
0001
0011
0010
0000
,
0110
0000
0100
0000
0100
1000
0001
0000
,
1001
0000
0000
0000
0000
0000
0000
0000
0000
0000
1000
0000
0000
0001
0000
0000
,
0011
0000
0000
0010
0000
0000
0100
0000
0110
0000
0000
0100
0000
0000
1000
0000
,
1001
0000
0000
0000
0000
0001
1000
0010
,
1000
0100
1000
0001
0000
0000
0001
0000
,
0010
0000
0000
0000
0100
0000
0000
0000
2000
0000
0000
0000
0000
0000
0000
3010
,
0000
0000
0000
0000
0000
0000
0000
0000
0000
0000
0000
0000
0000
0000
0000
0000
0000
0000
0000
0000
0000
0000
0000
0000
0000
0000
0000
0000
0000
0000
0000
0000
0000
0000
0000
0000
0000
0000
0000
0000
0000
0000
0000
0000
0000
0000
0000
0000
0100
0000
0000
0000
0000
0000
0000
0000
0000
0000
0000
0000
0000
0000
0000
0000
0001
0000
0000
0000
0000
0000
0000
0000
0000
0000
0000
0000
0000
0000
0000
0000
1000
0000
0000
0000
0000
0000
0000
0000
0000
0000
0000
0000
0000
0000
0000
0000
0000
0000
0000
0000
0000
0000
0000
0000
0000
0000
0000
0000
0000
0000
0000
0000
0000
0000
0000
0000
0000
0000
0000
0000
0000
0000
0000
0000
0000
0000
0000
0000
0000
0000
0000
0000
0000
0000
0000
0000
0000
0000
0000
0000
0000
0000
0000
0000
0000
0000
0000
0001
0000
0000
0000
0000
0000
0000
0000
0000
2000
0000
0000
0000
0000
0000
0000
0000
0000
0000
0000
0000
0002
0000
0000
0000
0000
0000
0000
0000
0000
0000
0000
0000
0000
0000
0000
0000
0000
0000
0000
0000
0000
0000
0000
0000
,
0000
0000
0000
0000
,
0000
0000
3003
0000
;

//---------------dance-single - Copied from----------------
#NOTES:
     dance-single:
     Copied from:
     Edit:
     8:
     0.508,0.516,0.279,0.054,0.455:
0000
0000
0000
0000
,
0000
0000
0000
0000
,
0000
0000
0000
0000
,
0000
0000
0000
0000
,
1000
0000
0100
0000
0010
0000
0001
0100
0000
0000
0001
0100
0000
1000
0000
1000
,
0000
0100
0000
0100
0001
1000
0000
1100
0000
0000
0100
0000
1000
0000
0001
0000
,
0100
0000
1000
0000
0100
0010
0000
0110
0000
0110
0000
0000
0010
0100
0001
0000
,
1000
0000
0100
0000
1000
0100
0010
0100
0000
0000
0000
0000
0010
0001
0010
0001
,
1000
0100
1000
0100
0010
0000
0000
0000
0010
0001
0010
0001
0100
0000
0010
0000
,
0100
0000
0001
0000
0010
0000
0100
0000
1000
0000
0010
1000
0010
1000
0100
0010
,
0001
0010
0001
0010
0100
0000
1000
0000
0010
0000
1000
0000
0100
0000
0010
0000
,
0001
0000
1000
0100
0001
0100
1000
0100
0010
0000
0001
0000
0010
0000
0100
0000
,
1100
0000
1000
0000
0001
0000
0000
0000
0100
0000
0000
0100
0000
0000
0010
0000
,
1000
0010
1000
0010
0100
0001
0100
0001
,
0010
0100
0010
0100
0010
0100
0010
0100
,
1000
0001
1000
0001
1000
0001
1000
0001
,
1000
0100
0001
0100
1000
0010
1000
0100
,
0001
0100
1000
0010
1000
0100
0001
0100
,
1000
0010
0001
0010
1000
0100
1000
0010
,
0001
0000
0010
0000
1000
0000
0100
0000
0001
0000
0100
0000
0010
0001
0100
0010
,
1000
0000
0100
0010
0100
0000
0100
0000
1000
0000
0010
0000
0100
0001
0010
0100
,
0000
0010
0100
1000
0000
1000
0000
0010
0000
1000
0000
0100
0000
0010
0000
0001
,
0000
0000
0001
0000
0001
1000
0000
0100
0000
0000
0010
0000
0001
0010
0000
0000
,
0100
0000
1000
0100
0010
0001
0010
0001
0000
0010
0000
0000
0200
0000
0300
0000
,
1002
0000
0000
1003
0000
1000
0100
0000
0001
0000
0100
0000
0010
0000
0001
0000
,
0101
0000
1001
0000
1100
0000
0000
1000
0000
0001
0000
0000
0200
0000
0300
0000
,
0010
1000
0000
0000
0000
0000
1000
0100
0000
0100
0010
0100
0000
0100
0010
0100
,
0000
0010
0100
0010
0000
0010
0100
0010
0000
0010
0100
0010
0000
1001
0000
0000
,
0102
0000
0000
0103
0000
0000
0220
0000
0300
0000
1000
0000
1030
0000
0100
0000
,
0010
0001
0100
1000
0100
0001
0010
0100
,
1000
0010
0100
0001
0010
1000
0001
1000
,
1010
0010
0001
0100
1000
0001
1000
0100
,
0110
0000
0010
0000
1000
0000
0100
1000
0000
1000
0000
0000
0000
1000
0100
1000
,
0100
0000
0010
0100
1000
0001
1000
0001
1000
0100
0000
0010
0000
0001
0000
0001
,
1000
0000
0100
0000
0100
1000
0000
0000
0100
1000
0000
0000
1100
0000
0000
0000
,
0000
0000
0000
0000
1000
0000
0000
0000
0010
0000
0000
0000
0001
0000
0000
0000
0010
0000
0000
0000
1000
0000
0000
0000
0000
0000
0000
0000
0000
0000
0000
0000
0000
1000
0000
0000
0001
0000
0000
1000
0000
0000
0000
0000
0000
0000
0000
0000
,
1001
0000
0000
0000
0001
0000
0000
0000
0001
0000
0000
0001
0100
0000
0010
0000
,
0110
0000
0010
0000
1010
0000
1000
0001
,
1001
0000
0001
0000
0001
0011
0010
0000
,
1100
0000
0001
0000
1000
0000
0000
0000
1000
0000
0100
0000
0000
0110
0000
0000
,
1001
0000
0000
0000
0001
0000
0000
0000
0001
0000
0000
0001
0100
0000
0010
0000
,
0110
0000
0000
0010
0000
0000
1000
0000
1010
0000
0000
1000
0000
0000
0001
0000
,
1001
1000
0001
0000
0001
0011
0010
0000
,
0110
0000
0100
0000
0100
1000
0001
0000
,
1001
0000
0000
0000
0000
0000
0000
0000
0000
0000
1000
0000
0000
0001
0000
0000
,
0011
0000
0000
0010
0000
0000
0100
0000
0110
0000
0000
0100
0000
0000
1000
0000
,
1001
0000
0000
0000
0000
0001
1000
0100
,
1000
0001
1000
0010
0100
0001
1000
0001
,
0010
0000
0000
0000
0100
0000
0000
0000
1000
0000
0000
0000
0100
0000
0000
0010
,
0000
0000
0000
0000
0000
0000
0000
0000
0000
0000
0000
0000
0000
0000
0000
0000
0000
0000
0000
0000
0000
0000
0000
0000
0000
0000
0000
0000
0000
0000
0000
0000
0000
0000
0000
0000
0000
0000
0000
0000
0000
0000
0000
0000
0000
0000
0000
0000
0001
0000
0000
0000
0000
0000
0000
0000
0000
0000
0000
0000
0000
0000
0000
0000
1000
0000
0000
0000
0000
0000
0000
0000
0000
0000
0000
0000
0000
0000
0000
0000
0001
0000
0000
0000
0000
0000
0000
0000
0000
0000
0000
0000
0000
0000
0000
0000
0000
0000
0000
0000
0000
0000
0000
0000
0000
0000
0000
0000
0000
0000
0000
0000
0000
0000
0000
0000
0000
0000
0000
0000
0000
0000
0000
0000
0000
0000
0000
0000
0000
0000
0000
0000
0000
0000
0000
0000
0000
0000
0000
0000
0000
0000
0000
0000
0001
0000
0000
0000
1000
0000
0000
0000
0001
0000
0000
0000
1000
0000
0000
0000
0000
0000
0000
0000
0000
0001
0000
0000
0000
0000
0000
0000
0000
0000
0000
0000
0000
0000
0000
0000
0000
0000
0000
0000
0000
0000
0000
0000
0000
0000
0000
0000
;

//---------------dance-single - ----------------
#NOTES:
     dance-single:
     :
     Medium:
     6:
     0.350,0.404,0.243,0.045,0.081:
0000
0000
0000
0000
,
0000
0000
0000
0000
,
0000
0000
0000
0000
,
0000
0000
0000
0000
,
1010
0010
0100
0000
0001
0000
0001
0001
,
0100
0100
0010
1000
0001
0000
0001
0010
,
0100
0000
1000
0000
1000
0000
0100
0010
,
0001
0000
0001
1000
0001
0000
0010
0100
,
1000
0000
1000
0000
1000
0100
1000
0000
,
0001
0100
0001
0000
1000
0010
1000
0000
,
0001
0010
0001
0001
0100
0000
0010
0000
,
1001
0000
1000
0100
0001
1000
0001
0000
,
0101
0000
0001
0100
1000
0000
1000
0000
,
0200
0001
0000
1000
0001
0001
0000
1000
,
0001
0001
0000
1000
0001
0001
0000
1000
,
0001
1000
0000
0001
1000
1000
0000
1300
,
0020
0001
0000
0001
1000
1000
0000
0001
,
1000
1000
0000
0001
1000
1000
0000
0001
,
1030
0100
0001
0100
1000
0100
0001
0100
,
1000
0100
0001
0010
1000
0010
0001
1000
,
1001
0001
0100
0010
,
1000
0010
1000
0010
1000
0010
1000
0100
,
1000
0100
0110
0001
,
0100
0001
0100
0001
0010
0001
1000
0000
,
1010
0000
0010
0000
0100
0001
1000
0000
,
1001
1001
1001
0000
1000
0000
0100
0000
,
0110
0000
0000
0000
0000
0001
1000
0000
0000
0001
1000
0000
0000
0001
1000
0000
,
0000
0010
0100
0000
0000
0010
0100
0000
0000
0010
0100
0000
0000
0010
0000
0000
,
0110
1000
0100
0010
,
0001
0010
0001
0010
0100
1000
0100
1000
,
0001
0000
0100
0001
0100
0010
1000
0000
,
0000
1000
0001
1000
0010
0100
0001
0000
,
2001
0010
3100
1000
,
0010
0100
0010
0000
1000
0001
1000
0000
,
0100
0010
0100
0000
1000
0001
1000
0000
,
0000
0001
1000
0001
1000
0001
0000
0000
0000
1001
0000
0000
,
0101
0100
0100
0100
,
0110
0010
1010
1000
,
1001
0000
0001
0000
0001
0010
0001
0000
,
0001
0000
0000
0000
0010
0000
0000
0000
0100
0000
1000
0000
0000
0100
0000
0000
,
0110
0010
0001
0100
,
0101
0000
0000
0001
0000
0000
0100
0000
0110
0000
0000
0010
0000
0000
1000
0000
,
1010
0000
1000
0000
0100
0010
0001
0000
,
0011
0001
0001
1000
,
1001
0000
0000
0000
0000
0000
0000
0000
0000
0000
1000
0000
0000
0100
0000
0000
,
0110
0000
0000
0001
0000
0000
0100
0000
0110
0000
0000
1000
0000
0000
0100
0000
,
0110
0000
0000
0000
,
0000
0000
0000
0001
0000
0000
0000
0000
,
0000
0000
0000
0000
,
0000
0000
0000
0000
0000
0000
0000
0000
0000
0000
0000
0000
0000
2002
3003
0000
;

//---------------dance-single - ----------------
#NOTES:
     dance-single:
     :
     Beginner:
     1:
     0.087,0.166,0.072,0.000,0.000:
0000
0000
0000
0000
,
0000
0000
0000
0000
,
0000
0000
0000
0000
,
0000
0000
0000
0000
,
1001
0000
0000
0000
,
0001
0000
0000
0000
,
0100
0000
0000
0000
,
0010
0000
0000
1000
,
1000
1000
0000
0100
,
0000
0010
0000
0001
,
0001
0000
0001
0000
,
1001
0000
1000
1000
,
1001
0000
0000
0000
,
0001
0000
0000
0000
,
1000
0000
0000
0000
,
0001
0000
0000
0000
,
0010
0000
0000
0000
,
0010
0000
0000
0000
,
0100
0000
0000
0000
,
0010
0000
0000
0001
,
1001
0000
0000
0000
,
1000
0000
0010
0000
,
0100
0000
0000
0000
,
0100
0000
0001
0000
,
1000
0000
0000
0000
,
1000
1000
1000
0000
,
0100
0000
0000
0000
,
0010
0000
0000
0000
,
1001
0000
0000
0000
,
0001
0000
0001
0000
,
0100
0000
0000
0000
,
0010
0000
0000
0000
,
1000
0000
0000
0000
,
0100
0000
0010
0000
,
0001
0000
0000
0000
,
1000
0000
0000
0000
,
1001
0000
0000
0000
,
1000
0000
0100
0000
,
0001
0000
0000
0000
,
0100
0000
0000
0000
,
1000
0000
0000
0000
,
1001
0000
0001
0000
,
0100
0000
0000
0000
,
0001
0000
0000
0000
,
1001
0000
0000
0000
,
0001
0000
0100
0000
,
0010
0000
0000
0000
;

//---------------dance-single - ----------------
#NOTES:
     dance-single:
     :
     Easy:
     4:
     0.210,0.292,0.162,0.036,0.018: // measure 1
0000
0000
0000
0000
,  // measure 2
0000
0000
0000
0000
,  // measure 3
0000
0000
0000
0000
,  // measure 4
0000
0000
0000
0000
,  // measure 5
1001
0001
1000
0000
,  // measure 6
1000
0100
0010
0001
,  // measure 7
0100
1000
1000
0000
,  // measure 8
0100
0001
0010
0100
,  // measure 9
1000
0100
0000
0100
,  // measure 10
1000
0100
0010
0001
,  // measure 11
1000
0001
0100
0010
,  // measure 12
1010
0000
1000
0001
,  // measure 13
0101
0000
0000
0000
,  // measure 14
0001
0010
0001
0010
,  // measure 15
0100
1000
0100
1000
,  // measure 16
0010
0100
0010
0100
,  // measure 17
0001
0010
1000
0010
,  // measure 18
0001
0010
1000
0010
,  // measure 19
0001
0100
1000
0100
,  // measure 20
0001
0100
1000
0100
,  // measure 21
0001
0000
1000
0001
,  // measure 22
1000
0000
1000
0000
,  // measure 23
0010
0000
0100
0000
,  // measure 24
0001
0000
1000
0000
,  // measure 25
0001
0001
0100
0010
,  // measure 26
0100
0100
0001
0000
0000
0000
1000
0000
,  // measure 27
0001
0000
0000
0001
0000
0001
0000
0001
,  // measure 28
0000
0000
1000
0000
0000
0000
1000
0000
0000
0000
1000
0000
0000
0100
0000
0000
,  // measure 29
0110
0000
0000
0000
,  // measure 30
0010
0001
0100
0010
,  // measure 31
1000
0001
1000
0010
,  // measure 32
0110
0100
0001
1000
,  // measure 33
1001
0000
0000
0000
,  // measure 34
1000
0000
1100
0000
,  // measure 35
0011
0000
0000
0000
,  // measure 36
0000
1000
0000
1000
0000
1000
0000
0000
0000
0001
0000
0000
,  // measure 37
1001
0001
0100
0010
,  // measure 38
1000
1000
0010
0010
,  // measure 39
0100
0000
0100
0000
0002
0003
0001
0000
,  // measure 40
0011
0010
0100
1000
,  // measure 41
1001
0001
0001
0100
,  // measure 42
0110
0010
1010
1000
,  // measure 43
1001
0000
0001
0000
0020
0030
0100
0000
,  // measure 44
1001
1000
0010
0100
,  // measure 45
1001
0000
0000
0000
,  // measure 46
0001
0000
1000
0000
,  // measure 47
1001
0000
0000
0000
,  // measure 48
0000
0000
0000
1000
0000
0000
0000
0000
,  // measure 49
0000
0000
0000
0000
,  // measure 50
0000
0000
0000
0000
0000
0000
0000
0000
0000
0000
0000
0000
0000
2002
3003
0000
;
