#TITLE:한마디 (Beautiful Life);
#SUBTITLE:;
#ARTIST:SHINee;
#TITLETRANSLIT:Beautiful Life;
#SUBTITLETRANSLIT:;
#ARTISTTRANSLIT:;
#GENRE:K-POP;
#CREDIT:;
#BANNER:[Keyboardmania] - Beautiful Life.png;
#BACKGROUND:[Keyboardmania] - Beautiful Life-bg.png;
#LYRICSPATH:;
#CDTITLE:;
#MUSIC:[Keyboardmania] - Beautiful Life.ogg;
#OFFSET:0.005000;
#SAMPLESTART:75.274162;
#SAMPLELENGTH:20.849567;
#LASTBEATHINT:182.280182;
#SELECTABLE:YES;
#BPMS:0.000000=92.000000
;
#STOPS:
;
#BGCHANGES:;
#KEYSOUNDS:;
#ATTACKS:;

//---------------dance-single - ----------------
#NOTES:
     dance-single:
     :
     Hard:
     7:
     0.393812,0.445311,0.073403,0.481197,0.603535,338.000000,329.000000,9.000000,59.000000,0.000000,0.000000,0.393812,0.445311,0.073403,0.481197,0.603535,338.000000,329.000000,9.000000,59.000000,0.000000,0.000000:
// measure 0
0000
0000
0000
0000
,  // measure 1
1000
0000
0000
0001
0000
0100
0000
0000
0010
0000
0000
0100
0000
0001
0000
0000
,  // measure 2
1000
0000
0000
0100
0000
0010
0000
0000
0002
0000
0000
0100
0000
0203
0000
0000
,  // measure 3
0310
0000
0000
1000
0000
0100
0000
0000
0010
0000
0000
0100
0000
1000
0000
0000
,  // measure 4
0010
0000
1000
0001
0000
1000
0001
0000
1000
0010
0100
0001
0000
0000
0000
0000
,  // measure 5
0100
0000
0000
0001
0100
0000
0010
0000
0100
0000
0000
0001
0100
0000
0200
0000
,  // measure 6
0310
0000
0000
1000
0010
0000
0200
0000
0310
0000
0000
1000
0010
0000
1000
0200
,  // measure 7
1300
0000
0000
0100
1000
0000
0001
0000
1000
0000
0000
0100
1000
0000
2000
0000
,  // measure 8
3001
0000
0000
0010
0001
0000
0000
0000
0001
0000
0000
0010
0000
0001
0100
0010
,  // measure 9
1000
0000
0000
1000
0001
0000
0100
0000
0010
0000
0000
0100
0001
0000
2000
0000
,  // measure 10
3100
0000
0000
0010
0001
0000
2000
0000
3100
0000
0000
0010
0001
0010
0100
0010
,  // measure 11
0001
0000
0000
0001
0100
0000
0010
0000
0100
0000
0000
0010
1000
0000
0100
0000
,  // measure 12
1000
0000
0000
0001
1000
0000
0000
0000
1000
0000
0000
0001
1000
0000
0000
0000
,  // measure 13
1001
0000
0000
0001
1000
0000
0100
0000
0010
0000
0000
0001
1000
0000
0020
0000
,  // measure 14
1030
0000
0000
0001
1000
0000
0200
0000
0010
0000
0000
1000
0000
2300
0000
0000
,  // measure 15
3001
0000
0000
0100
0010
0000
1000
0000
0001
0000
0000
1000
0010
0000
0200
0000
,  // measure 16
0301
0000
0000
1000
0100
0000
0020
0000
0001
0000
0000
0130
0000
0100
1000
0001
,  // measure 17
0100
0000
0000
0010
1000
0000
0001
0000
0100
0000
0000
0010
1000
0000
0200
0000
,  // measure 18
1300
0000
0000
0001
0010
0000
0001
1000
0002
0000
0000
0000
0103
0000
0000
0000
,  // measure 19
0010
0000
0000
1000
0010
0000
1000
0000
0001
0000
0000
0100
0001
0000
0010
0000
,  // measure 20
0200
0000
0000
1300
0001
0000
0000
0000
2000
0000
0000
0000
0000
0000
0000
0000
,  // measure 21
3010
0000
0000
1000
0001
0000
1000
0100
0000
0000
0100
0010
0000
0000
0010
0001
,  // measure 22
0000
0000
1000
0000
0001
0000
0001
0100
0000
0000
0100
0010
0000
1000
0000
0002
,  // measure 23
0000
0003
0000
0000
1000
0000
0100
1000
0100
0000
0100
0010
0000
0010
0000
0002
,  // measure 24
1000
0000
0000
1000
1000
0000
0000
0000
0100
0000
0000
0010
0013
0000
0000
0000
,  // measure 25
0002
0000
0000
1003
0010
0000
1000
0001
0000
1000
0000
0100
0000
0020
0000
0000
,  // measure 26
0032
0000
0000
0003
0000
0100
0010
2000
0000
0000
0001
3001
0000
1000
0000
0002
,  // measure 27
0000
0000
0003
0000
0100
0000
0001
0002
0000
0000
1003
1000
0000
0010
0000
2000
,  // measure 28
0002
0000
0000
0000
0003
0000
0000
0000
0200
0000
0000
0000
3300
0000
0010
0001
,  // measure 29
0020
0000
0000
0031
1000
0001
0000
0000
0020
0000
0000
0031
1000
0001
0000
0020
,  // measure 30
0000
0000
0000
0001
0031
1000
0000
0000
0000
0000
0000
0001
0001
1000
0010
1000
,  // measure 31
0020
0000
0000
1030
0001
1000
0000
0000
0020
0000
0000
1030
0001
2000
0000
0000
,  // measure 32
3020
0000
0000
1000
1030
0002
0000
0000
0103
0000
0000
0002
0000
0000
1003
0010
,  // measure 33
1000
0000
1000
0001
0000
0001
0000
1000
0100
0000
0100
2000
0000
0000
3010
0010
,  // measure 34
1000
0000
0001
1000
0000
0010
2000
0000
0100
0000
0000
0000
3100
0000
0000
0000
,  // measure 35
2000
0000
0000
3010
0000
0001
0000
0000
0020
0000
0000
1030
0000
0001
0000
0000
,  // measure 36
2000
0000
0000
0000
3000
0000
0001
1000
0002
0000
0000
0013
0000
0100
0000
1000
,  // measure 37
0020
0000
0000
0130
0000
0001
0000
0000
2000
0000
0000
3100
0000
0010
0000
0000
,  // measure 38
0002
0000
0000
1003
0000
0010
0000
1000
0001
1000
0001
1000
0000
0010
0000
0000
,  // measure 39
1020
0000
0000
0130
0000
0001
0000
0000
0020
0000
0000
0130
0000
1000
0000
0000
,  // measure 40
0020
0000
0000
0130
0000
0001
0000
0000
0202
0000
0000
0000
0303
0000
0000
0000
,  // measure 41
1002
0000
0000
1003
0010
1000
0000
0000
1002
0000
0000
1003
0010
1000
0000
0000
,  // measure 42
1002
0000
0000
1003
0010
1000
0000
0001
0010
0001
0010
0100
2000
0000
3100
0000
,  // measure 43
0210
0000
0000
0310
0001
0010
0000
0000
0210
0000
0000
0310
1000
0010
0000
0000
,  // measure 44
0210
0000
0000
1300
0001
0100
0000
0000
0020
0000
0000
0000
0000
0000
0000
0000
,  // measure 45
0000
0000
0030
0000
;

//---------------dance-single - ----------------
#NOTES:
     dance-single:
     :
     Medium:
     4:
     0.249337,0.259765,0.057091,0.481197,0.073403,214.000000,207.000000,7.000000,59.000000,0.000000,0.000000,0.249337,0.259765,0.057091,0.481197,0.073403,214.000000,207.000000,7.000000,59.000000,0.000000,0.000000:
// measure 0
0000
0000
0000
0000
,  // measure 1
2000
0001
3002
1000
,  // measure 2
1003
0000
0000
0000
0010
0000
0000
0000
0100
0000
0000
0001
0000
0001
0000
0000
,  // measure 3
0200
0010
0320
0130
,  // measure 4
0220
0000
0000
0000
0000
0000
0000
0000
0000
0000
0000
0330
0000
0000
0000
0000
,  // measure 5
1000
0000
0001
0000
0100
0000
0001
1000
,  // measure 6
0100
0000
1000
0002
0100
0000
0100
0003
,  // measure 7
0100
0000
0010
0100
0010
0000
1000
0002
,  // measure 8
1000
0000
0100
0000
1003
0000
0001
0001
,  // measure 9
2000
0000
3010
0010
1000
0000
0100
1000
,  // measure 10
0100
0000
0010
0200
0010
0300
0001
0000
,  // measure 11
0100
0000
0010
0000
1000
0001
1000
0001
,  // measure 12
0200
0310
0020
0130
,  // measure 13
0210
0000
0301
1000
0001
0000
0001
1000
,  // measure 14
0001
0000
0001
2000
0100
0000
0010
0000
,  // measure 15
3200
0000
1300
0001
1000
0000
0001
0200
,  // measure 16
0010
0000
0310
0000
1000
0000
1000
1000
,  // measure 17
0020
0000
0130
0100
0020
0000
0130
0100
,  // measure 18
0002
0000
1003
0002
1000
0000
0100
0000
,  // measure 19
1003
0000
0001
0100
0001
0000
1000
0010
,  // measure 20
2000
0100
0002
3003
,  // measure 21
0002
0010
0100
0103
,  // measure 22
2000
0010
0100
3100
,  // measure 23
0002
1003
2000
3001
,  // measure 24
0200
0010
0020
0330
,  // measure 25
0120
1000
0100
0130
,  // measure 26
0002
0010
1000
0100
,  // measure 27
2003
0100
0001
0010
,  // measure 28
3002
0000
0200
0303
,  // measure 29
0020
0000
1030
0001
2000
0000
3001
1000
,  // measure 30
0002
0000
1000
0000
0000
0000
1003
0100
,  // measure 31
2000
0000
0000
0000
3001
0000
1000
0000
0002
0000
0000
0003
1000
0000
0001
0000
,  // measure 32
0020
0000
0001
0000
0000
0000
0031
0001
,  // measure 33
1000
0000
0100
1000
0100
0000
1000
0010
,  // measure 34
1000
0000
0010
0100
0020
0000
0130
0000
,  // measure 35
0001
0000
0000
0010
0000
0010
0000
0000
0100
0000
0000
1000
0000
1000
0000
0000
,  // measure 36
0002
0000
0000
1003
,  // measure 37
1002
0000
1003
0001
2000
0000
3001
1000
,  // measure 38
0002
0000
1003
0001
0200
0000
0310
0000
,  // measure 39
0120
0000
0130
0010
0200
0000
0310
0100
,  // measure 40
0020
0000
1030
0001
2000
0000
3000
0000
,  // measure 41
0002
0000
0000
0010
0000
0013
0000
0000
0002
0000
0000
1000
0000
1003
0000
0000
,  // measure 42
0002
0000
0000
0100
0000
0103
0000
0000
0220
0000
0000
0000
0330
0000
0000
0000
,  // measure 43
2000
0000
0000
0001
0000
3001
0000
0000
2000
0000
0000
0100
0000
3100
0000
0000
,  // measure 44
2000
0000
0000
0010
0000
3010
0000
0000
0220
0000
0000
0000
0000
0000
0000
0000
,  // measure 45
0000
0000
0330
0000
;

//---------------dance-single - ----------------
#NOTES:
     dance-single:
     :
     Easy:
     2:
     0.152631,0.166992,0.000000,0.407794,0.000000,131.000000,131.000000,0.000000,50.000000,0.000000,0.000000,0.152631,0.166992,0.000000,0.407794,0.000000,131.000000,131.000000,0.000000,50.000000,0.000000,0.000000:
// measure 0
0000
0000
0000
0000
,  // measure 1
2000
0000
3200
0000
,  // measure 2
0320
0000
0032
0000
,  // measure 3
0203
0000
0320
0000
,  // measure 4
2030
0000
0000
3000
,  // measure 5
0001
0000
1000
1000
,  // measure 6
0100
0100
0020
0030
,  // measure 7
0100
0000
1000
1000
,  // measure 8
0002
0000
0200
0303
,  // measure 9
0010
0000
1000
1000
,  // measure 10
0001
0001
0200
0300
,  // measure 11
0001
0000
1000
1000
,  // measure 12
0020
0030
0010
0000
,  // measure 13
1000
0000
0010
0010
,  // measure 14
0100
0001
1000
0000
,  // measure 15
0100
0000
0010
0010
,  // measure 16
0002
0003
1000
1000
,  // measure 17
0001
0000
0100
0100
,  // measure 18
0010
2000
0002
3003
,  // measure 19
1000
1000
0001
0001
,  // measure 20
2000
0000
0000
3000
,  // measure 21
0200
0010
0310
0001
,  // measure 22
0002
1000
1003
0010
,  // measure 23
0020
0000
1030
1000
,  // measure 24
0002
0000
0003
0000
,  // measure 25
1000
0001
1000
0100
,  // measure 26
0020
0030
0100
1000
,  // measure 27
0002
0003
0100
0010
,  // measure 28
0200
0000
0000
0000
0000
0000
0000
0001
,  // measure 29
0302
1003
0002
1003
,  // measure 30
0200
0010
0000
0310
,  // measure 31
0200
1300
0200
1300
,  // measure 32
0020
0000
0100
0000
0000
0000
1030
1000
,  // measure 33
0001
0001
1000
1000
,  // measure 34
0010
0100
0001
0000
,  // measure 35
2000
0100
3002
0010
,  // measure 36
2000
0000
0000
3003
,  // measure 37
0020
0130
0020
0130
,  // measure 38
0002
1003
0200
0300
,  // measure 39
0020
0130
0020
0130
,  // measure 40
2000
3001
0200
0300
,  // measure 41
0002
1003
0200
0310
,  // measure 42
0002
0203
0020
0330
,  // measure 43
2000
3010
0200
0301
,  // measure 44
0020
0230
2000
0000
,  // measure 45
0000
0000
3300
0000
;
