#TITLE:BEGINNING OF LIFE (The Ground Pulse Mix);
#SUBTITLE:;
#ARTIST:QUADRA;
#TITLETRANSLIT:;
#SUBTITLETRANSLIT:;
#ARTISTTRANSLIT:;
#GENRE:;
#CREDIT:Graphics made by TonyAkita;
#MUSIC:[Keyboardmania] - BEGINNING OF LIFE (The Ground Pulse Mix).ogg;
#BANNER:[Keyboardmania] - BEGINNING OF LIFE (The Ground Pulse Mix).png;
#BACKGROUND:[Keyboardmania] - BEGINNING OF LIFE (The Ground Pulse Mix)-bg.png;
#CDTITLE:;
#SAMPLESTART:14.710;
#SAMPLELENGTH:16.937;
#SELECTABLE:YES;
#OFFSET:0.710;
#BPMS:0.000=140.000;
#STOPS:;
#DISPLAYBPM:140.000;
#BGCHANGES:;
#FGCHANGES:;

//--------------- dance-single - forcednature ----------------
#NOTES:
     dance-single:
     forcednature:
     Beginner:
     1:
     0,0,0,0,0:
0000
0000
0000
0000
,
0000
0000
0000
0000
,
0000
0000
0000
0000
,
0000
0000
0000
0000
,
0000
0000
0000
0000
,
0010
0000
0000
0000
,
0010
0000
0000
0000
,
0010
0000
0000
0000
,
0100
0000
0100
0000
,
0001
0000
0000
0000
,
0010
0000
0000
0000
,
0100
0000
0000
0000
,
1000
0000
0000
0000
,
0001
0000
0000
0000
,
0100
0000
0000
0000
,
0010
0000
0000
0000
,
1000
0000
0000
0000
,
0100
0000
0001
0000
,
0010
0000
0100
0000
,
1000
0000
0010
0000
,
0001
0000
0100
0000
,
1000
0000
0001
0000
,
0100
0000
0010
0000
,
1000
0000
0000
0000
,
0001
0000
0000
0000
,
0100
0000
0000
0000
,
0100
0000
0000
0000
,
0100
0000
0000
0000
,
0020
0000
0030
0000
,
1000
0000
1000
0000
,
0001
0000
0001
0000
,
0100
0000
0100
0000
,
0001
0000
0001
0000
,
1000
0000
1000
0000
,
0100
0000
0100
0000
,
0010
0000
0010
0000
,
0001
0000
0001
0000
,
0010
0000
0010
0000
,
1000
0000
1000
0000
,
0001
0000
0001
0000
,
0100
0000
0100
0000
,
0010
0000
0000
0000
,
0001
0000
0000
0000
,
0100
0000
0000
0000
,
1000
0000
0000
0000
,
0010
0010
0000
0000
;

//--------------- dance-single - forcednature ----------------
#NOTES:
     dance-single:
     forcednature:
     Easy:
     3:
     0,0,0,0,0:
0000
0000
0000
0000
,
0000
0000
0000
0000
,
0000
0000
0000
0000
,
0000
0000
0000
0000
,
0000
0000
0000
0000
,
0001
0001
0001
0000
,
0010
0010
0100
0000
,
1000
1000
1000
0000
,
0010
0000
0010
0010
,
0100
0001
0100
0001
,
1000
0000
0010
0000
,
1000
0100
1000
0001
,
0100
0000
0010
0000
,
1000
0001
0010
0100
,
1000
0000
0001
0000
,
0100
0001
0100
1000
,
0100
0000
0001
0000
,
0010
0100
1000
0010
,
0001
0100
0010
0001
,
0100
1000
0010
0100
,
1000
0001
0100
1000
,
0010
0001
0100
0010
,
0001
1000
0010
1000
,
0100
0100
0100
0100
,
0100
0010
0001
1000
,
0010
0010
0010
0000
,
0100
0001
1000
0000
,
0100
0100
0100
0000
,
0020
0030
0020
0030
,
0001
0100
0001
0010
,
1000
0100
1000
0010
,
0100
0001
0100
0010
,
1000
0100
0010
0100
,
1000
0010
0001
0010
,
0100
0001
0010
0100
,
1000
0010
0001
0010
,
1000
0100
0001
0100
,
0010
0001
1000
0010
,
0100
1000
0001
0100
,
0010
0001
0100
0010
,
1000
0100
0001
1000
,
0001
0100
1000
0100
,
0010
0001
0010
1000
,
0100
0001
0010
0100
,
1000
0010
0001
1000
,
0010
0010
0000
0000
;

//--------------- dance-single - forcednature ----------------
#NOTES:
     dance-single:
     forcednature:
     Medium:
     6:
     0,0,0,0,0:
0000
0000
0000
0000
,
0000
0000
0000
0000
,
0000
0000
0000
0000
,
0000
0000
0000
0000
,
0000
0000
0000
0000
,
1000
0100
0010
0000
0001
0000
0001
0000
,
0001
0100
0010
0000
1000
0000
1000
0000
,
1000
0001
0010
0000
0100
0000
0100
0000
,
0010
0000
0000
0000
0010
0010
0010
0000
,
0001
1000
1000
0000
0001
0000
0100
0000
,
0010
0010
1000
0000
0100
0100
0001
0000
,
0010
0010
1000
0000
0001
0000
0010
0000
,
0100
0100
1000
0000
0010
0010
0001
0000
,
0100
0100
1000
0000
0001
0000
0100
0000
,
0010
0010
1000
0000
0100
0100
0001
0000
,
0010
0010
1000
0000
0100
0000
0001
0000
,
1000
1000
0001
0000
0001
0001
1000
0000
,
0001
0100
0001
0000
0010
0000
0010
0000
,
0100
1000
0100
0000
1000
0000
0010
0000
,
1000
0001
1000
0000
0010
0000
0100
0000
,
0001
0010
0001
0000
1000
0000
0010
0000
,
0100
0001
0100
0000
0010
0000
1000
0000
,
0100
1000
0100
0000
0010
0000
0001
0000
,
1000
0000
0000
1000
0000
0000
0010
0000
0000
1000
0000
0000
0001
0000
0000
0000
,
0100
0100
0100
0100
,
0101
0000
1100
0000
0001
0010
1000
0000
,
1100
0000
0101
0000
1000
0010
0001
0000
,
0110
0000
1010
0000
0100
0010
0001
0000
,
0200
0000
0001
0300
0200
0000
1000
0300
,
1000
0010
0000
1000
0100
0000
0010
0001
,
0000
0100
0001
0000
1000
0001
0000
0010
,
0100
0000
1000
0001
0000
0100
0001
0000
,
1000
0100
0000
0010
0001
0000
1000
0000
,
0001
0000
0100
0001
0000
1000
0010
0000
,
1000
0100
0000
1000
0001
0000
0100
0001
,
0000
1000
0010
0000
1000
0001
0000
0010
,
0001
0000
1000
0010
0000
0100
0001
0000
,
0100
0100
0100
0000
0010
1000
0001
0000
,
0010
0010
0010
0000
0100
1000
0001
0000
,
0100
0100
0100
0000
0001
1000
0010
0000
,
1000
1000
1000
0000
0001
0010
0100
0000
,
0010
0000
0000
0010
0000
0000
0100
0000
0000
0010
0000
0000
0100
0000
0000
0000
,
0010
0001
0010
0000
0100
1000
0100
0000
,
0010
0000
0000
0010
0000
0000
1000
0000
0000
0010
0000
0000
0001
0000
0000
0000
,
0010
1000
0010
0000
0100
0001
0100
0000
,
0001
1000
0000
0000
;

//--------------- dance-single - forcednature ----------------
#NOTES:
     dance-single:
     forcednature:
     Hard:
     7:
     0,0,0,0,0:
0000
0000
0000
0000
,
0000
0000
0000
0000
,
0000
0000
0000
0000
,
0000
0000
0000
0000
,
0000
0000
0000
0000
,
0001
0000
0100
0000
0001
0000
0000
0010
0000
0100
0000
0000
1000
0000
0001
0000
,
1000
0000
0010
0000
1000
0000
0000
0001
0000
0010
0000
0000
0100
0000
1000
0000
,
0001
0000
1000
0000
0010
0000
0000
1000
0000
0100
0000
0000
0010
0000
0001
0000
,
1000
0000
0001
0000
0100
0000
0000
0010
0000
1000
0000
0000
0001
0000
0010
0000
,
0001
0000
0000
0100
0000
0000
0001
0000
0000
0010
0000
0000
0001
0000
0000
0000
,
1000
0000
0000
0000
0010
0000
1000
0000
0100
0000
0000
1000
0000
0000
0010
0000
,
0100
0000
0000
0001
0000
0000
0010
0000
0000
0001
0000
0000
1000
0000
0000
0000
,
0010
0000
0000
0000
1000
0000
0001
0000
0100
0000
0000
0010
0000
0000
1000
0000
,
0001
0000
0000
0010
0000
0000
0100
0000
0000
1000
0000
0000
0001
0000
0000
0000
,
1000
0000
0000
0000
0010
0000
0100
0000
0001
0000
0000
0010
0000
0000
0001
0000
,
1000
0000
0000
0100
0000
0000
1000
0000
0000
0001
0000
0000
1000
0000
0000
0000
,
0010
0000
0000
0000
0100
0000
0001
0000
0010
0000
0000
0001
1000
0000
0010
0000
,
1000
0000
0001
0000
0010
0000
0000
0100
0000
1000
0000
0000
0001
0000
1000
0000
,
0010
0000
0100
0000
0001
0000
0000
1000
0000
0100
0000
0000
0001
0000
0100
0000
,
1000
0000
0010
0000
0100
0000
0000
0001
0000
0010
0000
0000
0100
0000
1000
0000
,
0100
0000
0001
0000
0100
0000
0000
0010
0000
0001
0000
0000
1000
0000
0010
0000
,
0001
0000
0010
0000
1000
0000
0000
0010
0000
0100
0000
0000
0001
0000
0100
0000
,
1000
0000
0100
0000
0001
0000
0000
1000
0000
0100
0000
0000
0010
0000
0001
0000
,
1000
0000
0000
0010
0000
0000
0100
0000
0000
0001
0000
0000
0010
0000
0100
0000
,
0000
1000
0000
0000
0001
0000
0000
1000
0000
0000
0010
0000
0000
0100
0000
0000
,
1001
0000
0000
1001
0000
0000
0000
0000
0100
0000
0010
0000
0000
0010
0000
0000
,
1001
0000
0000
0000
1001
0000
0000
0000
0010
0000
0100
0000
0000
0100
0000
0000
,
0110
0000
0000
0000
0110
0000
0000
0000
0001
0000
1000
0000
0000
0001
0000
0000
,
2000
0000
0000
0010
0000
0010
3000
1000
0002
0000
0000
0010
0000
0010
0003
0001
,
1000
0001
0100
1000
0100
0010
1000
0100
,
0010
1000
0010
0001
1000
0001
0100
0001
,
0010
1000
0010
0001
0100
0010
1000
0100
,
0001
0100
1000
0010
1000
0100
0010
0001
,
0010
1000
0010
0001
1000
0010
0100
1000
,
0100
0001
0100
0010
0001
0010
1000
0001
,
1000
0100
0010
1000
0010
0001
0100
0001
,
1000
0010
0001
0010
1000
0100
1000
0001
,
1000
0000
0100
0000
0010
0000
0000
0001
0000
1000
0000
0000
0001
0000
0100
0000
,
0010
0000
1000
0000
0100
0000
0000
0010
0000
1000
0000
0000
0010
0000
0001
0000
,
1000
0000
0010
0000
0100
0000
0000
0010
0000
0001
0000
0000
0010
0000
1000
0000
,
0001
0000
0100
0000
0010
0000
0000
1000
0000
0100
0000
0000
0010
0000
0001
0000
,
1000
0000
0001
0000
0100
0000
0000
0001
0000
0010
0000
0000
0100
0000
1000
0000
,
0001
0000
1000
0000
0010
0000
0000
1000
0000
0001
0000
0000
0100
0000
0010
0000
,
1000
0000
0100
0000
0010
0000
0000
0001
0000
1000
0000
0000
0001
0000
0100
0000
,
1000
0000
0100
0000
0001
0000
0000
1000
0000
0100
0000
0000
0010
0000
1000
0000
,
0010
0000
0001
0000
1000
0001
0000
0000
0000
0000
0000
0000
0000
0000
0000
0000
;

//--------------- dance-single - forcednature ----------------
#NOTES:
     dance-single:
     forcednature:
     Challenge:
     9:
     0,0,0,0,0:
0000
0000
0000
0000
,
0000
0000
0000
0000
,
0000
0000
0000
0000
,
0000
0000
0000
0000
,
0000
0000
0000
0000
,
0001
0000
0010
0000
0001
1000
0000
0010
0000
1000
0000
0000
0100
0000
0010
0000
,
0001
0000
0100
0000
0010
0100
0000
0001
0000
1000
0000
0000
0001
0000
0010
0000
,
0001
0000
1000
0000
0010
1000
0000
0100
0000
1000
0000
0000
0001
0000
0010
0000
,
0001
0000
0100
0000
0010
1000
0000
0100
1000
0100
1000
0100
1000
0100
1000
0100
,
0010
0000
0000
0001
1000
0000
0001
0000
0100
0010
0000
1000
0010
0000
1000
0000
,
0001
0000
0000
0010
0100
0000
1000
0000
0001
0010
0000
0001
1000
0000
0001
0000
,
0100
0000
0000
0001
1000
0000
0010
0000
1000
0100
0000
1000
0001
0000
0010
0000
,
0001
1000
0000
0010
1000
0000
0100
0000
0010
0000
0001
0000
0100
0000
0000
0000
,
0010
0000
0000
1000
0001
0000
0010
0000
0001
1000
0000
0010
1000
0000
0100
0000
,
0010
0000
0000
0001
0100
0000
0010
0000
1000
0001
0000
1000
0100
0000
0010
0000
,
0001
0000
0000
1000
0010
0000
0100
0000
0001
1000
0000
0100
1000
0000
0001
0000
,
0010
0001
0000
1000
0010
0000
1000
0000
0100
0000
0000
0010
0001
0000
0100
0000
,
0010
0000
1000
0000
0001
1000
0000
0100
0000
0010
0000
0000
0001
0000
0100
0000
,
0010
0000
0100
0000
0001
1000
0000
0010
0000
1000
0000
0000
0001
0000
1000
0000
,
0100
0000
0010
0000
0001
1000
0000
0001
0000
0010
0000
0000
0001
0000
0100
0000
,
0010
0000
0100
0000
0001
1000
0000
0010
0000
1000
0000
0000
0001
0000
1000
0000
,
0100
0000
1000
0000
0001
0010
0000
0001
0000
1000
0000
0000
0100
0000
1000
0000
,
0001
0000
0100
0000
0010
0100
0000
0001
0000
1000
0000
0000
0010
0000
1000
0000
,
0001
0000
0000
0010
0001
0000
1000
0000
1100
0000
0000
0001
0000
0000
0101
0000
,
0000
1000
0000
0000
0011
0000
0000
0001
0000
0000
1010
0000
0000
1000
0000
0000
,
1001
0000
0000
0000
0001
0000
0010
0000
0001
0000
0100
0000
0010
1000
0000
0000
,
0001
0000
0000
0000
0010
0000
0001
0000
1000
0000
0010
0000
1000
0100
0000
0000
,
1001
0000
0000
0000
1000
0000
0001
0000
0010
0000
0001
0000
1000
0010
0000
0000
,
2000
0000
0000
0000
0000
0000
0100
0000
0000
0000
0100
0000
0000
3000
1000
0000
0002
0000
0000
0000
0000
0000
0100
0000
0000
0000
0100
0000
0000
0003
0001
0000
,
1000
0000
0010
0000
1000
0000
0001
0010
0000
0001
0100
0000
0010
1000
0000
0000
,
0001
0000
0010
0000
0001
0000
1000
0010
0000
1000
0001
0000
1000
0100
0000
0000
,
0010
0000
0001
0000
0100
0000
0010
1000
0000
0001
0010
0000
0001
1000
0000
0000
,
0010
0000
1000
0001
0000
1000
0100
0000
0010
0001
0000
1000
0010
0000
0000
0000
,
0100
0000
0001
0000
1000
0000
0010
1000
0000
0001
0010
0000
0001
1000
0000
0000
,
0100
0000
0010
0000
0001
0000
1000
0100
0000
1000
0001
0000
0100
0001
0000
0000
,
1000
0000
0010
0000
1000
0000
0001
0010
0000
0001
0100
0000
0010
1000
0000
0000
,
0100
0000
0010
0001
0000
0010
0100
0000
1000
0100
0000
1000
0001
0000
0100
0000
,
0010
0000
1000
0000
0001
0010
0000
0001
0000
1000
0000
0000
0010
0000
1000
0000
,
0001
0000
0100
0000
0010
1000
0000
0100
0000
0010
0000
0000
0001
0000
1000
0000
,
0001
0000
0100
0000
0010
1000
0000
0001
0000
0010
0000
0000
0100
0000
1000
0000
,
0001
0000
1000
0000
0100
0010
0000
0001
0000
1000
0000
0000
0001
0000
0100
0000
,
0010
0000
1000
0000
0001
0010
0000
0001
0000
1000
0000
0000
0010
0000
0100
0000
,
0001
0000
1000
0000
0100
0010
0000
0001
0000
0100
0000
0000
0010
0000
1000
0000
,
0001
0000
1000
0000
0010
1000
0000
0001
0000
0010
0000
0000
0001
0000
0100
0000
,
0010
0000
1000
0000
0100
0010
0000
0001
0000
1000
0000
0000
0010
0000
1000
0000
,
0001
0000
0010
0000
0001
0100
0000
0000
0000
0000
0000
0000
0000
0000
0000
0000
;

//--------------- dance-double - forcednature ----------------
#NOTES:
     dance-double:
     forcednature:
     Easy:
     4:
     0,0,0,0,0:
00000000
00000000
00000000
00000000
,
00000000
00000000
00000000
00000000
,
00000000
00000000
00000000
00000000
,
00000000
00000000
00000000
00000000
,
00000000
00000000
00000000
00000000
,
00010000
00001000
01000000
00000000
,
00010000
00001000
01000000
00000000
,
00001000
00010000
00000100
00000000
,
00001000
00001000
00001000
00000000
,
00000010
00001000
00000010
00000001
,
00000010
00000000
00001000
00000000
,
00100000
10000000
00100000
00010000
,
00100000
00000000
10000000
00000000
,
01000000
10000000
01000000
00010000
,
01000000
00000000
00001000
00000000
,
00000100
00000001
00000100
00001000
,
00000100
00000000
00010000
00000000
,
00100000
01000000
00010000
00000000
,
00100000
01000000
00010000
00000000
,
00000010
00001000
00000100
00000000
,
00000010
00001000
00000100
00000000
,
00000001
00000100
00001000
00000000
,
00000001
00000100
00001000
00000000
,
00010000
00100000
10000000
00000000
,
00010000
00100000
10000000
00000000
,
01000000
00010000
01000000
00010000
,
00001000
00000010
00001000
00000000
,
00000100
00001000
00000100
00001000
,
00020000
00030000
00020000
00030000
,
00100000
10000000
01000000
00010000
,
00100000
00001000
00000100
00000010
,
00000001
00000100
00000010
00010000
,
01000000
00100000
00010000
10000000
,
00100000
00010000
00000100
00000001
,
00001000
00000010
00000100
00010000
,
01000000
00100000
00010000
10000000
,
00100000
00010000
00000100
00000001
,
00000010
00001000
00000100
01000000
,
00100000
00010000
10000000
00100000
,
00010000
00000100
00000001
00000010
,
00001000
00000010
00000001
00000100
,
01000000
00100000
00010000
10000000
,
00100000
01000000
00010000
00000100
,
00000001
00000010
00001000
00000100
,
00000010
00001000
00010000
01000000
,
00100000
10000000
00000000
00000000
;

//--------------- dance-double - forcednature ----------------
#NOTES:
     dance-double:
     forcednature:
     Medium:
     7:
     0,0,0,0,0:
00000000
00000000
00000000
00000000
,
00000000
00000000
00000000
00000000
,
00000000
00000000
00000000
00000000
,
00000000
00000000
00000000
00000000
,
00000000
00000000
00000000
00000000
,
00010000
00000000
00010000
00000000
00001000
00000000
00000000
00000000
01000000
00000000
00000000
01000000
00000000
00000000
01000000
00000000
,
00010000
00000000
00010000
00000000
00100000
00000000
00000000
00000000
01000000
00000000
00000000
01000000
00000000
00000000
01000000
00000000
,
10000000
00000000
10000000
00000000
00100000
00000000
00000000
00000000
00001000
00000000
00000000
00001000
00000000
00000000
00001000
00000000
,
00000000
00000000
00000000
00000000
00000100
00000010
00000100
00000000
,
00000001
00000001
00000100
00000001
00000001
00000010
00000001
00000000
,
00000010
00000100
00010000
00000000
00001000
00100000
01000000
00000000
,
10000000
10000000
00100000
10000000
10000000
01000000
10000000
00000000
,
00100000
00010000
00001000
00000000
00010000
00001000
00000100
00000000
,
00000001
00000001
00000010
00000001
00000001
00000100
00000001
00000000
,
00001000
00000010
00010000
00000000
00001000
00100000
00010000
00000000
,
10000000
10000000
00100000
10000000
10000000
01000000
10000000
00000000
,
00010000
01000000
10000000
00000000
00010000
00001000
00000100
00000000
,
00000010
00000100
00000001
00000010
00001000
00000000
00010000
00000000
,
01000000
00100000
00010000
00001000
01000000
00000000
10000000
00000000
,
00100000
00010000
01000000
00001000
00100000
00000000
00001000
00000000
,
00010000
00000100
00000010
00001000
00000001
00000000
00000010
00000000
,
00000100
00001000
00000001
00000100
00010000
00000000
00001000
00000000
,
00100000
00010000
01000000
10000000
00100000
00000000
01000000
00000000
,
00100000
00010000
00100000
00000000
00001000
00010000
00000000
00000100
,
00000000
00000100
00000000
00000000
00000100
00000000
00000000
00000100
00000000
00000000
00000100
00000000
00000000
00000100
00000000
00000000
,
00000110
00000000
00001001
00000000
00000001
00000100
00001000
00000000
,
01100000
00000000
10010000
00000000
10000000
01000000
00010000
00000000
,
01000000
00010000
00001000
00000000
00010000
00001000
00000010
00000000
,
00020000
00000000
00000000
01000000
00000000
01000000
00030000
00000000
00002000
00000000
00000000
00000100
00000000
00000100
00003000
00000000
,
00010000
00001000
00010000
00001000
00100000
00000000
00010000
00000000
,
01000000
00100000
10000000
00010000
,
01000000
00010000
00001000
00000010
00010000
00000000
00001000
00000000
,
00000010
00000100
00000100
00000010
,
00000001
00000100
00001000
00000100
00010000
00000000
00010000
00000000
,
00100000
00100000
01000000
01000000
,
10000000
00100000
00010000
00100000
00001000
00000000
00000010
00000000
,
00000100
00000100
00000100
00000100
,
00000001
00000100
00001000
00000100
00000010
00000000
00010000
00000000
,
00001000
00010000
01000000
00100000
00001000
00000000
10000000
00000000
,
00100000
00010000
01000000
00001000
00010000
00000000
00000100
00000000
,
00001000
00000010
00000001
00000100
00000010
00000000
00001000
00000000
,
00000001
00000100
00001000
00010000
01000000
00000000
01100000
00000000
,
10000000
01000000
00010000
00001000
00000100
00000000
00000110
00000000
,
00000001
00000100
00001000
00000000
00010000
00001000
00000100
00000000
,
00000010
00001000
00010000
01000000
00100000
00010000
00001000
00000000
,
10000000
10000000
00000000
00000000
;

//--------------- dance-double - forcednature ----------------
#NOTES:
     dance-double:
     forcednature:
     Hard:
     7:
     0,0,0,0,0:
00000000
00000000
00000000
00000000
,
00000000
00000000
00000000
00000000
,
00000000
00000000
00000000
00000000
,
00000000
00000000
00000000
00000000
,
00000000
00000000
00000000
00000000
,
00001000
00000000
00010000
00000000
00000010
00000000
00000000
00001000
00000000
00000001
00000000
00000000
00000100
00000000
00000010
00000000
,
00010000
00000000
00001000
00000000
00100000
00000000
00000000
01000000
00000000
10000000
00000000
00000000
00010000
00000000
01000000
00000000
,
00001000
00000000
00010000
00000000
00000100
00000000
00000000
00000010
00000000
00000001
00000000
00000000
00000100
00000000
00000010
00000000
,
00010000
00000000
00001000
00000000
00100000
00000000
00000000
01000000
00000000
01000000
00000000
00000000
10000000
00000000
00010000
00000000
,
10000000
00000000
00000000
00100000
00000000
00000000
10000000
00000000
00000000
01000000
00000000
00000000
00100000
00000000
00000000
00000000
,
00001000
00010000
00000010
00000000
00001000
00000001
00000000
00000100
,
00000010
00000000
00000000
00010000
00000000
00000000
00001000
00000000
00000000
00100000
00000000
00000000
00010000
00000000
00000000
00000000
,
01000000
00100000
00000000
10000000
01000000
00100000
00001000
00000000
,
00010000
00000000
00000000
00000100
00000000
00000000
00000010
00000000
00000000
00000001
00000000
00000000
00000100
00000000
00000000
00000000
,
00000001
00001000
00000000
00000010
00010000
00000000
00001000
01000000
,
00010000
00000000
00000000
00100000
00000000
00000000
01000000
00000000
00000000
10000000
00000000
00000000
00010000
00000000
00000000
00000000
,
01000000
00000000
00000000
00000000
00001000
00000000
00010000
00000000
00000100
00000000
00000000
00001000
00000001
00000000
00001000
00000000
,
00000010
00000000
00000100
00000000
00000001
00000010
00000000
00000100
00000000
00001000
00000000
00000000
00000010
00000000
00010000
00000000
,
00001000
00000000
00100000
00000000
00010000
01000000
00000000
00100000
00000000
10000000
00000000
00000000
01000000
00000000
00100000
00000000
,
00010000
00000000
01000000
00000000
00001000
00010000
00000000
00000100
00000000
00001000
00000000
00000000
00000001
00000000
00001000
00000000
,
00000010
00000000
00010000
00000000
00001000
00100000
00000000
00010000
00000000
01000000
00000000
00000000
00100000
00000000
10000000
00000000
,
01000000
00000000
00100000
00000000
01000000
10000000
00000000
00010000
00000000
01000000
00000000
00000000
00001000
00000000
00010000
00000000
,
00000100
00000000
00001000
00000000
00000001
00001000
00000000
00000010
00000000
00000100
00000000
00000000
00000001
00000000
00000010
00000000
,
00000100
00000000
00000000
00010000
00000000
00000000
00001000
00000000
00100000
00000000
00000000
00110000
00000000
00000000
10000000
00000000
,
00000000
10100000
00000000
00000000
01000000
00000000
00000000
01010000
00000000
00000000
01000000
00000000
00000000
11000000
00000000
00000000
,
10000000
00000000
00000000
00000000
00100000
00000000
00000000
00000000
01000000
00000000
00010000
00000000
00000000
00100000
00000000
00000000
,
01000000
00000000
00000000
00000000
10000000
00000000
00000000
00000000
00010000
00000000
01000000
00000000
00000000
00001000
00000000
00000000
,
00010000
00000000
00000000
00000000
00000010
00000000
00000000
00000000
00001000
00000000
00000100
00000000
00000000
00000001
00000000
00000000
,
00000210
00000000
00000000
00001000
00000000
00010000
00000300
00000000
02100000
00000000
00000000
00010000
00000000
00001000
03000000
00000000
,
01000000
00010000
10000000
00100000
10000000
01000000
00100000
00000000
,
00010000
01000000
00001000
00010000
00000100
00000010
00000001
00000000
,
00000100
00000001
00000010
00000100
00010000
00001000
00100000
00000000
,
01000000
10000000
00010000
01000000
10000000
01000000
00010000
00000000
,
10000000
01000000
00100000
00010000
00001000
00000100
00000010
00000000
,
00000001
00000100
00000010
00001000
00010000
01000000
00100000
00000000
,
10000000
00100000
00010000
00100000
10000000
01000000
00010000
00000000
,
00001000
00000000
00000010
00000000
00000000
00000010
00000000
00000000
00000010
00000000
00000000
00000010
00000000
00000000
00000010
00000000
,
00000001
00000000
00000100
00000000
00000010
00001000
00000000
00000100
00000000
00010000
00000000
00000000
00001000
00000000
01000000
00000000
,
00010000
00000000
10000000
00000000
01000000
00100000
00000000
00010000
00000000
01000000
00000000
00000000
00001000
00000000
00010000
00000000
,
00000010
00000000
00001000
00000000
00000100
00000010
00000000
00000001
00000000
00001000
00000000
00000000
00000001
00000000
00000100
00000000
,
00000001
00000000
00000010
00000000
00000100
00010000
00000000
00001000
00000000
00100000
00000000
00000000
01000000
00000000
10000000
00000000
,
00010000
00000000
01000000
00000000
00001000
00010000
00000000
00000100
00000000
00001000
00000000
00000000
00000001
00000000
00001000
00000000
,
00000010
00000000
00010000
00000000
00001000
00100000
00000000
00010000
00000000
10000000
00000000
00000000
00100000
00000000
01000000
00000000
,
00001000
00000000
00010000
00000000
00000100
00001000
00000000
00000010
00000000
00010000
00000000
00000000
00000010
00000000
00010000
00000000
,
00001000
00000000
00100000
00000000
01000000
10000000
00000000
00100000
00000000
10000000
00000000
00000000
01000000
00000000
00100000
00000000
,
00010000
00000000
01000000
00000000
00001000
00001000
00000000
00000000
00000000
00000000
00000000
00000000
00000000
00000000
00000000
00000000
;

//--------------- dance-double - forcednature ----------------
#NOTES:
     dance-double:
     forcednature:
     Challenge:
     9:
     0,0,0,0,0:
00000000
00000000
00000000
00000000
,
00000000
00000000
00000000
00000000
,
00000000
00000000
00000000
00000000
,
00000000
00000000
00000000
00000000
,
00000000
00000000
00000000
00000000
,
00010000
00000000
00001000
00000000
01000000
00010000
00000000
10000000
00000000
01000000
00000000
00000000
00100000
00000000
00010000
00000000
,
01000000
00000000
00001000
00000000
00010000
00000100
00000000
00001000
00000000
00000001
00000000
00000000
00001000
00000000
00000010
00000000
,
00000100
00000000
00000001
00000000
00000010
00000100
00000000
00010000
00000000
00001000
00000000
00000000
00100000
00000000
00010000
00000000
,
01000000
00000000
00100000
00000000
10000000
01000000
00000000
00100000
00010000
00100000
01000000
00100000
00010000
00100000
01000000
00100000
,
00010000
00000000
00000000
01000000
00001000
00000000
00010000
00000000
00000010
00001000
00000000
00000001
00000100
00000000
00000001
00000000
,
00000010
00000000
00000000
00000100
00010000
00000000
00001000
00000000
00100000
00010000
00000000
10000000
00100000
00000000
01000000
00000000
,
00010000
00000000
00000000
10000000
01000000
00000000
00100000
00000000
00010000
01000000
00000000
00001000
00010000
00000000
00000010
00000000
,
00001000
00000000
00000000
00000001
00000100
00000000
00000010
00000000
00001000
00000001
00000000
00000100
00000001
00000000
00001000
00000000
,
00000100
00000000
00000000
00010000
00001000
00000000
00100000
00000000
00010000
01000000
00000000
00100000
10000000
00000000
01000000
00000000
,
00100000
00000000
00000000
00010000
01000000
00000000
00001000
00000000
00010000
00000100
00000000
00001000
00000001
00000000
00001000
00000000
,
00000010
00000000
00000000
00000100
00000001
00000000
00000010
00000000
00000100
00001000
00000000
00000010
00010000
00000000
00001000
00000000
,
00100000
00000000
00000000
00010000
01000000
00000000
00100000
00000000
10000000
01000000
00000000
00100000
01000000
00000000
10000000
00000000
,
00010000
00000000
01000000
00000000
00001000
00010000
00000000
00000010
00000000
00001000
00000000
00000000
00000100
00000000
00000010
00000000
,
00000001
00000000
00001000
00000000
00000010
00010000
00000000
00001000
00000000
00100000
00000000
00000000
00010000
00000000
10000000
00000000
,
01000000
00000000
00100000
00000000
00010000
01000000
00000000
00001000
00000000
00010000
00000000
00000000
00000100
00000000
00001000
00000000
,
00000001
00000000
00001000
00000000
00000010
00010000
00000000
00001000
00000000
00100000
00000000
00000000
00010000
00000000
01000000
00000000
,
00100000
00000000
10000000
00000000
01000000
00100000
00000000
00010000
00000000
01000000
00000000
00000000
00001000
00000000
00010000
00000000
,
00000100
00000000
00001000
00000000
00000001
00001000
00000000
00000010
00000000
00010000
00000000
00000000
00001000
00000000
00100000
00000000
,
00010000
00000000
00000000
01000000
00100000
00000000
10000000
00000000
01000000
00000000
00000000
11000000
00000000
00000000
01000000
00000000
,
00000000
01010000
00000000
00000000
00001000
00000000
00000000
00001100
00000000
00000000
00000001
00000000
00000000
00000101
00000000
00000000
,
00001001
00000000
00000000
00000001
00001000
00000000
00000100
00000000
00010000
00000000
00001000
00000000
00100000
00010000
00000000
00000000
,
10000000
00000000
00000000
00010000
10000000
00000000
00100000
00000000
10000000
00000000
01000000
00000000
00100000
00010000
00000000
00000000
,
00011000
00000000
00000000
00010000
00000010
00000000
00001000
00000000
00000001
00000000
00000100
00000000
00000010
00010000
00000000
00000000
,
00002000
00000000
00000000
00000000
00000000
00000000
00010000
00000000
00000000
00000000
01000000
00000000
00000000
00003000
00001000
00000000
00020000
00000000
00000000
00000000
00000000
00000000
00001000
00000000
00000000
00000000
00000100
00000000
00000000
00030000
00010000
00000000
,
00001000
00000000
01000000
00000000
00010000
00000000
10000000
01000000
00000000
00100000
00010000
00000000
01000000
00001000
00000000
00000000
,
00010000
00000000
00000010
00000000
00001000
00000000
00000001
00000100
00000000
00000010
00001000
00000000
00000100
00010000
00000000
00000000
,
00001000
00000000
01000000
00000000
00010000
00000000
10000000
01000000
00000000
00100000
00010000
00000000
01000000
00001000
00000000
00000000
,
00010000
00000000
00000010
00000000
00001000
00000000
00000001
00000100
00000000
00000010
00001000
00000000
00000001
00000010
00000000
00000000
,
00000100
00000000
00010000
00000000
00001000
00000000
00100000
00010000
00000000
01000000
00100000
00000000
10000000
01000000
00000000
00000000
,
00100000
00000000
00010000
00000000
01000000
00000000
00001000
00010000
00000000
00000100
00001000
00000000
00000001
00001000
00000000
00000000
,
00000010
00000000
00010000
00000000
00001000
00000000
00100000
00010000
00000000
10000000
00100000
00000000
01000000
00010000
00000000
00000000
,
10000000
00000000
01000000
00100000
00000000
00001000
00010000
00000000
00000010
00000100
00000000
00000001
00001000
00000000
00000100
00000000
,
00000010
00000000
00000001
00000000
00001000
00000010
00000000
00010000
00000000
00001000
00000000
00000000
01000000
00000000
00010000
00000000
,
10000000
00000000
01000000
00000000
00100000
00010000
00000000
01000000
00000000
00001000
00000000
00000000
00010000
00000000
00000100
00000000
,
00001000
00000000
00000100
00000000
00000010
00000001
00000000
00001000
00000000
00000001
00000000
00000000
00000100
00000000
00000010
00000000
,
00010000
00000000
00001000
00000000
00100000
00010000
00000000
01000000
00000000
00100000
00000000
00000000
10000000
00000000
01000000
00000000
,
00100000
00000000
00010000
00000000
01000000
00001000
00000000
00010000
00000000
00000010
00000000
00000000
00001000
00000000
00000001
00000000
,
00000100
00000000
00000010
00000000
00010000
00001000
00000000
00100000
00000000
00010000
00000000
00000000
10000000
00000000
00100000
00000000
,
10000000
00000000
01000000
00000000
00100000
00010000
00000000
01000000
00000000
00001000
00000000
00000000
00010000
00000000
00000100
00000000
,
00001000
00000000
00000001
00000000
00000100
00000010
00000000
00001000
00000000
00000100
00000000
00000000
00010000
00000000
00001000
00000000
,
01000000
00000000
00010000
00000000
00100000
01000000
00000000
00000000
00000000
00000000
00000000
00000000
00000000
00000000
00000000
00000000
;
