#TITLE:spEEEEEEEEEEEEEEEEdphobiA 230pLus+;
#SUBTITLE:;
#ARTIST:kenta-v.ez.;
#TITLETRANSLIT:;
#SUBTITLETRANSLIT:;
#ARTISTTRANSLIT:;
#GENRE:Hardcore;
#CREDIT:;
#BANNER:[Flashback to 1999] - spEEEEEEEEEEEEEEEEdphobiA 230pLus+.png;
#BACKGROUND:[Flashback to 1999] - spEEEEEEEEEEEEEEEEdphobiA 230pLus+-bg.png;
#LYRICSPATH:;
#CDTITLE:cdtitle.png;
#MUSIC:[Flashback to 1999] - spEEEEEEEEEEEEEEEEdphobiA 230pLus+.mp3;
#OFFSET:-0.181000;
#SAMPLESTART:68.011047;
#SAMPLELENGTH:15.000000;
#SELECTABLE:YES;
#DISPLAYBPM:*;
#BPMS:0.000000=230.000000
,36.000000=460.000000
,164.000000=230.000000
,228.000000=460.000000
,356.000000=230.000000
,388.000000=460.000000
,516.000000=230.000000
,580.000000=460.000000
,708.000000=230.000000
;
#STOPS:
;
#BGCHANGES:;
#KEYSOUNDS:;
#ATTACKS:;

//---------------dance-single - CHALLENGE+----------------
#NOTES:
     dance-single:
     :
     Edit:
     15:
     1.183186,1.786704,0.302221,0.000000,0.226666,1151.000000,1109.000000,42.000000,0.000000,0.000000,0.000000,1.183186,1.786704,0.302221,0.000000,0.226666,1151.000000,1109.000000,42.000000,0.000000,0.000000,0.000000:
0000
0000
0000
0000
,
0000
0000
0000
0000
,
0000
0000
0000
0000
,
0000
0000
0000
0000
,
0000
0000
0000
0000
,
0000
0000
0000
0000
,
0000
0000
0000
0000
,
1001
0110
1001
0000
,
0010
0000
0000
0010
0000
0000
0010
0000
0010
0000
0010
0000
0010
0000
0010
0000
,
0010
1000
0001
0100
,
0001
0001
0001
0001
,
0010
0100
0010
0100
,
0010
0010
0010
0010
,
0001
1000
0010
1000
,
0100
0100
0100
0100
,
1000
0001
0010
0100
,
1000
0000
0001
0000
1000
0001
1000
0001
,
1000
0100
0010
0001
,
0010
0100
1000
0010
,
1000
0001
0100
0001
,
0010
0001
0100
0001
,
0010
0100
1000
0001
,
1000
0100
0010
0001
,
0100
0000
0001
0000
1000
0000
0010
0100
,
0010
0000
0100
0000
0010
1000
0010
1000
,
0010
0000
1000
0000
0001
0010
0100
0000
,
1000
0000
0001
0000
1000
0100
0010
0000
,
0001
0000
0101
0000
,
0011
0100
0001
1000
,
0010
0000
1000
0000
0001
0010
0100
0000
,
1000
0000
0010
0000
1000
0100
0010
0000
,
0001
0101
0000
0110
,
0000
0000
0100
0000
0001
1000
0001
1000
,
0001
0000
0010
0000
0100
0010
0001
0000
,
0100
0000
0010
0000
0100
1000
0100
0000
,
0010
1000
0010
0100
,
0001
1001
0000
0110
,
1001
0000
0110
0000
,
1001
0000
0000
0000
,
0001
0010
1000
0010
0001
0100
1000
0100
,
0001
1000
0010
0100
0001
1000
0010
0100
,
0001
0010
0001
0100
0001
1000
0001
1000
,
0010
1000
0100
0010
0001
0010
0100
1000
,
0001
0100
0001
0010
0001
0100
0010
1000
,
0100
1000
0001
0010
0100
1000
0001
0010
,
1001
0010
0001
1000
0001
0100
0010
1000
,
0100
0000
0010
0000
0001
0000
0010
0000
0100
0000
1000
0000
0001
1000
0001
1000
,
0001
0010
0100
1000
0010
0100
0001
0010
,
0100
0000
1000
0000
0001
0000
0010
0000
0100
0000
1000
0000
0010
1000
0010
1000
,
0010
0100
0001
0010
0100
1000
0100
0010
,
0001
0100
0010
1000
0100
1000
0001
0100
,
0001
0010
0100
0010
0001
0100
0010
0100
,
0001
0000
1000
0000
0010
0000
0100
0000
0001
0000
1000
0000
0001
0010
0001
0010
,
0001
0101
0110
0100
,
0001
0100
0001
0100
,
0011
1010
0011
0000
,
1000
0000
0000
1000
0000
0000
1000
0000
1000
0000
1000
0000
1000
0000
1000
0000
,
1000
0001
1000
0010
,
1000
0100
1000
0001
,
0100
0000
0001
0000
0010
0000
0001
0010
,
0100
1000
0001
0100
,
0001
0010
0100
1000
,
0001
1000
0010
1000
,
0001
0100
0001
0010
,
0001
1000
0001
1000
0001
0100
0010
0100
,
0010
1000
0100
0010
,
0001
0010
0100
1000
,
0001
1000
0010
0100
,
0001
0000
1000
0100
0010
0000
0001
0000
,
0100
0001
1000
0010
,
1000
0100
1000
0001
,
1001
0000
0000
0000
0100
0010
0100
0010
,
0100
0001
1000
0001
1000
0100
0010
0001
,
1000
0001
0100
0010
,
1000
0001
0100
0010
,
1000
0100
0010
0001
,
0010
0000
0100
0000
1000
0000
0001
0100
,
0001
0010
0001
1000
,
0001
0000
1000
0100
0010
0000
0001
0000
,
0100
0001
0010
0100
,
1000
0010
1000
0001
0100
0001
0010
0001
,
1000
0100
0010
0001
,
1000
0001
1000
0010
,
0110
0000
1001
0000
,
0011
0101
0011
1001
,
0110
0000
0000
0000
,
0000
0000
0000
0000
,
0001
0010
1000
0010
0001
0100
1000
0100
,
0001
0010
0100
1000
0100
0010
0001
1000
,
0001
0000
0000
0000
1000
0001
1000
0000
0000
0000
0000
0000
0010
0100
0010
0000
,
0100
0000
0000
0000
0001
0010
0001
0000
0000
0000
0000
0000
1000
0001
1000
0000
,
0100
0000
0000
0000
1000
0001
1000
0000
0000
0000
0000
0000
0010
0100
0010
0000
,
1000
0000
0000
0000
0100
0010
0100
0000
0000
0000
0000
0000
1000
0010
1000
0000
,
1001
0000
1000
0000
0001
0100
0001
0000
0010
0000
0001
0000
1000
0010
1000
0000
,
0100
0000
1000
0000
0001
0010
0001
0000
0100
0000
0010
0000
0100
0010
0100
0000
,
0110
1100
0110
0000
,
0010
0000
0000
0010
0000
0000
0010
0000
0010
0000
0010
0000
1001
0000
0000
0000
,
0001
0010
0100
1000
0001
1000
0001
0000
,
1000
0100
0010
0000
0100
0010
0100
0000
,
0001
1000
0001
1000
0010
0100
0001
0000
,
1000
0010
1000
0000
0100
0010
0100
0000
,
1000
0100
0010
0001
0010
0100
1000
0000
,
0001
0010
0100
0000
1000
0001
1000
0000
,
0001
0010
0100
1000
0001
0100
0001
0000
,
0010
0001
0100
0000
0010
1000
0010
1000
,
0010
0100
0001
1000
0010
0100
0001
0000
,
1000
0100
0010
0000
0001
0100
0001
0000
,
0010
0001
0100
0010
1000
0100
1000
0000
,
0001
0010
0100
0000
1000
0010
1000
0000
,
0001
0100
0001
0010
0001
1000
0001
0000
,
0100
0010
1000
0000
0100
0010
0100
0000
,
1000
0001
1000
0000
1001
0000
1010
0000
,
1010
0000
0011
0000
0011
0000
0100
0010
,
1000
0100
0010
0001
1000
0100
1000
0000
,
0001
0010
0100
0000
1000
0001
1000
0000
,
0010
0100
0001
1000
0010
0100
0010
0000
,
1000
0100
0010
0000
0001
0010
0001
0000
,
0100
0001
1000
0100
1000
0001
0100
0000
,
0001
0010
0100
0000
1000
0001
1000
0000
,
0010
1000
0001
0100
0001
0010
0001
0000
,
1000
0010
1000
0010
0100
0001
1000
0001
,
0010
0100
1000
0001
0100
0001
0010
0000
,
0001
0010
0100
0000
1000
0001
1000
0000
,
0010
1000
0001
0100
0010
1000
0100
0000
,
1000
0100
0010
0000
0001
0010
0001
0000
,
0010
0001
0100
0010
1000
0100
1000
0000
,
0001
0100
0010
0000
0100
0010
0100
0000
,
1001
0000
0001
0000
0010
0100
0010
0100
,
0001
0010
0100
1000
0100
0010
0001
1000
,
0001
0000
0010
0000
0100
0010
0100
0000
0010
0000
0001
0000
0100
0001
0100
0000
,
0001
0000
1000
0000
0010
1000
0010
0000
1000
0000
0100
0000
0010
0100
0010
0000
,
0001
0000
0010
0000
0001
0100
0001
0000
0010
0000
0100
0000
1000
0100
1000
0000
,
0001
0000
1000
0000
0010
0100
0010
0000
0100
0000
0001
0000
0010
0001
0010
0000
,
0001
0000
0100
0000
0010
0100
0010
0000
1000
0000
0001
0000
0100
0010
0100
0000
,
0001
0000
1000
0000
0001
1000
0001
0000
0010
0000
0100
0000
1000
0001
1000
0000
,
0001
0000
0010
0000
0001
0100
0001
0000
0010
0000
0001
0000
1000
0010
1000
0000
,
0001
0000
0100
0000
0001
0010
0001
0100
0001
0010
0001
0000
1000
0001
1000
0001
,
1000
0000
0010
0000
0100
0010
0100
0000
0001
0000
1000
0000
0010
0100
0010
0000
,
1000
0000
0100
0000
0010
0001
0010
0000
0100
0000
1000
0000
0001
1000
0001
0000
,
0100
0000
0001
0000
0010
0100
1000
0000
0100
0000
1000
0000
0100
0010
0001
0000
,
0100
0000
0001
0000
0010
0100
1000
0000
0010
0100
0010
0000
0100
0001
0100
0010
,
1000
0000
0001
0000
0100
0010
1000
0000
0001
0000
0100
0000
0001
0010
0100
0000
,
1000
0000
0010
0000
0100
0001
0010
0000
0100
0000
1000
0000
0100
0010
0001
0000
,
0010
0000
0001
0000
0100
0001
0100
0000
0110
0000
0000
0000
0100
0010
0100
0000
,
0001
0010
1000
0010
0001
0100
1000
0100
0001
0000
0100
0010
1000
0100
0010
0001
,
1000
0001
1000
0010
1000
0001
1000
0010
,
1000
0100
0010
0001
0010
0100
1000
0000
,
0001
0100
0001
0010
0001
0100
0001
0010
,
0001
0100
0010
1000
0010
0100
0001
0000
,
1000
0100
0010
0001
0100
0010
1000
0100
,
0010
0001
0100
0001
1000
0010
0100
0000
,
0001
0010
0001
0100
0001
1000
0010
1000
,
0100
1000
0001
0100
0001
0010
0100
1000
,
0001
1000
0001
0100
0010
0100
0001
1000
,
0001
0100
0010
1000
0100
0010
0001
0000
,
0100
0001
0010
0001
0100
0010
1000
0100
,
1000
0100
0010
0001
1000
0001
1000
0000
,
0001
0010
0100
1000
0100
0010
0001
1000
,
0001
0100
0010
1000
0010
0100
0001
0000
,
0100
0001
1000
0100
1000
0001
0100
1000
,
0100
0001
0010
1000
0010
0001
0100
0001
,
0010
0100
1000
0001
1000
0001
0100
0010
,
1000
0010
0100
0001
0010
0100
1000
0000
,
0001
0100
0010
1000
0001
0100
0010
1000
,
0001
0010
0100
1000
0001
0100
0010
0000
,
1000
0100
0010
0001
0010
0100
1000
0001
,
0100
0001
0010
0100
1000
0100
0010
0100
,
1000
0100
0010
0001
0100
0010
1000
0100
,
0010
0001
0100
0010
1000
0100
1000
0001
,
0010
0001
0100
0001
1000
0010
1000
0100
,
1000
0001
0100
0001
0010
0100
1000
0010
,
1000
0001
0100
0001
0010
0001
0100
0010
,
1000
0001
0100
0010
1000
0001
0100
0010
,
1000
0001
0100
0001
0010
0100
1000
0001
,
1000
0100
1000
0001
0100
0001
1000
0100
,
1000
0010
0001
1000
0100
0001
1000
0010
,
0001
0010
1000
0010
1000
0100
0010
0100
,
1001
0000
0000
0000
,
1000
0000
0000
0000
,
0001
0000
0000
0000
,
0000
0000
0000
0000
,
0100
0000
0000
0000
,
0010
0000
0000
0000
,
0100
0000
0000
0000
,
0000
0000
0000
0000
,
0001
0000
0000
0000
,
0010
0000
0000
0000
,
0100
0000
0000
0000
,
1000
0000
0000
0000
,
1001
0000
0000
0000
,
1010
0000
0000
0000
,
0011
0000
0000
0000
;

//---------------dance-single - ----------------
#NOTES:
     dance-single:
     :
     Hard:
     12:
     0.812091,1.168229,0.143915,0.000000,0.003598,790.000000,770.000000,20.000000,0.000000,0.000000,0.000000,0.812091,1.168229,0.143915,0.000000,0.003598,790.000000,770.000000,20.000000,0.000000,0.000000,0.000000:
0000
0000
0000
0000
,
0000
0000
0000
0000
,
0000
0000
0000
0000
,
0000
0000
0000
0000
,
0000
0000
0000
0000
,
0000
0000
0000
0000
,
0000
0000
0000
0000
,
0000
0000
0000
0000
,
0000
0000
0000
0000
,
0001
0000
0001
0000
,
1000
1000
1000
1000
,
0010
0000
0010
0000
,
0100
0100
0100
0100
,
0001
0000
0001
0000
,
0010
0010
0010
0010
,
0100
0000
0100
0000
,
1000
0100
1000
0000
,
0001
0000
0100
0000
,
0001
0000
1000
0000
,
0001
0000
0100
0000
,
0001
0000
1000
0001
,
1000
0000
0010
0000
,
1000
0000
0100
0000
,
1000
0000
0001
0000
,
0100
0000
0010
0000
,
0100
0000
0010
0100
,
0010
0000
0000
0000
,
1000
0001
1000
0000
,
0001
0000
1001
0000
,
1000
0000
0001
1000
,
0001
0000
0000
0000
,
0100
0010
0000
1001
,
0000
0000
1000
0001
,
1000
0000
0100
0000
,
1000
0000
0100
0000
,
1000
0000
0001
0000
,
0010
0000
0001
0000
,
0010
0000
0001
0000
,
1001
0000
0000
0000
,
0100
0010
0100
0010
,
1000
0010
1000
0010
,
1001
0000
0100
0001
0100
0000
0001
0000
,
0010
0100
1000
0010
1000
0000
0001
1000
,
0001
0010
0100
1000
0010
0100
0010
0000
,
1000
0000
0001
0000
0100
0100
0010
0010
,
1000
0000
0100
0010
0001
0000
0100
0000
,
0001
0000
0010
0100
1000
0000
0001
1000
,
0001
0010
0100
1000
,
0001
0100
0010
1000
0001
0100
0010
1000
,
0001
0000
0100
0010
0001
0010
0100
0000
,
0010
0000
1000
0100
0010
0100
1000
0000
,
0001
0100
0001
0010
0100
0010
0001
0000
,
0100
0000
0001
0000
1000
0001
1000
0001
,
0100
0100
0100
0100
,
0010
0010
0010
0010
,
0010
0000
1001
0000
,
0001
0000
0000
0001
0000
0000
0001
0000
1000
0000
0001
0000
1000
0000
0001
0000
,
1000
0100
0010
0001
,
0100
0000
0001
0000
,
0010
0100
1000
0001
,
1000
0000
0001
0100
,
0001
0010
0100
0010
,
0001
1000
0010
1000
,
0001
0010
0100
0010
,
0001
1000
0001
0000
1000
0000
0001
0000
,
1000
0010
0100
0010
,
0100
0000
0010
1000
,
0010
0000
1000
0001
,
1000
0000
0001
0010
0001
0000
1000
0000
,
0010
0000
1000
0100
,
1000
0000
0001
0100
,
0001
0000
0000
0000
0010
0001
0010
0001
,
0010
0000
0000
0000
0100
1000
0100
1000
,
0100
0000
1000
0000
,
0001
0100
0001
0010
,
0001
1000
0001
0100
,
0001
0010
0001
0100
,
0001
1000
0010
1000
,
0010
1000
0100
1000
,
0100
1000
0001
1000
,
0010
0100
0010
0100
0010
0100
0010
0000
,
0100
0001
1000
0010
,
1000
0100
0010
0001
,
0011
0000
0101
0000
,
1001
1000
1010
0010
,
0110
0000
0000
0000
,
0000
0000
0000
0000
,
0010
0010
0010
0010
,
0010
0010
0010
0010
,
1001
0000
0010
1000
0010
0000
0100
0001
,
0100
0001
0010
0000
0100
0000
1000
0001
,
1000
0100
0010
0001
0010
0000
0001
0100
,
0001
1000
0010
1000
0010
0000
0100
0001
,
0100
0000
0001
0100
0001
0000
1000
0000
,
0001
1000
0001
0000
0100
0010
0100
0010
,
0100
0010
1001
0000
,
1000
0010
0001
0010
1000
0010
0001
0010
,
1000
0000
0001
0000
1000
0000
0001
0100
,
0001
1000
0001
0010
,
0100
0000
1000
0000
0001
0000
0100
0010
,
0100
0010
1000
0010
,
0100
0010
0100
0000
0001
0000
1000
0001
,
1000
0000
0001
0000
0100
0000
0001
0010
,
0001
0000
0100
0000
0001
0100
0001
0000
,
1000
0000
0001
1000
0001
1000
0001
0000
,
0100
0000
0001
0100
0001
0000
0100
0000
,
0001
0000
1000
0000
0010
1000
0010
0000
,
0100
0000
0001
0100
0001
0000
0010
0000
,
0100
0000
1000
0000
0001
0010
0001
0000
,
0100
0000
0001
0010
0001
0000
1000
0010
,
1000
0000
0010
1000
0010
0000
0100
0001
,
0100
0000
0000
0000
0001
0010
0100
1000
,
0001
1000
0100
0010
0001
0000
0100
0000
,
0001
0100
0001
0010
,
0001
1000
0001
1000
,
0100
1000
0001
0100
,
0001
0010
0100
1000
,
0001
1000
0010
1000
,
0100
1000
0001
1000
,
0100
0010
0001
0010
,
0100
0000
1000
0000
0010
1000
0010
1000
,
0010
0000
0100
0000
0001
0100
0001
0000
,
0010
0100
0010
0000
0001
1000
0001
0000
,
1000
0000
0010
0000
0100
0001
0100
0000
,
0001
0010
0001
0000
1000
0010
1000
0000
,
0001
0100
0010
1000
,
0001
1000
0010
0100
,
0010
0000
0000
0000
0100
0000
0010
0100
,
0001
1000
0010
0100
0001
1000
0001
1000
,
0001
0010
0100
0010
,
0001
1000
0010
1000
,
0001
0010
0001
0100
,
0010
0000
1000
0000
0001
1000
0001
1000
,
0001
0100
0010
1000
,
0010
1000
0001
0100
,
0001
0010
0001
1000
,
0001
0000
1001
0000
1000
0000
0010
0100
,
0010
1000
0010
1000
0010
0100
0010
0100
,
0010
0100
0001
0100
0001
1000
0010
1000
,
0010
1000
0100
1000
0100
1000
0001
1000
,
0001
0010
0100
1000
0100
0010
0001
0000
,
0100
0001
1000
0010
,
1000
0010
0100
0001
0000
0100
0010
1000
,
0010
0100
1001
0000
,
0001
0100
1000
0100
0001
0100
1000
0100
,
0001
0010
0001
0010
0001
0000
1000
0000
,
0001
0000
0100
0000
0001
1000
0001
1000
,
0001
0010
0100
1000
0001
0000
0100
0000
,
0001
0000
0010
0000
0100
1000
0100
1000
,
0100
1000
0010
1000
0010
0000
1000
0000
,
0001
0000
0100
0000
0001
0010
0001
0010
,
0001
1000
0010
0100
0001
0000
1000
0000
,
0001
0000
0100
0000
0010
0100
0010
0100
,
0010
1000
0010
1000
0010
0000
0100
0000
,
0001
0000
0010
0000
0001
1000
0001
1000
,
0001
0100
0010
1000
0001
0000
0010
0000
,
0100
0000
1000
0000
0100
1000
0100
1000
,
0001
1000
0001
0000
0010
0000
0001
0000
,
0100
0000
0001
0000
0010
0100
0010
0100
,
0010
0000
1100
0100
,
0110
0010
0011
0000
,
0001
1000
0001
1000
0001
1000
0001
1000
,
0010
0100
0010
0100
0010
0100
0010
0100
,
0001
0010
0001
0010
0001
1000
0001
1000
,
0010
1000
0010
1000
0100
1000
0100
1000
,
0001
0010
0001
0010
0001
1000
0001
1000
,
0010
1000
0010
1000
0100
0010
0001
0000
,
1000
0010
0100
0001
,
1000
0000
0010
0000
0100
0010
0100
0000
,
0001
0010
0100
1000
,
0001
0100
0001
0010
,
0001
1000
0010
1000
,
0100
1000
0001
0010
,
0001
0100
0010
1000
,
0001
0100
0010
1000
,
0001
0010
1000
0010
,
0001
0100
1000
0100
,
0001
0000
0000
0000
,
1000
0000
0000
0000
,
0010
0000
0000
0000
,
0000
0000
0000
0000
,
0100
0000
0000
0000
,
0001
0000
0000
0000
,
0010
0000
0000
0000
,
0000
0000
0000
0000
,
0100
0000
0000
0000
,
1000
0000
0000
0000
,
0001
0000
0000
0000
,
0100
0000
0000
0000
,
0110
0000
0000
0000
,
0101
0000
0000
0000
,
1001
0000
0000
0000
;

//---------------dance-single - ----------------
#NOTES:
     dance-single:
     :
     Medium:
     9:
     0.568464,0.962071,0.187089,0.000000,0.000000,553.000000,527.000000,26.000000,0.000000,0.000000,0.000000,0.568464,0.962071,0.187089,0.000000,0.000000,553.000000,527.000000,26.000000,0.000000,0.000000,0.000000:
// measure 0
0000
0000
0000
0000
,  // measure 1
0000
0000
0000
0000
,  // measure 2
0000
0000
0000
0000
,  // measure 3
0000
0000
0000
0000
,  // measure 4
0000
0000
0000
0000
,  // measure 5
0000
0000
0000
0000
,  // measure 6
0000
0000
0000
0000
,  // measure 7
0000
0000
0000
0000
,  // measure 8
1001
0000
0000
0000
,  // measure 9
1000
0000
0001
0000
,  // measure 10
1000
0000
0001
0000
,  // measure 11
1000
0000
0010
0000
,  // measure 12
0100
0000
0010
0000
,  // measure 13
0100
0000
0010
0000
,  // measure 14
1000
0000
0100
0000
,  // measure 15
1000
0000
0001
0000
,  // measure 16
0100
0001
0100
0000
,  // measure 17
0001
0000
1000
0000
,  // measure 18
0001
0000
1000
0000
,  // measure 19
0010
0000
1000
0000
,  // measure 20
0010
0000
1000
0000
,  // measure 21
0001
0000
0100
0000
,  // measure 22
0001
0000
0010
0000
,  // measure 23
0001
0000
1000
0001
,  // measure 24
1000
0000
0010
1000
,  // measure 25
0010
0000
0100
0000
,  // measure 26
0100
0001
0100
0000
,  // measure 27
0010
0000
0010
0000
,  // measure 28
1000
0010
1000
0010
,  // measure 29
1000
0000
0001
0000
,  // measure 30
0100
0000
0001
0000
,  // measure 31
0010
0000
0001
1000
,  // measure 32
0001
0000
1000
0001
,  // measure 33
1000
0000
0010
0000
,  // measure 34
1000
0000
0100
0000
,  // measure 35
1000
0000
0010
0000
,  // measure 36
1000
0000
0100
0000
,  // measure 37
0010
0000
0001
0000
,  // measure 38
0100
0000
0000
0000
,  // measure 39
0001
0010
0001
0100
,  // measure 40
0001
0000
1000
0000
,  // measure 41
0010
0100
0001
1000
,  // measure 42
0010
0100
0001
1000
,  // measure 43
0100
0010
0001
0010
,  // measure 44
0100
1000
0001
0100
,  // measure 45
0001
1000
0100
1000
,  // measure 46
0001
0100
0001
0010
,  // measure 47
0001
0100
0001
0010
,  // measure 48
0100
1000
0100
0000
1000
0000
0001
0000
,  // measure 49
0100
0000
0001
0010
0001
0000
1000
0000
,  // measure 50
0010
0000
1000
0000
0001
1000
0001
0000
,  // measure 51
0100
0010
0100
0001
,  // measure 52
0010
0001
0010
0100
,  // measure 53
1000
0000
0000
0000
,  // measure 54
1000
0000
0000
0000
,  // measure 55
0001
0000
1001
0000
,  // measure 56
0100
0010
0100
0010
0100
0000
1001
0000
,  // measure 57
1000
0000
1000
0000
,  // measure 58
0001
0000
0001
0000
,  // measure 59
0100
0000
0100
0000
,  // measure 60
0010
0000
0010
1000
,  // measure 61
0010
0000
0100
0000
,  // measure 62
0001
0000
1000
0000
,  // measure 63
0010
0000
1000
0001
,  // measure 64
1000
0001
1000
0000
0001
0000
1000
0000
,  // measure 65
0010
0000
0100
0000
,  // measure 66
0010
0000
1000
0000
,  // measure 67
0010
0000
0010
0000
,  // measure 68
0100
0000
0001
1000
,  // measure 69
0001
0000
0001
0000
,  // measure 70
0100
0000
0010
0000
,  // measure 71
0100
0000
0001
0010
,  // measure 72
0100
1000
0000
0000
,  // measure 73
0001
1000
0001
0000
,  // measure 74
0100
0010
0100
0000
,  // measure 75
0010
1000
0010
0000
,  // measure 76
0100
0001
0100
0000
,  // measure 77
0010
0000
0010
0000
,  // measure 78
0010
0000
1000
0010
,  // measure 79
1000
0000
0001
0000
,  // measure 80
0100
0001
0100
0000
0000
0000
0010
0000
,  // measure 81
1000
0000
0001
0000
,  // measure 82
0100
0000
0010
0000
,  // measure 83
1001
0000
1001
0000
,  // measure 84
0110
0000
0110
0000
,  // measure 85
1001
0000
0000
0000
,  // measure 86
0000
0000
0000
0000
,  // measure 87
1000
0100
0010
0001
,  // measure 88
1000
0010
0100
0001
,  // measure 89
1000
1000
1000
0000
,  // measure 90
0001
0001
0001
0000
,  // measure 91
0100
0100
0100
0000
,  // measure 92
0010
0010
0010
0000
,  // measure 93
1000
0010
1000
0001
,  // measure 94
0100
0001
0010
0001
,  // measure 95
1000
0001
1000
0000
1001
0000
0000
0000
,  // measure 96
0001
0010
0100
1000
0001
0100
0010
1000
,  // measure 97
0001
1000
0001
0000
,  // measure 98
1000
0001
1000
0000
,  // measure 99
0010
0100
0010
0000
,  // measure 100
0100
0010
0100
0000
,  // measure 101
0001
0010
0001
0000
,  // measure 102
1000
0010
1000
0000
,  // measure 103
0100
1000
0100
0000
,  // measure 104
0010
0000
0001
0000
0010
0001
0010
0000
,  // measure 105
0001
0000
1000
0001
,  // measure 106
1000
0000
0001
1000
,  // measure 107
0001
0100
0010
0100
,  // measure 108
0000
0000
0010
1000
,  // measure 109
0010
0100
0001
0100
,  // measure 110
0000
0000
0001
1000
,  // measure 111
0001
0000
1001
0000
,  // measure 112
0110
0000
0011
0000
,  // measure 113
1010
0000
0010
0000
,  // measure 114
1000
0001
1000
0000
,  // measure 115
0001
0000
0100
0001
,  // measure 116
0100
0000
0001
1000
,  // measure 117
0001
0000
1000
0010
,  // measure 118
1000
0000
0001
0010
,  // measure 119
0001
0000
1000
0010
,  // measure 120
1000
0000
0000
0000
0001
1000
0001
0000
,  // measure 121
1000
0000
0001
0000
,  // measure 122
0100
0010
0100
0010
,  // measure 123
0100
0000
0001
0000
,  // measure 124
0010
0100
0010
0100
,  // measure 125
0010
0000
0001
0000
,  // measure 126
1000
0001
1000
0001
,  // measure 127
1000
0000
0011
0000
,  // measure 128
1010
0000
1001
0000
,  // measure 129
0110
0100
0010
0100
,  // measure 130
0001
1000
0010
0100
,  // measure 131
0001
0010
0100
1000
,  // measure 132
0001
0000
1000
0000
0010
0000
0100
0010
,  // measure 133
0100
0001
1000
0001
,  // measure 134
0100
0010
0100
0001
,  // measure 135
0010
0100
1000
0001
,  // measure 136
1000
0000
0001
1000
0001
1000
0001
0000
,  // measure 137
0100
0010
0100
0001
,  // measure 138
0100
0010
1000
0010
,  // measure 139
1000
0001
0010
0100
,  // measure 140
1000
0100
1000
0100
,  // measure 141
0010
0001
0010
0001
,  // measure 142
1000
0001
1000
0100
,  // measure 143
1000
0001
1001
0000
,  // measure 144
0001
0010
0100
1000
0010
0100
0001
0010
,  // measure 145
0100
1000
0100
0000
,  // measure 146
1000
0001
1000
0000
,  // measure 147
0001
0100
0001
0000
,  // measure 148
0010
0001
0010
0001
,  // measure 149
0010
0100
1000
0100
,  // measure 150
1000
0001
1000
0000
,  // measure 151
0001
1000
0001
0000
,  // measure 152
1000
0000
0001
0000
1000
0000
0010
1000
,  // measure 153
0010
0000
1000
0000
,  // measure 154
0001
0000
0010
0001
,  // measure 155
0010
0000
0100
0000
,  // measure 156
1000
0000
0010
1000
,  // measure 157
0010
0000
0100
0010
,  // measure 158
0100
0000
0001
0010
,  // measure 159
0001
0000
1001
0000
,  // measure 160
0110
0000
1001
0100
,  // measure 161
1001
0000
0100
0000
,  // measure 162
0001
0010
0001
0100
,  // measure 163
0001
0000
1000
0000
,  // measure 164
0010
1000
0010
0100
,  // measure 165
0010
0000
1000
0000
,  // measure 166
0001
1000
0001
0000
,  // measure 167
0100
0000
0001
0100
,  // measure 168
0001
0000
0000
0000
1000
0001
1000
0000
,  // measure 169
0001
0010
0100
1000
,  // measure 170
0001
0100
0010
1000
,  // measure 171
0001
0000
0100
0001
,  // measure 172
0100
0000
0001
1000
,  // measure 173
0001
1000
0010
0100
,  // measure 174
0001
0010
0100
1000
,  // measure 175
1001
0000
1000
0001
,  // measure 176
1000
0100
1000
0000
0001
0000
0010
0100
,  // measure 177
0010
0000
0000
0000
,  // measure 178
0100
0000
0000
0000
,  // measure 179
1000
0000
0000
0000
,  // measure 180
0000
0000
0000
0000
,  // measure 181
0001
0000
0000
0000
,  // measure 182
0100
0000
0000
0000
,  // measure 183
0010
0000
0000
0000
,  // measure 184
0000
0000
0000
0000
,  // measure 185
1000
0000
0000
0000
,  // measure 186
0001
0000
0000
0000
,  // measure 187
1000
0000
0000
0000
,  // measure 188
0010
0000
0000
0000
,  // measure 189
0110
0000
0000
0000
,  // measure 190
1001
0000
0000
0000
,  // measure 191
0110
0000
0000
0000
;

//---------------dance-single - ----------------
#NOTES:
     dance-single:
     :
     Easy:
     7:
     0.332032,0.687194,0.215872,0.000000,0.000000,323.000000,293.000000,30.000000,0.000000,0.000000,0.000000,0.332032,0.687194,0.215872,0.000000,0.000000,323.000000,293.000000,30.000000,0.000000,0.000000,0.000000:
0000
0000
0000
0000
,
0000
0000
0000
0000
,
0000
0000
0000
0000
,
0000
0000
0000
0000
,
0000
0000
0000
0000
,
0000
0000
0000
0000
,
0000
0000
0000
0000
,
0000
0000
0000
0000
,
0010
0000
0000
0000
,
1000
0000
0000
0000
,
1001
0000
0000
0000
,
0010
0000
0000
0000
,
1010
0000
0000
0000
,
1000
0000
0000
0000
,
0011
0000
0000
0000
,
0100
0000
0000
0000
,
0001
0000
0001
0000
,
0001
0000
0000
0000
,
1000
0000
0000
0000
,
0001
0000
0000
0000
,
0100
0000
0000
0000
,
0010
0000
0000
0000
,
1000
0000
0000
0000
,
0001
0000
0001
0000
,
1000
0000
1000
0000
,
1001
0000
0000
0000
,
0100
0000
0000
0000
,
0010
0000
0000
0000
,
0100
0000
0000
0000
,
1001
0000
0000
0000
,
0001
0000
0000
0000
,
1000
0000
0000
0011
,
0000
0000
1000
0000
,
1001
0000
0000
0000
,
0100
0000
0000
0000
,
0010
0000
0000
0000
,
1000
0000
0000
0000
,
0001
0000
0000
0000
,
1001
0000
0000
0000
,
0110
0000
0000
0000
,
0000
0000
0000
0000
,
0001
0010
0001
0000
,
1000
0001
1000
0000
,
0001
0000
0010
0000
,
0100
0000
1000
0000
,
0001
1000
0001
0000
,
0100
0010
0100
0000
,
0001
0000
0001
0000
,
1000
0000
0010
0000
,
0100
0000
0001
0010
,
0001
0000
0010
0000
,
0100
0000
1000
0001
,
1000
0000
0010
0000
,
1000
0000
0000
0000
,
0000
0000
0000
0000
,
0001
0000
1001
0000
,
0100
0010
0100
0010
,
1000
0000
0000
0000
,
1000
0000
0000
0000
,
0001
0000
0000
0000
,
0001
0000
0000
0000
,
0100
0000
0000
0000
,
0100
0000
0000
0000
,
0010
0000
0000
0000
,
0010
0000
0100
0000
,
0010
0000
0000
0000
,
1000
0000
0000
0000
,
0001
0000
0000
0000
,
0100
0000
0010
0000
,
0100
0000
0000
0000
,
0001
0000
0000
0000
,
1000
0000
0001
0000
,
1000
0000
0001
0000
,
1000
0000
0000
0000
,
0010
0000
0000
0000
,
0100
0000
0000
0000
,
0001
0000
0100
0000
,
0001
0000
0000
0000
,
1000
0000
0000
0000
,
0010
0000
1000
0000
,
0010
0000
0100
0000
,
0010
0000
0000
0000
,
0100
0000
0000
0000
,
0101
0000
0000
0000
,
1001
0000
1010
0000
,
1001
0000
0000
0000
,
0000
0000
0000
0000
,
0001
0000
0100
0000
,
0001
0000
1000
0000
,
0001
0000
0001
0000
,
1000
0000
1000
0000
,
0010
0000
0010
0000
,
0100
0000
0100
0000
,
0001
0100
0001
0010
,
0001
0000
1000
0000
,
0010
0000
1001
0000
,
1000
0001
0100
0010
,
1000
0000
1000
0000
,
1000
0000
0001
0000
,
0100
0000
0001
0000
,
0001
0000
0010
0000
,
0100
0000
0100
0000
,
0100
0000
1000
0000
,
0010
0000
1000
0000
,
1000
0000
0001
0000
,
0100
0000
0100
0000
,
0100
0000
0010
0000
,
0100
0000
0001
0000
,
0010
0000
0001
0000
,
0001
0000
1000
0000
,
0001
0000
0100
0000
,
1001
0000
0100
0000
,
0000
0000
0000
0000
,
0001
0000
0001
0000
,
1000
0000
1000
0000
,
0010
0000
0010
0000
,
0100
0000
0100
0000
,
0001
0000
1000
0000
,
0001
0000
1000
0000
,
0010
0000
0100
0000
,
0010
0000
0100
0000
,
0001
0000
0000
0000
,
1001
0000
0000
0000
,
1000
0000
0000
0000
,
1010
0000
0000
0000
,
0001
0000
0000
0000
,
0011
0000
0000
0000
,
1001
0000
0100
0000
,
0001
0000
1000
0000
,
0010
0000
0000
0000
,
0100
0000
0000
0000
,
0001
0000
0000
0000
,
1000
0000
0000
0000
,
0001
0000
0000
0000
,
0010
0000
0000
0000
,
0001
0000
0000
0000
,
0100
0000
1001
0000
,
0110
0010
0100
0010
,
1000
0001
1000
0001
,
0010
0100
0010
0100
,
0010
0001
1000
0001
,
1001
0000
0000
0000
,
0100
0000
0000
0000
,
0010
0000
1001
0000
,
1000
0100
0010
0001
,
1000
0000
0001
0000
,
1000
0000
0010
0000
,
1000
0000
0001
0000
,
1000
0000
0001
0000
,
0100
0000
0001
0000
,
0010
0000
0001
0000
,
0100
0000
0001
0000
,
1000
0000
0100
0000
,
0010
0000
0001
0000
,
0010
0000
0100
0000
,
1000
0000
0001
0000
,
1000
0000
0010
0000
,
1000
0000
0100
0000
,
1000
0000
0001
0000
,
1001
0000
0000
0000
,
0110
0000
0000
0000
,
1000
0000
0001
0000
,
1000
0000
0001
0000
,
0100
0000
0010
0000
,
0100
0000
0010
0000
,
1000
0000
0100
0000
,
1000
0000
0100
0000
,
0010
0000
0001
0000
,
0010
0000
0001
0000
,
1001
0000
0000
0000
,
0100
0000
0000
0000
,
0101
0000
0000
0000
,
0001
0000
0000
0000
,
0011
0000
0000
0000
,
1000
0000
0000
0000
,
0001
0000
1000
0000
,
0001
0000
0100
0100
,
0010
0000
0000
0000
,
0100
0000
0000
0000
,
0001
0000
0000
0000
,
0000
0000
0000
0000
,
1000
0000
0000
0000
,
0010
0000
0000
0000
,
1000
0000
0000
0000
,
0000
0000
0000
0000
,
0001
0000
0000
0000
,
0010
0000
0000
0000
,
0100
0000
0000
0000
,
1000
0000
0000
0000
,
0100
0000
0000
0000
,
0010
0000
0000
0000
,
1001
0000
0000
0000
;
