#TITLE:UPSIDE DOWN;
#SUBTITLE:(DVE MIX);
#ARTIST:DVE vs COO COO;
#TITLETRANSLIT:;
#SUBTITLETRANSLIT:;
#ARTISTTRANSLIT:;
#GENRE:;
#CREDIT:;
#BANNER:banner.png;
#BACKGROUND:background.png;
#LYRICSPATH:;
#CDTITLE:;
#MUSIC:UPSIDE DOWN.ogg;
#OFFSET:0.000000;
#SAMPLESTART:54.411278;
#SAMPLELENGTH:13.241375;
#SELECTABLE:YES;
#BPMS:0.000000=145.000000
;
#STOPS:
;
#BGCHANGES:;
#KEYSOUNDS:;
#ATTACKS:;

//---------------dance-single - ----------------
#NOTES:
     dance-single:
     :
     Hard:
     10:
     0.635667,0.751072,0.141903,0.000000,0.598019,439.000000,425.000000,14.000000,0.000000,0.000000,0.000000,0.635667,0.751072,0.141903,0.000000,0.598019,439.000000,425.000000,14.000000,0.000000,0.000000,0.000000:
0000
0000
0000
0000
,
0000
0000
0000
0000
,
0000
0000
0000
0000
,
0000
0000
0000
0000
,
0000
0000
0000
0000
,
0000
0000
0000
0000
,
0000
0000
0000
0000
,
0000
0000
0000
0000
,
0000
0000
0000
0000
,
0010
0000
0010
0000
1000
0000
1000
0000
0100
0000
0000
0010
0000
0001
0000
0001
,
0100
0000
0100
0000
0010
0000
0010
0000
1000
0000
0000
0100
0000
0100
0010
0100
,
1000
0000
1000
0000
0010
0000
0010
0000
0100
0000
0000
0001
0000
0010
0000
0010
,
0001
0100
0001
0000
0100
0000
0010
0000
1000
0000
0000
1001
0000
0000
0000
0000
,
0010
0000
0010
0000
0001
0000
0001
0000
0100
0000
0000
0010
0000
1000
0000
1000
,
0100
0000
0100
0000
0010
0000
0010
0000
0001
0000
0000
0100
0000
0100
0010
0100
,
0001
0000
0001
0000
0010
0000
0010
0000
0100
0000
0000
1000
0000
0010
0000
0010
,
1000
0100
1000
0000
0010
0000
0100
0000
0001
0000
0100
0000
0100
0001
1000
0001
,
1000
0000
0100
0000
1000
0000
1000
0010
0000
0000
0010
0000
1000
0000
0001
1000
,
0001
0000
0010
0000
0100
0000
0100
1000
0000
0000
1000
0000
0010
0000
1000
0000
,
0001
0000
0001
0000
1000
0000
1000
0000
0010
0000
0000
0101
0000
0000
0000
0000
,
0001
0000
0001
0000
0010
0000
0010
0000
0100
0000
0000
1100
0000
0000
1000
0100
,
0010
0000
0001
0000
1000
0000
0001
0100
0000
0100
0001
0000
0010
0100
0010
0100
,
1000
0000
0010
0000
1000
0000
0001
0100
0000
0100
0001
0000
1000
0000
0010
0000
,
1000
0000
1000
0000
0100
0000
0100
0000
0010
0000
0000
1001
0000
0000
0000
0000
,
0001
0000
0001
0000
0100
0000
0010
0000
0100
0000
0010
0000
0010
1000
0001
0100
,
0010
0010
1000
1000
0100
0010
0000
0001
,
0000
0001
0010
0010
0100
1000
0000
0000
,
0100
1000
0100
0010
0001
0100
0000
0100
,
0010
0000
0000
0000
1000
0001
0100
0001
,
1001
0000
0000
1000
0000
0000
0001
0000
0000
1000
0000
0000
0100
0000
0010
0000
,
0110
0000
0000
0100
0000
0000
0010
0000
0000
0100
0000
0000
0010
0000
0001
0000
,
0011
0000
0000
0001
0000
0000
0100
0000
0000
0010
0000
0000
1000
0000
0010
0100
,
0001
0010
0001
0010
0100
0010
0100
0010
0100
1000
0100
1000
0100
0010
0001
0000
,
0000
0000
0001
0100
0010
0000
1000
0000
0010
0000
0100
0001
1000
0000
0100
0000
,
0010
0000
0001
1000
0010
0000
1000
0000
0001
0100
0000
0001
0010
0000
0100
1000
,
0001
0000
0100
0010
0100
0000
0001
0000
1000
0000
0100
0010
0100
0000
1000
0000
,
0010
0000
1000
0001
0100
0000
0001
0000
0010
0100
1000
0100
0010
0001
0100
0000
,
0000
0000
0100
0010
1000
0000
0001
0000
1000
0000
0100
0010
0000
0001
0000
0001
,
0010
0000
0100
1000
0100
0000
0010
0000
0001
0000
0100
0010
0000
0010
0100
0001
,
0100
0000
0100
0010
1000
0000
0001
0000
1000
0000
0100
0010
0000
0100
0000
0100
,
0010
0001
0010
0000
0001
0000
0100
0000
1010
0000
0000
1100
0000
0000
0011
0000
,
0000
0001
1000
0001
0100
0010
0100
0001
,
1000
0000
0100
0000
1000
0000
0010
0100
0001
0000
0010
0000
0001
0000
1000
0000
,
1100
0000
0010
0011
0000
0001
0110
0000
,
1010
0000
1000
0000
0010
0000
0100
0000
0001
0100
0010
1000
0100
0010
0001
0100
,
0010
0000
0010
0000
1000
0000
1000
0000
0001
0000
1000
0100
0000
1000
0000
1000
,
0010
0000
0010
0000
0100
0000
0100
0000
0001
0000
0010
0001
0000
0001
1000
0001
,
0010
0000
0010
0000
0001
0000
0001
0000
0100
0000
0100
0010
0000
1000
0000
1000
,
0010
0100
0001
0000
1000
0000
0100
0000
0010
0000
0100
0010
0001
1000
0001
0010
,
0100
0000
0100
0000
1000
0000
1000
0000
0001
0000
1000
0001
0000
0010
0000
0010
,
0100
0000
0100
0000
0010
0000
0010
0000
0001
0000
0001
1000
0000
1000
0010
1000
,
0100
0000
0100
0000
1000
0000
1000
0000
0001
0000
0001
0100
0000
0001
0000
0001
,
0100
0010
1000
0000
0001
0000
1000
0000
0100
1000
0100
1000
0001
0010
0001
0010
,
0001
0100
0001
0000
0001
1000
0001
0010
,
0001
0100
0001
0000
0001
0010
0001
1000
,
0100
1000
0010
0000
0010
1000
0001
0100
,
0010
1000
0010
1000
0010
0100
0010
0100
0001
0100
0001
0100
0010
1000
0100
0010
,
0001
0000
0000
0000
;

//---------------dance-single - ----------------
#NOTES:
     dance-single:
     :
     Medium:
     8:
     0.469148,0.519973,0.141903,0.000000,0.167243,324.000000,310.000000,14.000000,0.000000,0.000000,0.000000,0.469148,0.519973,0.141903,0.000000,0.167243,324.000000,310.000000,14.000000,0.000000,0.000000,0.000000:
0000
0000
0000
0000
,
0000
0000
0000
0000
,
0000
0000
0000
0000
,
0000
0000
0000
0000
,
0000
0000
0000
0000
,
0000
0000
0000
0000
,
0000
0000
0000
0000
,
0000
0000
0000
0000
,
0000
0000
0000
0000
,
0010
0000
1000
0000
0010
0000
0100
0000
0001
0000
0000
0010
0000
0000
0010
0000
,
0001
0000
0010
0000
0001
0000
0100
0000
0010
0000
0000
1000
0000
0000
1000
0000
,
0010
0000
1000
0000
0100
0000
1000
0000
0010
0000
0000
0100
0000
0000
0100
0000
,
0001
0000
0010
0000
0100
0000
1000
0000
0100
0000
0000
0110
0000
0000
0000
0000
,
0010
0000
0001
0000
0100
0000
0010
0000
0100
0000
0000
0001
0000
0000
1000
0000
,
0001
0000
1000
0000
0100
0000
0010
0000
0100
0000
0000
1000
0000
0000
0010
0000
,
1000
0000
0001
0000
0100
0000
0010
0000
0100
0000
0000
0001
0000
0000
0010
0000
,
0100
1000
0100
0010
0001
1000
1001
0000
,
0010
0000
0000
0000
1000
0000
0000
1000
0100
0000
1000
0000
0100
0000
0000
0000
,
0010
0000
0100
0000
0010
0000
0000
0010
0001
0000
0100
0000
0001
0000
0000
0000
,
0100
0000
0010
0000
0100
0000
0001
0000
1000
0000
0000
1001
0000
0000
0000
0000
,
0010
0000
1000
0000
0100
0000
0010
0000
0001
0000
0000
1001
0000
0000
0000
0000
,
0010
0001
0010
0100
1000
0010
1000
0001
,
0100
0010
0100
0001
0010
0100
1000
0000
,
0010
0000
0001
0000
0010
0000
0100
0000
1000
0000
0000
1001
0000
0000
0000
0000
,
0010
0000
1000
0000
0010
0000
0100
0000
0001
0000
0000
1001
0000
0000
0000
0000
,
0010
0000
0001
0000
0001
0100
0000
0010
,
0000
0010
0100
0000
0001
1000
0000
0000
,
1000
0100
1000
0000
0010
1000
0010
0000
,
0100
0001
1000
0010
,
1001
0000
0000
1000
0000
0000
1000
0000
0000
1000
0000
0000
1000
0000
0000
0000
,
0001
0000
0000
0001
0000
0000
0001
0000
0000
0001
0000
0000
0001
0000
0000
0000
,
0010
0000
0000
0010
0000
0000
0010
0000
0000
0010
0000
0000
0010
0000
0000
0000
,
0100
0000
0000
0000
0010
0000
0000
0000
0001
0000
0000
0000
0010
0100
1000
0000
,
0000
0100
0001
0100
1000
0001
0100
1000
,
0100
0001
0010
0100
1000
0010
1010
0000
,
1000
0010
0001
0000
1000
0100
0001
0000
,
0001
0000
0010
0000
0100
0000
1000
0000
0010
0000
0100
0000
0001
0010
0001
0000
,
0000
0100
1000
0100
0001
1000
0100
0001
,
0100
1000
0010
0100
0001
0010
0011
0000
,
0001
0010
1000
0000
0001
0100
1000
0000
,
0010
0000
1000
0000
0010
0000
0100
0000
0010
0000
0000
0110
0000
0000
1001
0000
,
0000
0001
1000
0010
1000
0001
1000
0010
,
0100
0001
0100
0010
1000
0100
0010
0001
,
0011
0000
0000
0010
0000
0000
0100
0000
,
1000
0100
1000
0100
0010
0001
0010
0001
,
0100
0000
0001
0000
0100
0000
0010
0000
1000
0000
0000
0100
0000
0000
0100
0000
,
1000
0000
0100
0000
1000
0000
0010
0000
0100
0000
0000
0001
0000
0000
0001
0000
,
0100
0000
0001
0000
0010
0000
0001
0000
0100
0000
0000
0010
0000
0000
0010
0000
,
1000
0000
0100
0000
0010
0000
0001
0000
0010
0000
0000
0110
0000
0000
0000
0000
,
0100
0000
1000
0000
0010
0000
0100
0000
0010
0000
0000
1000
0000
0000
0001
0000
,
1000
0000
0001
0000
0010
0000
0100
0000
0010
0000
0000
0001
0000
0000
0100
0000
,
0001
0000
1000
0000
0010
0000
0100
0000
0010
0000
0000
1000
0000
0000
0100
0000
,
0010
0001
0010
0100
1000
0001
1001
0000
,
0000
1000
0010
0000
0100
0000
0100
0001
,
0000
0001
0100
0000
0010
0000
0010
1000
,
0000
1000
0010
0000
0100
0000
0100
0001
,
0010
0000
0000
0000
0100
0000
0000
0000
1000
0001
1000
0001
0100
0010
0100
0010
,
0100
0000
0000
0000
;

//---------------dance-single - ----------------
#NOTES:
     dance-single:
     :
     Easy:
     5:
     0.296838,0.375536,0.050680,0.000000,0.005068,205.000000,200.000000,5.000000,0.000000,0.000000,0.000000,0.296838,0.375536,0.050680,0.000000,0.005068,205.000000,200.000000,5.000000,0.000000,0.000000,0.000000:
// measure 0
0000
0000
0000
0000
,  // measure 1
0000
0000
0000
0000
,  // measure 2
0000
0000
0000
0000
,  // measure 3
0000
0000
0000
0000
,  // measure 4
0000
0000
0000
0000
,  // measure 5
0000
0000
0000
0000
,  // measure 6
0000
0000
0000
0000
,  // measure 7
0000
0000
0000
0000
,  // measure 8
0000
0000
0000
0000
,  // measure 9
0010
1000
0001
1000
,  // measure 10
0010
0100
0010
1000
,  // measure 11
0100
0010
0100
0010
,  // measure 12
0001
0010
0100
0000
1000
0000
1000
0000
,  // measure 13
0010
1000
0001
0100
,  // measure 14
0010
1000
0100
1000
,  // measure 15
0001
0010
0001
0100
,  // measure 16
0010
1000
0001
0000
1000
0000
0100
0000
,  // measure 17
0010
0001
1000
0001
,  // measure 18
1000
0010
1000
0000
0001
0000
0100
0000
,  // measure 19
0010
0010
0010
0000
1000
0000
1000
0000
,  // measure 20
0100
0100
0100
0000
0010
0000
0010
0000
,  // measure 21
0001
1000
0100
1000
,  // measure 22
0010
0100
0010
0000
1000
0000
0001
0000
,  // measure 23
0100
0100
0100
0000
0010
0000
1000
0000
,  // measure 24
0100
0100
0100
0000
0010
0000
0001
0000
,  // measure 25
1000
1000
1000
0000
,  // measure 26
0010
0010
0010
0000
,  // measure 27
0100
0000
0001
0000
,  // measure 28
1000
0000
0001
0010
,  // measure 29
0100
0010
0001
0000
,  // measure 30
1000
0001
0010
0000
,  // measure 31
0100
0000
1000
0000
0010
1000
0000
1000
,  // measure 32
0000
0000
0000
0000
0001
0000
0000
1001
,  // measure 33
0000
0000
0001
0000
0010
0000
0000
0110
,  // measure 34
0000
0100
1000
0010
,  // measure 35
1000
0010
1000
0000
0001
0100
0001
0000
,  // measure 36
1000
0000
0001
0000
0010
0100
0000
0110
,  // measure 37
0000
0000
0100
0000
1000
0000
0000
1010
,  // measure 38
0000
0010
0100
0000
,  // measure 39
0001
1000
0001
0000
0010
0100
0010
0000
,  // measure 40
0001
0000
0000
0000
0010
0000
0000
0000
0100
0000
0000
1000
0000
0000
1100
0000
,  // measure 41
0000
0100
0010
0001
,  // measure 42
0100
0010
0100
0010
0100
0000
0001
0000
,  // measure 43
1000
0000
0000
0010
0000
0000
1000
0000
,  // measure 44
0001
1000
0100
0010
,  // measure 45
0001
0100
0010
0100
,  // measure 46
0001
1000
0010
1000
,  // measure 47
0100
0010
0001
0010
,  // measure 48
0100
1000
0100
0000
0010
0000
0001
0000
,  // measure 49
0100
0010
1000
0001
,  // measure 50
1000
0100
0010
0001
,  // measure 51
0100
0001
1000
0010
,  // measure 52
1000
0001
1000
0000
0100
0000
1000
0000
,  // measure 53
0010
0010
0010
0010
,  // measure 54
1000
1000
1000
1000
,  // measure 55
0001
0001
0001
0001
,  // measure 56
0010
0001
1000
0100
0010
0001
1000
0100
,  // measure 57
0010
0000
0000
0000
;
