#TITLE:Together Forever (The Cyber Pet Song);
#SUBTITLE:;
#ARTIST:Daze;
#TITLETRANSLIT:;
#SUBTITLETRANSLIT:;
#ARTISTTRANSLIT:;
#GENRE:;
#CREDIT:BadWolf;
#BANNER:[Flashback to 1999] - Together Forever (The Cyber Pet Song).png;
#BACKGROUND:[Flashback to 1999] - Together Forever (The Cyber Pet Song)-bg.png;
#LYRICSPATH:[Flashback to 1999] - Together Forever (The Cyber Pet Song).lrc;
#CDTITLE:cdtitle.png;
#MUSIC:[Flashback to 1999] - Together Forever (The Cyber Pet Song).ogg;
#OFFSET:0.000000;
#SAMPLESTART:16.609398;
#SAMPLELENGTH:14.769232;
#SELECTABLE:YES;
#BPMS:0.000000=130.000000
;
#STOPS:
;
#BGCHANGES:;
#KEYSOUNDS:;
#ATTACKS:;

//---------------dance-single - ----------------
#NOTES:
     dance-single:
     :
     Hard:
     8:
     0.437844,0.467609,0.052481,0.000000,0.183685,292.000000,287.000000,5.000000,0.000000,0.000000,0.000000,0.437844,0.467609,0.052481,0.000000,0.183685,292.000000,287.000000,5.000000,0.000000,0.000000,0.000000:
0000
0000
0000
0000
,
0000
0000
0000
0000
,
0000
0000
0000
0000
,
0000
0000
0000
0000
,
0000
0000
0000
0000
0000
0000
0000
1000
,
1001
0000
0001
0000
0001
0000
0000
0000
1000
0000
0000
0100
0000
0000
0010
0000
,
0001
0000
1000
0000
1000
0000
0000
0000
0001
0000
0000
0010
0000
0000
0100
0000
,
0000
0000
0010
0000
0010
0000
0000
0000
0001
0000
0000
1000
0000
0000
0010
0000
,
0100
0000
0001
0000
0001
0000
0000
0000
1000
0000
0000
0001
0000
0000
1000
0001
,
1000
0000
0100
0000
0010
0000
0100
0000
1000
0000
0000
0001
0000
0000
0100
0000
,
0001
0000
0010
0000
0100
0000
0010
0000
0001
0000
0000
1000
0000
0000
0010
0000
,
1000
0000
0100
0000
0010
0000
0001
0000
0100
0000
0000
0010
0000
0000
1000
0000
,
0001
0000
0010
0000
0100
0000
1000
0000
0010
0000
0000
0100
0000
0000
0001
0000
,
1000
0000
0001
0000
0010
0000
0001
0000
1000
0000
0000
0100
0000
0000
0010
0000
,
0001
0000
1000
0000
0010
0000
1000
0000
0001
0000
0000
0100
0000
0000
0010
0000
,
1000
0100
0010
0001
0000
0000
1000
0010
,
1000
0010
0100
0001
1000
0001
1000
0000
,
0001
0000
1000
0000
0100
0000
1000
0000
0001
1000
0001
1000
0000
0000
0000
0000
,
0001
0000
1000
0000
0010
0000
1000
0000
0100
0000
0000
0010
0000
0000
0001
0000
,
1000
0000
0100
0000
1000
0000
0000
0000
0001
0000
0000
1000
0000
0000
0001
0000
,
1000
0000
0001
0000
0100
0000
0001
0000
0010
0000
0000
0100
0000
0000
1000
0000
,
0001
0000
0010
0000
0001
0000
0000
0000
1000
0000
0000
0001
0000
0000
1000
0000
,
0001
0000
0100
0000
0010
0000
0100
0000
0001
0000
0000
1000
0000
0000
0010
0000
,
1000
0000
0001
0000
1000
0000
0000
0000
0100
0000
0000
0010
0000
0000
0001
0000
,
1000
0000
0010
0000
0100
0000
0010
0000
1000
0000
0000
0001
0000
0000
0100
0000
,
0001
0000
1000
0000
0001
0000
0000
0000
1100
0000
0000
0110
0000
0000
0011
0000
,
0001
0000
0100
0000
0010
0000
0100
0000
0001
0000
0000
1000
0000
0000
0100
0000
,
1000
0000
0010
0000
0100
0000
0010
0000
1000
0000
0000
0001
0000
0000
0010
0000
,
0001
0000
0100
0000
0010
0000
1000
0000
0100
0000
0000
0010
0000
0000
0001
0000
,
1000
0000
0010
0000
0100
0000
0001
0000
0010
0000
0000
0100
0000
0000
1000
0000
,
0001
0000
1000
0000
0010
0000
1000
0000
0001
0000
0000
0100
0000
0000
0010
0000
,
1000
0000
0001
0000
0010
0000
0001
0000
1000
0000
0000
0100
0000
0000
0010
0000
,
0001
0100
0010
1000
0000
0000
0001
0010
,
0001
0000
0010
0000
0100
0000
1000
0000
0001
0000
0000
1000
0000
0000
0001
0000
,
1000
0010
0001
0010
1000
0000
0001
0100
,
1000
0000
1000
0100
0001
0000
1000
0000
,
0001
0010
1000
0010
0001
0000
1000
0100
,
0001
0000
0001
0100
1000
0000
0001
0000
,
1000
0010
0001
0010
1000
0000
0100
0010
,
0001
0000
0001
1000
0010
0000
0100
0000
,
0001
0010
1000
0010
0001
0000
0100
0010
,
1000
0000
1000
0001
0010
0000
0100
0000
,
1000
0000
0001
0000
0001
0000
0000
0000
0100
0000
0000
0010
0000
0000
1000
0000
,
0001
0000
1000
0000
1000
0000
0000
0000
0100
0000
0000
0010
0000
0000
0001
0000
,
0000
0000
0100
0000
0100
0000
0000
0000
0010
0000
0000
1000
0000
0000
0001
0000
,
1000
0000
0100
0000
0100
0000
0000
0000
0010
0000
0000
0001
0000
0000
1000
0000
,
1001
0000
0001
0000
0001
0000
0000
0000
1000
0000
0000
0010
0000
0000
0100
0000
,
0001
0000
1000
0000
1000
0000
0000
0000
0001
0000
0000
0010
0000
0000
0100
0000
,
0000
0000
0010
0000
0010
0000
0000
0000
0001
0000
0000
1000
0000
0000
0001
0000
,
0100
0010
0010
0000
1000
0000
0000
0000
;

//---------------dance-single - ----------------
#NOTES:
     dance-single:
     :
     Medium:
     6:
     0.305891,0.337717,0.031489,0.000000,0.062978,204.000000,201.000000,3.000000,0.000000,0.000000,0.000000,0.305891,0.337717,0.031489,0.000000,0.062978,204.000000,201.000000,3.000000,0.000000,0.000000,0.000000:
0000
0000
0000
0000
,
0000
0000
0000
0000
,
0000
0000
0000
0000
,
0000
0000
0000
0000
,
0000
0000
0000
0000
0000
0000
0000
0001
,
1000
0000
0000
0000
0000
0000
0000
0000
0010
0000
0000
0010
0000
0000
0010
0000
,
0000
0000
0000
0000
0000
0000
0000
0000
1000
0000
0000
0001
0000
0000
1000
0000
,
0000
0000
0000
0000
0000
0000
0000
0000
0100
0000
0000
0100
0000
0000
0100
0000
,
0000
0000
1001
0000
,
1000
0010
1000
0000
0010
0100
0010
0000
,
0100
0001
0100
0000
0001
0010
0001
0000
,
1000
0000
0100
0000
0010
0001
0010
0000
,
0001
0000
0100
0000
0010
1000
0010
0000
,
1000
0100
1000
0000
0100
0010
0100
0000
,
0010
0001
0010
0000
0001
0100
0001
0000
,
1000
0000
0010
0000
0100
0001
0100
0000
,
0001
0000
0010
0000
0100
1000
0100
0000
,
1000
0001
1001
0000
,
1000
0100
0010
0100
,
1000
0010
0001
0010
,
1000
0100
0010
0001
,
0100
0010
1000
0001
,
0010
0100
1000
0010
,
0100
0001
1000
0001
,
1000
0100
0001
0100
,
1000
0000
0000
0000
0001
0000
0000
0000
1000
0000
0000
0001
0000
0000
1000
0000
,
0001
0100
0001
0000
0100
0010
0100
0000
,
0010
1000
0010
0000
1000
0100
1000
0000
,
0001
0000
0010
0000
0100
1000
0100
0000
,
1000
0000
0010
0000
0100
0001
0100
0000
,
0001
0010
0001
0000
0010
0100
0010
0000
,
0100
1000
0100
0000
1000
0010
1000
0000
,
0001
0000
0100
0000
0010
1000
0010
0000
,
1000
0000
0000
0000
0100
0000
0000
0000
0010
0000
0000
0010
0000
0000
0010
0000
,
0001
0000
0100
0010
0100
0000
0010
0000
,
1000
0000
0001
1000
0001
0000
1000
0000
,
0001
0000
0010
0100
0010
0000
0100
0000
,
1000
0000
0001
1000
0001
0000
1000
0000
,
0100
0010
0100
0010
0001
0000
1000
0000
,
0010
0000
1000
0100
1000
0000
0001
0000
,
0100
0010
0100
0010
1000
0000
0001
0000
,
0010
0000
0001
0100
0001
0000
0000
0000
,
1001
0000
0000
0000
0000
0000
0000
0000
1000
0000
0000
1000
0000
0000
1000
0000
,
0000
0000
0000
0000
0000
0000
0000
0000
0010
0000
0000
0100
0000
0000
0010
0000
,
0000
0000
0000
0000
0000
0000
0000
0000
0100
0000
0000
0100
0000
0000
0100
0000
,
0000
0000
0000
0000
0000
0000
0000
0000
0001
0000
0000
0010
0000
0000
0001
0000
,
1000
0000
0000
0000
0000
0000
0000
0000
0001
0000
0000
0001
0000
0000
0001
0000
,
0000
0000
0000
0000
0000
0000
0000
0000
0100
0000
0000
0010
0000
0000
0100
0000
,
0000
0000
0000
0000
0000
0000
0000
0000
0010
0000
0000
0010
0000
0000
0010
0000
,
0000
0000
1000
0000
;

//---------------dance-single - ----------------
#NOTES:
     dance-single:
     :
     Easy:
     3:
     0.196430,0.233804,0.052481,0.000000,0.000000,131.000000,126.000000,5.000000,0.000000,0.000000,0.000000,0.196430,0.233804,0.052481,0.000000,0.000000,131.000000,126.000000,5.000000,0.000000,0.000000,0.000000:
// measure 0
0000
0000
0000
0000
,  // measure 1
0000
0000
0000
0000
,  // measure 2
0000
0000
0000
0000
,  // measure 3
0000
0000
0000
0000
,  // measure 4
0000
0000
0000
0000
,  // measure 5
1001
0000
0001
0000
,  // measure 6
1000
0000
0000
0000
,  // measure 7
0000
0000
1000
0000
,  // measure 8
0001
0000
0110
0000
,  // measure 9
1000
0010
1000
0000
,  // measure 10
0001
0100
0001
0000
,  // measure 11
1000
0100
0010
0000
,  // measure 12
0001
0010
0100
0000
,  // measure 13
1000
0100
1000
0000
,  // measure 14
0001
0010
0001
0000
,  // measure 15
1000
0010
0100
0000
,  // measure 16
0001
0100
0010
0000
,  // measure 17
1000
0001
1001
0000
,  // measure 18
1000
1000
0001
0001
,  // measure 19
1000
0100
0010
0000
,  // measure 20
0001
0001
1000
1000
,  // measure 21
0001
0010
0100
0000
,  // measure 22
1000
0001
0100
0100
,  // measure 23
0001
1000
0010
0000
,  // measure 24
1000
0001
0010
0010
,  // measure 25
0001
1000
0100
0000
,  // measure 26
1000
0010
1000
0000
,  // measure 27
0001
0100
0001
0000
,  // measure 28
1000
0100
0010
0000
,  // measure 29
0001
0010
0100
0000
,  // measure 30
1000
0100
1000
0000
,  // measure 31
0001
0010
0001
0000
,  // measure 32
1000
0010
0100
0000
,  // measure 33
0001
0100
0010
0000
,  // measure 34
1000
1000
0001
0001
,  // measure 35
0010
0010
0100
0100
,  // measure 36
1000
1000
0001
0001
,  // measure 37
1000
0100
0010
0000
,  // measure 38
0001
0001
1000
1000
,  // measure 39
0010
0010
0100
0100
,  // measure 40
0001
0001
1000
1000
,  // measure 41
0001
0100
0010
0000
,  // measure 42
1001
0000
0001
0000
,  // measure 43
1000
0000
0000
0000
,  // measure 44
0000
0000
1000
0000
,  // measure 45
0001
0000
0000
0000
,  // measure 46
0110
0000
0010
0000
,  // measure 47
0100
0000
0000
0000
,  // measure 48
0000
0000
0100
0000
,  // measure 49
0010
0000
1000
0000
;
