#TITLE:砂の惑星;
#SUBTITLE:;
#ARTIST:HACHI / DUNE ft. Miku Hatsune;
#TITLETRANSLIT:;
#SUBTITLETRANSLIT:;
#ARTISTTRANSLIT:;
#GENRE:;
#CREDIT:;
#MUSIC:Suna No Wakusei.ogg;
#BANNER:Suna No Wakusei.png;
#BACKGROUND:Suna No Wakusei-bg.png;
#CDTITLE:;
#SAMPLESTART:51.358;
#SAMPLELENGTH:15.158;
#SELECTABLE:YES;
#OFFSET:-0.832;
#BPMS:0.000=95.000;
#STOPS:;
#BGCHANGES:;
#FGCHANGES:;

//--------------- dance-single - Talkion (X-Scale 13) ----------------
#NOTES:
     dance-single:
     Talkion (X-Scale 13):
     Hard:
     9:
     0,0,0,0,0:
0000
0000
0000
0000
,
0000
0000
0000
0000
,
0000
0000
0000
0000
,
0000
0000
0000
0000
,
1000
0001
0100
0001
0010
0100
1000
0000
1000
0010
0100
0010
1000
0000
1100
0000
,
0001
1000
0100
1000
0010
0100
0001
0000
0001
0010
0100
0010
0001
0000
0101
0000
,
0010
1000
0100
1000
0010
0100
0010
0000
0100
0001
0010
0100
1000
0000
1001
0000
,
0010
0001
0100
0001
0010
0100
0010
0000
0100
1000
0010
0100
0001
0000
1001
0000
,
0001
0000
0010
0100
1000
0100
0010
0000
0010
0001
0100
0010
0100
0000
0001
0000
,
1000
0000
0100
0010
0001
0010
0100
0000
0100
1000
0010
0100
0010
0000
1000
0000
,
0001
0000
0010
0100
0000
0100
1000
0010
1000
0000
0010
0100
0000
0100
0001
0010
,
0001
0000
0010
1000
0000
1000
0010
0001
0010
0000
0100
0000
1001
0000
0000
0000
,
1000
0000
0001
0010
0001
1000
0010
0000
0010
0100
0001
1000
0100
0000
0010
0000
,
0001
0000
1000
0100
1000
0001
0100
0000
0100
0010
1000
0001
0010
0000
0100
0000
,
1000
0000
0100
0010
0000
0010
0001
0100
0001
0000
0100
0010
0000
0010
1000
0100
,
1000
0000
0100
0001
0000
0001
0100
1000
0100
0000
0010
0000
1001
0000
0000
0000
,
0001
0100
0001
0100
0010
0000
0010
0000
1000
0100
1000
0100
0010
0000
0010
0000
,
0001
0100
1000
0100
0010
0000
0010
0000
1100
0000
0000
0000
0001
0000
0001
0000
,
1000
0010
1000
0010
0100
0000
0100
0000
0001
0010
0001
0010
0100
0000
0100
0000
,
1000
0010
1000
0010
0001
0100
0001
0100
1000
0000
1000
0000
0110
0000
0110
0000
,
0011
0000
0000
0000
0000
0000
0010
0000
0100
0000
1000
0000
0001
0000
0000
0000
0100
0000
0000
0100
0000
0000
0100
0000
0010
0000
1000
0000
0001
0000
0000
0000
,
0010
0000
1000
0000
0010
0000
0100
0000
1000
0000
0010
0000
0100
0000
0010
0000
1000
0000
0000
1000
0000
0000
1000
0000
0001
0000
0010
0000
0100
0000
0000
0000
,
1100
0000
0000
0000
0000
0000
1000
0000
0001
0000
0100
0000
1000
0000
0000
0000
0100
0000
0000
0100
0000
0000
0100
0000
0001
0000
0010
0000
0100
0000
0000
0000
,
0100
0000
1000
0000
0001
0000
0100
0000
0010
0000
0100
0000
0001
0000
0010
0000
1000
0000
0000
1000
0000
0000
1000
0000
0010
0000
0100
0000
0010
0000
0000
0000
,
1100
0000
0000
0000
0000
0000
0100
0000
0010
0000
0001
0000
1000
0000
0000
0000
0010
0000
0000
0010
0000
0000
0010
0000
0100
0000
0001
0000
1000
0000
0000
0000
,
0100
0000
0001
0000
0100
0000
0010
0000
0001
0000
0100
0000
0010
0000
0100
0000
0001
0000
0000
0001
0000
0000
0001
0000
1000
0000
0100
0000
0010
0000
0000
0000
,
0001
0100
0010
0100
0001
0000
0010
0000
0100
1000
0010
1000
0100
0000
0010
0000
,
0001
0100
0001
0100
1000
0010
1000
0010
0001
0000
0110
0000
1001
0000
0000
0000
,
1000
0000
1000
0100
0010
0100
0000
0100
0001
0100
0000
0100
1000
0010
1000
0000
,
0001
0000
0001
0100
0010
0100
0000
0100
1000
0100
0000
0100
0001
0010
0001
0000
,
1000
0000
1000
0010
0100
1000
0000
1000
0100
0010
0000
0010
1000
0100
1000
0000
,
0001
0000
0001
0010
0100
0001
0000
0001
0100
0010
0000
0010
0001
0100
0001
0000
,
1000
0000
1000
0010
0000
0010
0000
0010
0000
0010
0100
0001
0100
0000
0110
0000
,
0001
0000
0001
0010
0000
0010
0000
0010
0000
0010
0100
1000
0100
0000
0110
0000
,
1000
0000
0010
0001
0000
0001
0000
0001
0000
0001
0100
1000
0100
0000
0110
0000
,
0001
0000
0100
1000
0000
1000
0000
1000
0000
1000
0010
0001
0010
0000
0110
0000
,
1010
1010
1010
1010
0011
0011
0011
0011
,
1000
0100
1000
0100
0010
0001
0010
0001
1000
0010
1000
0010
0100
0001
0100
0001
,
1100
0000
0000
0000
0000
0000
0100
0000
0010
0000
0001
0000
0010
0000
0000
0000
0100
0000
0000
0100
0000
0000
0100
0000
1000
0000
0010
0000
0100
0000
0000
0000
,
0001
0000
0010
0000
0100
0000
1000
0000
0010
0000
0100
0000
1000
0000
0100
0000
0010
0000
0000
0010
0000
0000
0010
0000
0100
0000
0001
0000
0010
0000
0000
0000
,
0011
0000
0000
0000
0000
0000
0001
0000
1000
0000
0010
0000
0001
0000
0000
0000
0010
0000
0000
0010
0000
0000
0010
0000
1000
0000
0100
0000
0010
0000
0000
0000
,
0010
0000
0001
0000
1000
0000
0010
0000
0100
0000
0010
0000
1000
0000
0100
0000
0001
0000
0000
0001
0000
0000
0001
0000
0100
0000
0010
0000
0100
0000
0000
0000
,
0011
0000
0000
0000
0000
0000
0010
0000
0100
0000
1000
0000
0100
0000
0000
0000
0010
0000
0000
0010
0000
0000
0010
0000
0001
0000
0100
0000
0010
0000
0000
0000
,
1000
0000
0100
0000
0010
0000
0001
0000
0100
0000
0010
0000
0001
0000
0010
0000
0100
0000
0000
0100
0000
0000
0100
0000
0001
0000
0010
0000
0100
0000
0000
0000
,
1000
0010
0100
0010
1000
0000
0100
0000
0010
0001
0100
0001
0010
0000
0100
0000
,
1000
0010
1000
0010
0001
0100
0001
0100
1000
0000
0110
0000
1001
0000
0000
0000
,
0001
0000
0010
0100
1000
0000
0010
0000
0100
0000
0001
0010
0100
0000
1000
0000
,
0010
0000
0010
0000
0100
0001
0100
0001
1000
0000
0100
0000
0110
0000
0000
0000
,
0010
0001
0010
0001
0100
0010
0100
0000
0000
0010
1000
0010
0001
0010
0100
0000
,
0010
1000
0010
1000
0100
0010
0100
0000
0000
0010
0001
0010
1000
0010
0100
0000
,
1000
0010
1000
0010
0100
0001
0100
0000
0000
1000
0100
0001
1000
0100
0010
0000
,
0001
0010
0001
0010
0100
1000
0100
0000
0000
0001
0100
1000
0001
0100
0010
0000
;
