#TITLE:Rhythm of the Night;
#SUBTITLE:;
#ARTIST:Ultraclub 90;
#TITLETRANSLIT:;
#SUBTITLETRANSLIT:;
#ARTISTTRANSLIT:;
#CREDIT:SupremeX;
#BANNER:Rhythm of the night-bn.png;
#BACKGROUND:Rhythm of the night-bg.png;
#LYRICSPATH:;
#CDTITLE:cdtitle.png;
#MUSIC:Rhythm of the Night.ogg;
#OFFSET:-0.330;
#SAMPLESTART:63.900;
#SAMPLELENGTH:12.000;
#SELECTABLE:YES;
#BPMS:0.000=127.890;
#STOPS:;
#BGCHANGES:;

//---------------dance-single - ----------------
#NOTES:
     dance-single:
     :
     Hard:
     5:
     0.324,0.338,0.132,0.000,0.010:
0000
0000
0000
0000
,
0000
0000
0000
0000
,
0000
0000
0000
0000
,
0000
0000
0000
0000
,
0000
0000
0000
0000
,
0000
0000
0000
0000
0000
0000
0000
0001
,
0000
0000
0000
1000
0000
0000
0000
0100
,
0000
0000
0000
1000
0000
0000
0000
0010
,
0000
0000
0000
0100
0000
0000
0000
0001
,
0000
1000
0000
0010
0000
0010
0000
0100
,
0000
0100
0000
0010
0000
0010
0000
1000
,
0000
0001
0000
1000
0001
1000
0000
0010
,
0000
0100
0000
0010
0100
0010
0000
1000
,
0000
0001
0000
1000
0001
1000
0000
0010
,
0000
0100
0000
0010
0100
0010
0000
1000
,
0000
1000
0000
0100
1000
0100
0000
0010
,
0000
0010
0000
0100
0010
0100
0000
0001
,
0000
0001
0000
0010
0001
0010
0000
0100
,
0000
0100
0000
0010
0100
0010
0000
1000
,
0000
0100
0000
0010
0001
0010
0000
0100
,
0000
1000
0000
0100
1000
0100
0000
0010
,
0010
0001
1000
0100
0000
1000
1000
0100
,
0000
1000
0000
0010
0000
0100
0000
0001
,
0000
0001
0000
0000
0001
0000
0000
0000
0100
0000
0100
0000
0000
0000
0000
0000
,
1000
0010
1000
0010
0000
0100
0000
0001
,
0000
0101
0000
0010
1000
0010
0000
0100
,
0000
1010
0000
0100
0001
0010
0000
0100
,
0000
1100
0000
1000
0000
1100
0000
0010
,
0000
0011
0000
0001
0000
0011
0000
0100
,
1000
0100
1000
0100
0000
1000
1000
0100
,
0000
1100
0000
0100
0000
0110
0000
0001
,
0000
0001
0000
0000
0001
0000
0000
0000
1000
0000
1000
0000
0000
0000
0000
0000
,
0100
0010
1000
0001
0000
0100
0100
0010
,
0000
1000
0000
0100
0000
0010
0000
1001
,
0000
0000
0000
0000
0000
0000
0000
1000
,
0000
1000
0000
0010
0000
0010
0000
0100
,
0000
0100
0000
0001
0000
0001
0000
1000
,
0000
1000
0000
0010
0000
0010
0000
0100
,
0000
0001
0010
0100
0000
1000
0000
1000
,
0010
0100
0010
0100
0010
1000
0000
1001
,
0000
0010
0000
0100
0000
0101
0000
1010
,
0000
0001
0100
0010
0000
1000
0000
1100
,
0000
0010
0000
0001
1000
0100
0000
1000
,
0001
1000
0010
0100
0000
0100
0000
0001
,
0000
0001
0000
1000
0000
1000
0000
0001
,
0000
0100
0000
0010
0000
1000
1000
1000
,
0000
0010
0000
0100
0000
0001
0001
0001
,
0000
0100
0000
0010
0000
1000
1000
1000
,
0000
0001
0000
0100
0000
0010
0010
0010
,
0000
1000
0000
1000
0000
1000
0010
0100
,
0000
0001
0000
0001
0000
0001
0100
0010
,
0000
1000
0000
1000
0000
0000
0000
0000
;

//---------------dance-single - ----------------
#NOTES:
     dance-single:
     :
     Medium:
     3:
     0.218,0.232,0.101,0.000,0.000:
0000
0000
0000
0000
,
0000
0000
0000
0000
,
0000
0000
0000
0000
,
0000
0000
0000
0000
,
0000
0000
0000
0000
,
0000
0000
0000
0000
,
0000
0000
0000
1000
0000
0000
0000
0000
,
0000
0000
0000
0001
0000
0000
0000
0000
,
0000
0000
0000
1000
0000
0000
0000
0000
,
0000
0000
0000
0001
0000
0000
0000
0001
,
0000
0000
0000
0001
0000
0000
0000
0100
,
0000
0000
0000
0100
0000
0000
0000
0010
,
0000
0000
0000
0010
0000
0000
0000
1000
,
0000
0000
0000
1000
0000
0000
0000
0010
,
0000
0010
0000
0010
0000
0010
0000
0100
,
0000
0100
0000
0100
0000
0100
0000
0001
,
0000
0000
0000
0001
0000
0000
0000
1000
,
0000
0000
0000
1000
0000
0000
0000
0010
,
0000
0010
0000
0010
0000
0010
0000
1000
,
0000
0001
0000
1000
0000
0001
0000
1000
,
0000
0001
0000
1000
0000
0001
0000
0100
,
0000
0010
0000
0100
0000
0010
0000
0100
,
0000
0010
0000
0100
0000
0010
0000
1000
,
0000
0010
0000
1000
0000
0010
0000
1000
,
0000
0010
0000
0100
0000
0001
0000
0100
,
0000
0001
0000
0100
0000
0001
0000
1001
,
0000
0000
0000
0000
0000
0000
0000
1000
,
0000
0010
0000
1000
0000
0010
0000
1000
,
0000
0010
0000
1000
0000
0010
0000
0100
,
0000
0010
0000
0100
0000
0010
0000
0100
,
0000
0010
0000
0100
0000
0010
0000
0100
,
0000
0001
0000
0100
0000
0001
0000
0100
,
0000
0001
0000
1000
0000
0001
0000
1000
,
0000
0001
0000
1000
0000
0001
0000
1001
,
0000
0000
0000
0000
0000
0000
0000
1000
,
0000
1000
0000
0010
0000
0010
0000
1000
,
0000
1000
0000
0010
0000
0010
0000
0100
,
0000
0100
0000
0001
0000
0001
0000
1000
,
0000
0001
0000
1000
0000
0000
0000
0000
,
0000
0001
0000
1000
0000
0001
0000
1000
,
0000
1000
0000
0010
0000
0010
0000
1000
,
0000
1000
0000
0010
0000
0010
0000
1000
,
0000
1000
0000
0010
0000
0010
0000
0100
,
0000
0001
0000
0100
0000
0100
0000
0100
,
0000
0100
0000
0100
0000
0100
0000
1001
,
0000
0000
0000
0110
0000
0000
0000
1001
,
0000
0000
0000
0110
0000
0000
0000
1001
,
0000
0000
0000
0110
0000
0000
0000
1001
,
0000
0000
0000
0110
0000
0000
0000
1000
,
0000
1000
0000
0001
0000
0001
0000
0100
,
0000
0100
0000
0010
0000
0010
0000
1000
;

//---------------dance-single - ----------------
#NOTES:
     dance-single:
     :
     Easy:
     1:
     0.080,0.099,0.010,0.000,0.000:
0000
0000
0000
0000
,
0000
0000
0000
0000
,
0000
0000
0000
0000
,
0000
0000
0000
0000
,
0000
0000
0000
0000
,
0000
0000
0000
0000
0000
0000
0000
1000
,
0000
0000
0000
0000
,
0000
0000
0000
0000
0000
0000
0000
0001
,
0000
0000
0000
0000
,
0000
0000
0000
1000
0000
0000
0000
0000
,
0000
0000
0000
0000
0000
0000
0000
0010
,
0000
0000
0000
0000
0000
0000
0000
0010
,
0000
0000
0000
0000
0000
0000
0000
0100
,
0000
0000
0000
0000
0000
0000
0000
0100
,
0000
0000
0000
0000
0000
0000
0000
0001
,
0000
0000
0000
0000
0000
0000
0000
0001
,
0000
0000
0000
0000
0000
0000
0000
1000
,
0000
0000
0000
0000
0000
0000
0000
1000
,
0000
0000
0000
0000
0000
0000
0000
0010
,
0000
0000
0000
0000
0000
0000
0000
0100
,
0000
0000
0000
0000
0000
0000
0000
0001
,
0000
0000
0000
0000
0000
0000
0000
1000
,
0000
0000
0000
0000
0000
0000
0000
0010
,
0000
0000
0000
0000
0000
0100
0000
0000
,
0000
0000
0000
0001
0000
0000
0000
1000
,
0000
0000
0000
0000
0000
0000
0000
1000
,
0000
0000
0000
0000
0000
0000
0000
0010
,
0000
0000
0000
0000
0000
0000
0000
0100
,
0000
0000
0000
0000
0000
0000
0000
0001
,
0000
0000
0000
0000
0000
0000
0000
1000
,
0000
0000
0000
0000
0000
0000
0000
0010
,
0000
0000
0000
0000
,
0000
0000
0000
0100
0000
0000
0000
0000
,
0000
0000
0000
0000
0000
0000
0000
1001
,
0000
0000
0000
0000
0000
0000
0000
0010
,
0000
0000
0000
0010
0000
0000
0000
0010
,
0000
0000
0000
0010
0000
0000
0000
0100
,
0000
0000
0000
0100
0000
0000
0000
0100
,
0000
0000
0000
0100
0000
0000
0000
0000
,
0000
0000
0000
0000
0000
0000
0000
0001
,
0000
0000
0000
0001
0000
0000
0000
0001
,
0000
0000
0000
0001
0000
0000
0000
1000
,
0000
0000
0000
1000
0000
0000
0000
1000
,
0000
0000
0000
0010
0000
0000
0000
0100
,
0000
0000
0000
0010
0000
0000
0000
1000
,
0000
0000
0000
0001
0000
0000
0000
1000
,
0000
0000
0000
0001
0000
0000
0000
1000
,
0000
0000
0000
0001
0000
0000
0000
1000
,
0000
0000
0000
0001
0000
0000
0000
1000
;

//---------------dance-single - Copied from ----------------
#NOTES:
     dance-single:
     Copied from:
     Beginner:
     1:
     0.038,0.049,0.000,0.000,0.000: // measure 1
0000
0000
0000
0000
,  // measure 2
0000
0000
0000
0000
,  // measure 3
0000
0000
0000
0000
,  // measure 4
0000
0000
0000
0000
,  // measure 5
0000
0000
0000
0000
,  // measure 6
0000
0000
0000
0000
,  // measure 7
0000
0000
0000
0000
,  // measure 8
0000
0000
0000
0000
,  // measure 9
0000
0000
0000
0000
,  // measure 10
0000
0000
0000
0000
,  // measure 11
0000
0000
0000
0000
0000
0000
0000
0100
,  // measure 12
0000
0000
0000
0000
0000
0000
0000
0010
,  // measure 13
0000
0000
0000
0000
0000
0000
0000
0100
,  // measure 14
0000
0000
0000
0000
0000
0000
0000
0010
,  // measure 15
0000
0000
0000
0000
,  // measure 16
0000
0000
0000
0000
0000
0000
0000
1000
,  // measure 17
0000
0000
0000
0000
0000
0000
0000
0001
,  // measure 18
0000
0000
0000
0000
0000
0000
0000
1000
,  // measure 19
0000
0000
0000
0000
0000
0000
0000
0001
,  // measure 20
0000
0000
0000
0000
,  // measure 21
0000
0000
0000
0000
0000
0000
0000
1000
,  // measure 22
0000
0000
0000
0000
,  // measure 23
0000
0000
0000
0000
0000
0000
0000
0010
,  // measure 24
0000
0000
0000
0000
,  // measure 25
0000
0000
0000
1000
0000
0000
0000
0000
,  // measure 26
0000
0000
0000
0000
,  // measure 27
0000
0000
0000
0000
0000
0000
0000
0001
,  // measure 28
0000
0000
0000
0000
0000
0000
0000
0100
,  // measure 29
0000
0000
0000
0000
0000
0000
0000
0001
,  // measure 30
0000
0000
0000
0000
,  // measure 31
0000
0000
0000
0000
0000
0000
0000
1000
,  // measure 32
0000
0000
0000
0000
,  // measure 33
0000
0000
0000
0010
0000
0000
0000
0000
,  // measure 34
0000
0000
0000
0000
0000
0000
0000
0100
,  // measure 35
0000
0000
0000
0000
0000
0000
0000
0001
,  // measure 36
0000
0000
0000
0000
,  // measure 37
0000
0000
0000
0000
0000
0000
0000
1000
,  // measure 38
0000
0000
0000
0000
,  // measure 39
0000
0000
0000
0001
0000
0000
0000
0000
,  // measure 40
0000
0000
0000
0000
0000
0000
0000
1000
,  // measure 41
0000
0000
0000
0000
0000
0000
0000
0010
,  // measure 42
0000
0000
0000
0000
,  // measure 43
0000
0000
0000
0000
0000
0000
0000
1000
,  // measure 44
0000
0000
0000
0000
,  // measure 45
0000
0000
0000
0000
0000
0000
0000
0001
,  // measure 46
0000
0000
0000
0000
,  // measure 47
0000
0000
0000
0000
0000
0000
0000
1000
,  // measure 48
0000
0000
0000
0000
,  // measure 49
0000
0000
0000
0000
0000
0000
0000
0010
;
