#TITLE:Revolution 909;
#SUBTITLE:;
#ARTIST:Daft Punk;
#TITLETRANSLIT:;
#SUBTITLETRANSLIT:;
#ARTISTTRANSLIT:;
#GENRE:;
#CREDIT:;
#BANNER:[Flashback to 1999] - Revolution 909.png;
#BACKGROUND:[Flashback to 1999] - Revolution 909-bg.png;
#LYRICSPATH:;
#CDTITLE:;
#MUSIC:[Flashback to 1999] - Revolution 909.ogg;
#OFFSET:-0.021000;
#SAMPLESTART:15.266000;
#SAMPLELENGTH:15.000000;
#SELECTABLE:YES;
#BPMS:0.000000=125.999992
;
#STOPS:
;
#BGCHANGES:;
#KEYSOUNDS:;
#ATTACKS:;

//---------------dance-single - ----------------
#NOTES:
     dance-single:
     :
     Hard:
     7:
     0.405232,0.412992,0.310390,0.000000,0.112085,293.000000,36.000000,0.000000,0.000000,0.000000,0.000000,0.405232,0.412992,0.310390,0.000000,0.112085,293.000000,36.000000,0.000000,0.000000,0.000000,0.000000:
0000
0000
0000
0000
,
0000
0000
0000
0000
,
0000
0000
0000
0000
,
0000
0000
0000
0000
,
0000
0000
0000
0000
,
0000
0000
0000
0000
,
0000
0000
0000
0000
,
0000
0000
0000
0000
,
1000
0100
0000
0011
0000
1001
0000
0001
,
0100
0001
0000
1010
0000
1001
0000
1000
,
0100
0010
0000
0110
0000
0011
0000
0001
,
0100
0010
0000
0110
0000
1010
0000
1000
,
0001
0000
0000
0000
0001
0000
1000
0000
0001
0000
0000
0001
0000
0000
0001
0000
,
0100
0000
0010
0000
0100
0000
0000
0000
1000
0000
0000
1000
0000
0000
1000
0000
,
0100
0000
0010
0000
0100
0000
0000
0000
0001
0000
0000
0001
0000
0000
0001
0000
,
0100
0000
0010
0000
0100
0000
0000
0000
1000
0000
0000
1000
0000
0000
1000
0000
,
0001
0010
0000
1010
0000
1100
0000
1000
,
0010
1000
0000
0011
0000
0101
0000
0001
,
0010
0100
0000
0011
0000
1100
0000
1000
,
0010
0100
0000
1010
0000
0101
0000
0001
,
1000
0000
0000
0000
1000
0000
0001
0000
1000
0000
0000
0100
0000
0000
0100
0000
,
0010
0000
0100
0000
1000
0000
0000
0000
0001
0000
0000
0100
0000
0000
0100
0000
,
0010
0000
0100
0000
0001
0000
0000
0000
1000
0000
0000
0100
0000
0000
0100
0000
,
0010
0000
0100
0000
1000
0000
0000
0000
0001
0000
0000
0100
0000
0000
0100
0000
,
0010
1000
0100
0001
,
0010
1000
0100
0001
,
0010
0001
0100
1000
,
0010
0001
0100
1000
,
1001
1000
0001
1000
0000
0001
0100
0001
,
0000
1000
0010
1000
0000
0001
0100
0001
,
1000
0001
0010
0001
0000
1000
0100
1000
,
0000
0001
0010
0001
0000
1000
0100
0010
,
0000
0000
0100
0000
0010
0000
0001
0000
1000
0000
0000
0100
0000
0000
0010
0000
,
0010
0000
0001
0000
0100
0000
0000
0000
0001
0000
0000
0100
0000
0000
0010
0000
,
0010
0000
1000
0000
0100
0000
0000
0000
1000
0000
0000
0100
0000
0000
0010
0000
,
0010
0000
0001
0000
0100
0000
0000
0000
0001
0000
0000
0100
0000
0000
0010
0000
,
1000
0000
0001
0000
1000
0000
0001
0000
0100
0000
0000
0001
0000
0000
0010
0000
,
0001
0000
1000
0000
0100
0000
0000
0000
0100
0000
0000
1000
0000
0000
0010
0000
,
1000
0000
0001
0000
0100
0000
0000
0000
0100
0000
0000
0001
0000
0000
0010
0000
,
0001
0000
1000
0000
0100
0000
0000
0000
0100
0000
0000
1000
0000
0000
0001
0000
,
0100
0000
0010
0000
0100
0000
0010
0000
1000
0000
0000
0001
0000
0000
0010
0000
,
0100
0000
1000
0000
0001
0000
0000
0000
0001
0000
0000
1000
0000
0000
0010
0000
,
0100
0000
0001
0000
1000
0000
0000
0000
1000
0000
0000
0001
0000
0000
0010
0000
,
0100
0000
0010
0000
0001
0000
0000
0000
0010
0000
0000
0100
0000
0000
0100
0000
,
1000
0000
0001
0000
1000
0000
0001
0000
0010
0000
0000
0100
0000
0000
0100
0000
,
1000
0000
0010
0000
1000
0000
0000
0000
0010
0000
0000
0100
0000
0000
0100
0000
,
0001
0000
0010
0000
0001
0000
0000
0000
0010
0000
0000
0100
0000
0000
0100
0000
,
1000
0000
0010
0000
1000
0000
0000
0000
0010
0000
0000
0100
0000
0000
0100
0000
,
0001
0010
0100
1000
0001
0000
0101
0000
,
0100
0110
0010
1010
,
1000
1100
0100
0110
,
0010
0011
0001
1001
,
1000
0000
0110
0000
1001
0001
0100
0000
,
0100
0001
0010
0000
0010
0100
1000
0000
,
1000
0001
0010
0000
0001
1000
0100
0000
,
0100
1000
0010
0000
0010
0100
0001
1000
,
0001
0101
1001
1100
,
0011
0000
0000
0000
0110
0000
0000
0100
1000
0000
0100
0000
0001
0000
0010
0000
,
1000
1100
1001
0101
,
1010
0000
0000
0000
0110
0000
0000
0100
0001
0000
0100
0000
1000
0000
0010
0000
;

//---------------dance-single - ----------------
#NOTES:
     dance-single:
     :
     Medium:
     5:
     0.303000,0.283932,0.155195,0.000000,0.103463,228.000000,18.000000,0.000000,0.000000,0.000000,0.000000,0.303000,0.283932,0.155195,0.000000,0.103463,228.000000,18.000000,0.000000,0.000000,0.000000,0.000000:
0000
0000
0000
0000
,
0000
0000
0000
0000
,
0000
0000
0000
0000
,
0000
0000
0000
0000
,
0000
0000
0000
0000
,
0000
0000
0000
0000
,
0000
0000
0000
0000
,
0000
0000
0000
0000
,
1000
1000
0100
0100
,
1000
0000
0100
0000
0010
0001
0010
0000
,
0001
0001
0100
0100
,
0001
0000
0100
0000
0010
1000
0010
0000
,
1000
0000
0000
0000
0001
0000
0000
0000
1000
0000
0000
1000
0000
0000
1000
0000
,
0000
0000
0000
0000
1100
0000
0000
0000
0001
0000
0000
0001
0000
0000
0001
0000
,
0000
0000
0000
0000
0101
0000
0000
0000
1000
0000
0000
1000
0000
0000
1000
0000
,
0000
0000
0000
0000
1100
0000
0000
0000
0100
0000
0000
0010
0000
0000
0010
0000
,
0001
0100
0010
0100
,
0001
0000
1000
0000
0010
1000
0010
0000
,
1000
0100
0010
0100
,
1000
0000
0001
0000
0010
0001
0010
0000
,
0001
0000
0000
0000
1000
0000
0000
0000
0001
0000
0000
0001
0000
0000
0001
0000
,
0000
0000
0000
0000
0011
0000
0000
0000
1000
0000
0000
1000
0000
0000
1000
0000
,
0000
0000
0000
0000
1010
0000
0000
0000
0001
0000
0000
0001
0000
0000
0001
0000
,
0000
0000
0000
0000
0011
0000
0000
0000
0010
0000
0000
0100
0000
0000
0100
0000
,
1000
0001
1000
0001
,
1000
0010
0001
0100
,
1000
0001
1000
0001
,
1000
0100
0001
0010
,
1000
0100
0010
0001
,
1000
0000
0100
0000
0010
0001
0010
0000
,
0001
0100
0010
1000
,
0001
0000
0100
0000
0010
1000
0010
0000
,
1000
0000
0000
0000
0001
0000
0000
0000
1000
0000
0000
0001
0000
0000
0001
0000
,
0000
0000
0000
0000
0101
0000
0000
0000
0001
0000
0000
1000
0000
0000
1000
0000
,
0000
0000
0000
0000
1100
0000
0000
0000
1000
0000
0000
0001
0000
0000
0001
0000
,
0000
0000
0000
0000
0101
0000
0000
0000
0100
0000
0000
0010
0000
0000
0010
0000
,
1000
0000
0000
0000
0001
0000
0000
0000
1000
0000
0000
0100
0000
0000
0100
0000
,
0000
0000
0000
0000
0110
0000
0000
0000
0001
0000
0000
0100
0000
0000
0100
0000
,
0000
0000
0000
0000
0110
0000
0000
0000
1000
0000
0000
0100
0000
0000
0100
0000
,
0000
0000
0000
0000
0110
0000
0000
0000
0010
0000
0000
0100
0000
0000
0100
0000
,
1000
0000
0000
0000
0001
0000
0000
0000
1000
0000
0000
0100
0000
0000
0010
0000
,
0000
0000
0000
0000
1100
0000
0000
0000
0001
0000
0000
0100
0000
0000
0010
0000
,
0000
0000
0000
0000
0101
0000
0000
0000
1000
0000
0000
0100
0000
0000
0010
0000
,
0000
0000
0000
0000
1100
0000
0000
0000
0100
0000
0000
0010
0000
0000
0010
0000
,
0001
0000
0000
0000
1000
0000
0000
0000
0001
0000
0000
0010
0000
0000
0100
0000
,
0000
0000
0000
0000
1001
0000
0000
0000
1000
0000
0000
0010
0000
0000
0100
0000
,
0000
0000
0000
0000
1001
0000
0000
0000
0001
0000
0000
0010
0000
0000
0100
0000
,
0000
0000
0000
0000
1001
0000
0000
0000
1000
0000
0000
0010
0000
0000
0010
0000
,
1000
0001
1000
0100
,
1000
0100
0010
0001
,
0010
0001
0100
0001
,
0100
0001
1000
0010
,
1000
0010
1000
0100
,
0001
0100
1000
0000
0001
0000
0100
0000
,
1000
0100
0001
0000
0001
0000
0010
0000
,
1000
0010
0001
0000
1000
0000
0010
1000
,
0100
0100
0010
0010
,
0100
0000
0100
0000
0010
0001
0010
0001
,
0100
0100
0010
0010
,
0100
0000
0100
0000
0010
0010
1000
0001
;

//---------------dance-single - ----------------
#NOTES:
     dance-single:
     :
     Easy:
     3:
     0.163817,0.257581,0.025866,0.000000,0.000000,130.000000,3.000000,0.000000,0.000000,0.000000,0.000000,0.163817,0.257581,0.025866,0.000000,0.000000,130.000000,3.000000,0.000000,0.000000,0.000000,0.000000:
// measure 0
0000
0000
0000
0000
,  // measure 1
0000
0000
0000
0000
,  // measure 2
0000
0000
0000
0000
,  // measure 3
0000
0000
0000
0000
,  // measure 4
0000
0000
0000
0000
,  // measure 5
0000
0000
0000
0000
,  // measure 6
0000
0000
0000
0000
,  // measure 7
0000
0000
0000
0000
,  // measure 8
1000
0001
0000
0001
,  // measure 9
0000
0100
0000
0100
,  // measure 10
0001
1000
0000
1000
,  // measure 11
0000
0100
0000
0100
,  // measure 12
1000
0000
0001
0000
1000
0000
0000
0010
,  // measure 13
0000
0000
0000
0000
0100
0000
0000
0010
,  // measure 14
0000
0000
0000
0000
1000
0000
0000
0010
,  // measure 15
0000
0000
0100
0100
,  // measure 16
0001
1000
0000
1000
,  // measure 17
0000
0010
0000
0010
,  // measure 18
1000
0001
0000
0001
,  // measure 19
0000
0010
0000
0010
,  // measure 20
0001
0000
1000
0000
0001
0000
0000
0010
,  // measure 21
0000
0000
0000
0000
0100
0000
0000
0010
,  // measure 22
0000
0000
0000
0000
0001
0000
0000
0010
,  // measure 23
0000
0000
0100
0100
,  // measure 24
1000
0000
0100
0000
,  // measure 25
0001
0000
0010
0000
,  // measure 26
1000
0000
0010
0000
,  // measure 27
0001
0000
0100
0000
,  // measure 28
1000
0100
0000
0100
,  // measure 29
0000
0010
0000
0010
,  // measure 30
0001
0100
0000
0100
,  // measure 31
0000
0010
0000
0010
,  // measure 32
1000
0000
0001
0000
1000
0000
0000
0100
,  // measure 33
0000
0000
0000
0000
0001
0000
0000
0100
,  // measure 34
0000
0000
0000
0000
1000
0000
0000
0100
,  // measure 35
0000
0000
1000
0000
,  // measure 36
0010
0000
0010
0000
1000
0000
0000
0010
,  // measure 37
0000
0000
0000
0000
0001
0000
0000
0010
,  // measure 38
0000
0000
0000
0000
1000
0000
0000
0010
,  // measure 39
0000
0000
1000
0000
,  // measure 40
0100
0000
0100
0000
1000
0000
0000
0010
,  // measure 41
0000
0000
0000
0000
0010
0000
0000
0100
,  // measure 42
0000
0000
0000
0000
0100
0000
0000
0001
,  // measure 43
0000
0000
0001
0000
,  // measure 44
1000
0000
1000
0000
0001
0000
0000
0010
,  // measure 45
0000
0000
0000
0000
0010
0000
0000
0100
,  // measure 46
0000
0000
0000
0000
0100
0000
0000
1000
,  // measure 47
0000
0000
1000
0000
,  // measure 48
0001
0001
0100
0000
,  // measure 49
0100
0000
0001
0000
,  // measure 50
0001
0000
0010
0000
,  // measure 51
0010
0000
1000
0000
,  // measure 52
1000
0000
0100
0000
,  // measure 53
0100
0001
0010
0000
,  // measure 54
0100
1000
0010
0000
,  // measure 55
0100
0001
1000
0001
,  // measure 56
0010
0010
0100
0100
,  // measure 57
0010
0010
0110
0000
,  // measure 58
0001
0001
1000
1000
,  // measure 59
0001
0001
1001
0110
;
