#VERSION:0.83;
#TITLE:Night City Runway;
#SUBTITLE:;
#ARTIST:C-Show;
#TITLETRANSLIT:;
#SUBTITLETRANSLIT:;
#ARTISTTRANSLIT:;
#GENRE:;
#ORIGIN:;
#CREDIT:;
#BANNER:[Flashback to 1999] - Night City Runway-bn.png;
#BACKGROUND:[Flashback to 1999] - Night City Runway-bg.png;
#PREVIEWVID:;
#JACKET:[Flashback to 1999] - Night City Runway-jacket.png;
#CDIMAGE:;
#DISCIMAGE:;
#LYRICSPATH:;
#CDTITLE:;
#MUSIC:[Flashback to 1999] - Night City Runway.mp3;
#OFFSET:-4.435000;
#SAMPLESTART:26.253000;
#SAMPLELENGTH:17.455000;
#SELECTABLE:YES;
#BPMS:0.000=110.000;
#STOPS:;
#DELAYS:;
#WARPS:;
#TIMESIGNATURES:0.000=4=4;
#TICKCOUNTS:0.000=4;
#COMBOS:0.000=1;
#SPEEDS:0.000=1.000=0.000=0;
#SCROLLS:0.000=1.000;
#FAKES:;
#LABELS:0.000=Song Start;
#BGCHANGES:;
#KEYSOUNDS:;
#ATTACKS:
;

//---------------dance-single - ----------------
#NOTEDATA:;
#CHARTNAME:;
#STEPSTYPE:dance-single;
#DESCRIPTION:;
#CHARTSTYLE:;
#DIFFICULTY:Hard;
#METER:8;
#RADARVALUES:0.439577,0.441488,0.162452,0.000000,0.568584,322.000000,305.000000,17.000000,0.000000,0.000000,0.000000,0.000000,0.000000,0.000000,0.439577,0.441488,0.162452,0.000000,0.568584,322.000000,305.000000,17.000000,0.000000,0.000000,0.000000,0.000000,0.000000,0.000000;
#CREDIT:;
#NOTES:
0000
0000
0000
0000
,
0000
0000
0000
0000
,
0010
0000
0010
0000
0000
0000
0000
1000
0000
1000
0000
0000
0000
0000
0000
0001
,
0000
0001
0000
0000
0000
0000
0001
0000
1000
0000
0000
1000
0000
0000
1000
0000
,
0010
0000
0010
0000
0000
0000
0000
0100
0000
0100
0000
0000
0000
0000
0000
0001
,
0000
0001
0000
0000
0000
0000
0000
1000
0000
1000
0000
0001
0000
0000
0001
0000
,
0100
0000
0100
0000
0000
0000
0000
0010
0000
0010
0000
0000
0000
0000
0000
1000
,
0000
1000
0000
0000
0000
0000
1000
0000
0001
0000
0000
0001
0000
0000
0001
0000
,
1000
0000
0000
0100
0000
0000
0010
0000
0000
0001
0000
0000
1000
0000
0000
0100
0000
0000
0010
0000
0100
0000
0010
0000
,
0100
0000
0000
0000
0000
0000
0000
0000
0000
0000
0000
0000
0100
0000
1000
0000
0000
0010
0100
0000
0001
0010
0000
0000
,
0001
0000
0100
0000
0001
0000
0000
1000
0000
0010
0000
1000
0000
0000
0000
0010
,
0000
1000
0000
0010
0000
0000
0100
0000
0001
0000
0010
0000
0100
0000
1000
0000
,
0010
0000
0100
0000
0001
0000
0000
0100
0000
0010
0000
0100
0000
0000
0000
0010
,
0000
0100
0000
0010
0000
0000
1000
0000
0010
0000
0100
0000
0001
0000
0010
0000
,
0100
0000
1000
0000
0100
0010
0000
0100
0000
0010
0000
0001
0000
0000
0000
1000
,
0000
0100
0000
0010
0000
0000
1000
0000
0010
0000
0001
0000
1000
0000
0010
0000
,
0100
0000
0001
0000
0100
0010
0000
1000
0000
0100
0000
0010
0000
0000
0000
0100
,
0000
0010
0000
0001
0000
0000
0010
0000
1000
0000
0001
0000
0100
0000
1000
0000
,
0001
0000
0010
0000
0001
0100
0001
0100
0000
0010
0000
0010
0000
0000
1000
0010
,
0000
0100
0000
0010
1000
0000
0001
0000
0010
0000
0100
0000
1000
0000
0001
0000
,
0010
0000
0100
0000
1000
0100
1000
0100
0000
0010
0000
0010
0000
0000
0100
1000
,
0000
0010
0000
1000
0100
0000
0010
0000
0001
0000
1000
0000
0010
0000
0100
0000
,
0001
0000
1000
0000
0001
1000
0001
1000
0000
0100
0000
0100
0000
0000
0010
0001
,
0000
0100
0000
0001
0010
0000
1000
0000
0001
0000
0100
0000
1000
0000
0001
0000
,
0100
0000
0001
0000
1000
0010
1000
0010
0000
0100
0000
0100
0000
0000
0001
0100
,
0000
0100
0000
0010
0100
0010
0000
1000
0000
0001
0010
0000
0100
0010
0100
0000
,
1001
1000
0001
0100
1000
0100
0001
0100
,
1000
0100
0010
0100
0001
0010
1000
0010
,
0001
0100
1000
0001
0010
0100
0001
1000
,
0010
0000
0100
0000
0001
0000
0100
0001
0000
0001
0000
1000
0000
0010
1000
0001
,
0100
0010
1000
0010
0001
0010
1000
0010
,
0001
0010
0100
0001
1000
0100
0001
0100
,
1000
0000
0001
0000
0010
0000
1000
0000
0001
0000
0100
0000
1000
0000
0001
1000
,
0000
1000
0000
0000
1001
0000
0000
0001
0000
0001
0000
1000
0000
0001
0010
0000
,
0100
0000
1000
0000
1100
0000
0000
0001
0000
0010
0000
0000
0011
0000
0000
0100
,
0000
1000
0000
0000
1100
0000
0001
0000
0101
0000
0001
0100
0000
0100
0010
0000
,
1000
0000
0010
0000
1010
0000
0000
0001
0000
0100
0000
0000
0101
0000
0000
1000
,
0000
0010
0000
0000
1010
0000
0100
0001
0000
0010
0000
0001
0000
0100
0001
0000
,
0010
0000
0100
0000
0110
0000
0000
0100
0000
1000
0000
0000
1100
0000
0000
0001
,
0000
0010
0000
0000
0011
0000
1000
0000
1010
0000
0010
0100
0000
0100
0001
0000
,
0100
0000
0001
0000
0101
0000
0000
0001
0000
1000
0000
0000
1001
0000
0000
1000
,
0000
0001
0000
0000
1001
0000
0001
0100
0000
0010
0000
1000
0000
0001
0100
0000
,
0110
0000
0000
0000
;

//---------------dance-single - ----------------
#NOTEDATA:;
#CHARTNAME:;
#STEPSTYPE:dance-single;
#DESCRIPTION:;
#CHARTSTYLE:;
#DIFFICULTY:Medium;
#METER:7;
#RADARVALUES:0.354938,0.401353,0.315349,0.000000,0.062114,260.000000,227.000000,33.000000,0.000000,0.000000,0.000000,0.000000,0.000000,0.000000,0.354938,0.401353,0.315349,0.000000,0.062114,260.000000,227.000000,33.000000,0.000000,0.000000,0.000000,0.000000,0.000000,0.000000;
#CREDIT:;
#NOTES:
0000
0000
0000
0000
,
0000
0000
0000
0000
,
0010
0010
1000
1000
,
0001
0000
0000
0000
0001
0000
0000
0000
1000
0000
0000
1000
0000
0000
1000
0000
,
0010
0010
0100
0100
,
0001
0000
0000
0000
0001
0000
0000
0000
1000
0000
0000
1000
0000
0000
1000
0000
,
0001
0001
0100
0100
,
0001
0000
0000
0000
0001
0000
0000
0000
1000
0000
0000
1000
0000
0000
1000
0000
,
0001
0010
0001
0000
1000
0100
1000
0000
,
1001
0000
0000
0000
1001
0000
1001
0100
,
1001
0000
1000
0000
0001
0100
0001
0000
,
0100
0001
0100
0010
1000
0000
1010
0000
,
0101
0000
1000
0000
0010
0100
0010
0000
,
0100
0010
1000
0001
0100
0010
1000
0000
,
0101
0000
0001
0000
0010
0100
1000
0000
,
0001
0010
0001
0010
0100
0000
1100
0000
,
0011
0000
0100
0000
0001
0010
0100
0000
,
0010
0100
1000
0100
0010
0100
1000
0000
,
1001
0000
0101
0000
0001
0100
0001
0000
,
1000
0010
0100
0010
1000
0000
1100
0000
,
0101
0000
0001
0000
1000
0010
1000
0000
,
0001
0100
0010
1000
0001
0100
0010
0000
,
1010
0000
0101
0000
1000
0010
1000
0000
,
0001
0010
0100
1000
0001
0000
1001
0000
,
0110
0000
0000
0000
0001
0000
0000
0000
0100
0000
0001
0000
0100
0000
0000
0010
,
0000
0000
1000
0000
0001
0000
0000
0100
0000
0000
0001
0000
1000
0000
0110
0000
,
1001
0000
0100
0000
0001
0100
1000
0000
,
0001
0100
1000
0000
1000
0100
0001
0000
,
1000
0001
1000
0000
0001
0010
1000
0000
,
0001
0000
0100
0000
0010
0000
0000
1000
0000
1000
0000
1000
0000
0000
0001
0000
,
0100
0000
0001
0000
1000
0010
0001
0000
,
1000
0010
0001
0000
0001
0010
1000
0000
,
0001
0100
1000
0000
0001
0010
1000
0000
,
0001
0000
0000
0000
0100
0000
0000
0010
0000
0010
0000
0010
0000
0000
1000
0000
,
1001
0000
0011
0000
1000
0100
1100
0000
,
0010
0000
0001
0000
0010
0000
0001
0000
1000
0000
0000
1000
0000
0000
1000
0000
,
0001
0100
0101
0000
0010
1000
1010
0000
,
0001
0100
0101
0001
0100
0110
1001
0000
,
0001
0010
0011
0000
0100
1000
1100
0000
,
0001
0000
0100
0000
0001
0000
0100
0000
0010
0000
0000
0010
0000
0000
0010
0000
,
1000
0001
1001
0000
0001
1000
1001
0000
,
0010
0000
1000
0000
0001
0100
0110
0001
,
1001
0000
0000
0000
;

//---------------dance-single - ----------------
#NOTEDATA:;
#CHARTNAME:;
#STEPSTYPE:dance-single;
#DESCRIPTION:;
#CHARTSTYLE:;
#DIFFICULTY:Easy;
#METER:4;
#RADARVALUES:0.210233,0.240812,0.258013,0.000000,0.000000,154.000000,127.000000,27.000000,0.000000,0.000000,0.000000,0.000000,0.000000,0.000000,0.210233,0.240812,0.258013,0.000000,0.000000,154.000000,127.000000,27.000000,0.000000,0.000000,0.000000,0.000000,0.000000,0.000000;
#CREDIT:;
#NOTES:
// measure 0
0000
0000
0000
0000
,  // measure 1
0000
0000
0000
0000
,  // measure 2
0010
0000
1000
0000
,  // measure 3
0001
0000
1000
1000
,  // measure 4
0010
0000
0100
0000
,  // measure 5
0001
0000
1000
1000
,  // measure 6
0001
0000
0100
0000
,  // measure 7
0001
0000
1000
1000
,  // measure 8
0001
0001
1000
1000
,  // measure 9
1001
0000
0001
1001
,  // measure 10
1001
1000
0001
0001
,  // measure 11
0100
0100
0001
0001
,  // measure 12
1001
1000
0010
0010
,  // measure 13
0100
0100
0001
1000
,  // measure 14
1001
0001
1000
1000
,  // measure 15
0001
0001
0100
0101
,  // measure 16
0101
0100
0010
0010
,  // measure 17
0000
1000
0000
1000
,  // measure 18
1001
1001
0001
0001
,  // measure 19
1000
0100
1000
0100
,  // measure 20
1000
1001
0001
0001
,  // measure 21
0100
0010
0100
0010
,  // measure 22
0100
0110
1000
1000
,  // measure 23
0010
1000
0010
1000
,  // measure 24
0010
0110
1000
1000
,  // measure 25
0000
0001
0000
1001
,  // measure 26
1001
1000
0000
1000
,  // measure 27
0000
0001
0000
0001
,  // measure 28
0000
0100
0000
0100
,  // measure 29
0000
0010
0010
0110
,  // measure 30
1000
1000
0000
1000
,  // measure 31
0000
0010
0000
0010
,  // measure 32
0000
0100
0000
0100
,  // measure 33
0000
0001
0001
1001
,  // measure 34
1000
1001
1000
1001
,  // measure 35
0000
0001
0000
0001
,  // measure 36
1000
1010
1000
1010
,  // measure 37
0000
0001
0000
0001
,  // measure 38
0100
0110
0100
0110
,  // measure 39
0000
1000
0000
1000
,  // measure 40
0001
1001
0001
1001
,  // measure 41
0000
0110
0000
0110
,  // measure 42
1001
0000
0000
0000
;
