#TITLE:New World;
#SUBTITLE:;
#ARTIST:Krewella & Yellow Claw ft. Vava;
#TITLETRANSLIT:;
#SUBTITLETRANSLIT:;
#ARTISTTRANSLIT:;
#GENRE:;
#CREDIT:PWG;
#MUSIC:[Flashback to 1999] - New World.ogg;
#BANNER:[Flashback to 1999] - New World.png;
#BACKGROUND:[Flashback to 1999] - New World-bg.png;
#CDTITLE:;
#SAMPLESTART:65.389;
#SAMPLELENGTH:17.661;
#SELECTABLE:YES;
#OFFSET:0.140;
#BPMS:0.000=163.000;
#STOPS:;
#BGCHANGES:;
#FGCHANGES:;

//--------------- dance-single - PWG ----------------
#NOTES:
     dance-single:
     PWG:
     Beginner:
     4:
     0,0,0,0,0:
0000
0000
0000
0000
,
0000
0000
0000
0000
,
0000
0000
0000
0000
,
0000
0000
0000
0000
,
0000
0000
0001
0000
,
0001
0000
0100
0000
,
0100
0000
0010
0000
,
0010
0000
1000
0000
,
0000
0000
1000
0000
,
1000
0000
0100
0000
,
0100
0000
0010
0000
,
0001
0000
0100
0010
,
1000
0000
0001
1000
,
0010
0100
0010
0100
,
0001
0000
1000
0010
,
0100
0001
0100
0010
,
0000
1000
0010
0100
,
0001
0100
0010
1000
,
0100
0000
0100
1000
,
0010
0100
0001
0010
,
0000
0000
0010
0001
,
0100
0010
1000
0100
,
0000
0000
1000
0001
,
0100
0010
0100
0000
,
0000
0000
0010
0000
,
1000
0001
0100
0000
,
0010
0100
0001
0010
,
0001
0010
1000
0100
,
1000
0100
0010
0010
,
0000
0000
0100
0100
,
0000
0000
1000
0001
,
1000
0000
1000
0001
,
0000
0000
1000
1000
,
0000
0000
0001
0001
,
0000
0000
0010
0100
,
0010
0000
0010
0100
,
0010
0000
1001
0110
,
0010
0000
1001
0110
,
0100
0000
1000
0100
,
1000
0000
0001
0100
,
0001
0000
1000
0100
,
0010
0001
1000
0100
,
0010
0001
1001
0010
,
0010
0100
0000
0100
,
0010
1000
0000
1000
,
0001
0100
0010
0100
,
0001
0000
1000
0001
,
0010
0000
0001
1000
,
0010
0001
0100
0010
,
1001
0100
0010
1000
,
0000
0010
0100
0001
,
0000
1000
0100
1000
,
0000
0001
0010
0001
,
1001
0000
0100
0010
,
0001
0100
0010
1000
,
0001
1000
0010
0100
,
0001
0000
1000
0010
,
1000
0100
1000
0010
,
0100
0000
0010
0000
,
0001
1000
0000
1000
,
0001
0000
0100
0000
,
0001
1000
0010
0000
,
1000
0000
0001
0000
,
0100
0001
0010
0000
,
0001
0000
0100
0000
,
0010
0000
1000
1000
,
0100
0000
0001
0000
,
0001
0000
0100
0000
,
0100
0000
1000
0000
,
0100
0000
0010
0000
,
0100
0100
0010
0000
,
0000
0000
0100
0000
,
0000
0000
0001
0000
,
0001
1000
0001
0000
,
0000
0000
1001
1000
,
0000
0000
1001
0001
,
0000
0000
0001
0010
,
0100
0100
0001
0010
,
0100
0000
1000
0100
,
0000
0000
0001
0100
,
0001
0000
1000
0100
,
0000
0000
0001
0100
,
0001
0000
1000
0001
,
0100
0010
1000
0001
,
1000
0000
0010
0000
,
0100
0000
0001
0000
,
1000
0000
0000
1000
,
0010
0100
0000
0001
,
0100
0010
0000
1000
,
0001
1000
0000
0001
,
1000
0001
1000
1000
,
0010
0000
0001
0001
,
0100
0000
0001
0001
,
0010
0000
1000
1000
,
0100
0000
1000
0010
,
0100
0000
0100
0001
,
0010
0000
1000
1000
,
0100
1000
1000
1000
,
0010
0000
0000
0000
;

//--------------- dance-single - PWG ----------------
#NOTES:
     dance-single:
     PWG:
     Easy:
     5:
     0,0,0,0,0:
0000
0000
0000
0000
,
0000
0000
0000
0000
,
0000
0000
0000
0000
,
0000
0000
0000
0000
,
0000
0000
0001
0100
,
0010
1000
0001
0000
,
0001
0000
0001
1000
,
0010
0100
0001
0000
,
0010
0000
0001
0100
,
0010
1000
0100
0000
,
1000
0000
0010
1000
,
0001
0100
0010
0010
,
0010
0000
0010
0100
0001
0000
1000
0000
,
0010
0000
1000
0000
0100
1000
0010
0000
,
1000
0100
1000
0000
0010
0000
1000
0000
,
0001
0100
0010
0010
,
0100
0000
0010
0100
0001
0000
1000
0000
,
0010
1000
0100
1000
,
0010
0000
0100
1000
0010
0000
0100
0000
,
0010
1000
0001
0000
,
0010
0010
0100
0001
,
1000
0000
0010
0000
1000
0000
0001
0100
,
0010
0000
0100
0010
1000
0000
0100
0000
,
1000
0010
0100
0000
,
0000
0001
0100
0010
,
1000
0000
0010
1000
0100
0000
1000
0010
,
0100
0001
0100
0010
,
0100
0001
1000
0000
,
0100
0000
0010
0010
,
0000
0000
0100
0100
,
0000
0000
1000
0001
,
1000
0001
1000
1000
,
0000
0000
0010
0010
,
0000
0000
0100
0100
,
0000
0000
0001
0001
,
1000
0001
0001
0001
,
1000
0000
0000
0000
0010
0100
0001
0000
,
0000
0000
0100
0100
,
0010
0000
0000
0000
0100
0010
1000
0000
,
0000
0000
0010
0010
,
0100
0000
0001
0001
,
0100
0100
1000
1000
,
0010
0010
1001
0010
,
0000
0100
0010
0100
0000
0000
0010
0000
,
0000
0100
0010
0100
0000
0000
0010
0000
,
0000
0100
0010
0100
0000
0000
0010
0000
,
0010
0000
0001
1000
,
0010
0000
0010
1000
,
0001
0000
0100
0001
,
1000
0001
1000
0001
,
0100
0000
0001
0100
,
0010
0010
1000
0010
,
0100
0000
0100
0000
0010
0100
0010
0000
,
0000
0000
0000
0000
0100
0010
0100
0000
,
0000
0000
1000
0000
,
0001
0000
1000
1000
,
0010
0000
0001
0000
,
0100
0000
0001
0001
,
0010
1000
1000
0010
,
0100
0000
0001
0100
,
0010
0000
0010
0000
,
0100
0000
0001
1000
,
0010
1000
0010
0100
,
0001
0100
0010
1000
,
0001
0000
0010
1000
,
0001
0100
0010
0100
,
1000
0000
0010
1000
,
0001
0000
0001
1000
,
0100
0000
0100
1000
,
0010
0100
0001
0010
,
0001
0100
0010
0010
,
0000
0000
0100
0100
,
0000
0000
0001
1000
,
0010
0100
0001
1000
,
0000
0000
0010
0100
,
0000
0000
0100
0010
,
0000
0000
0000
0000
1000
0001
1000
0000
,
0000
0000
0000
0000
0001
1000
0001
0000
,
0000
0000
0010
0100
,
0000
0000
0010
0100
,
0010
0000
0100
0010
,
0000
0000
0100
0010
,
0100
0000
0000
0000
1000
1000
1000
0000
,
0000
0000
0000
0000
0001
0001
0001
0000
,
0000
0000
0010
1100
,
0010
0000
0010
0011
,
0010
0000
0000
0010
,
0000
0010
0100
0010
0000
0000
0100
0000
,
0000
0100
0010
0100
0000
0000
0010
0000
,
0000
0100
0010
0100
0010
0000
0100
0000
,
0001
1000
0010
0000
1000
0000
0100
0000
,
1000
0010
0001
0010
,
0100
0010
0100
0010
,
1000
0000
1000
0000
,
0110
0000
0100
0010
,
0000
0010
0100
0001
,
0000
0000
0010
0010
1000
0000
0000
0000
,
1000
0000
0010
0000
,
0110
0000
0000
0000
;

//--------------- dance-single - PWG ----------------
#NOTES:
     dance-single:
     PWG:
     Medium:
     9:
     0,0,0,0,0:
0000
0000
0000
0000
,
0000
0000
0000
0000
,
0000
0000
0000
0000
,
0000
0000
0000
0000
,
0000
0000
0000
0000
0001
0100
0010
0000
,
0100
0001
1000
0000
,
0010
0000
0000
0000
1000
0010
0100
0000
,
0010
0100
0001
0000
,
0010
0000
1000
0000
0010
1000
0001
0000
,
0100
0010
0100
0000
,
0010
0000
0100
0000
0100
0010
1000
0000
,
0001
1000
0010
0100
,
0001
0100
0010
0000
1000
0010
1000
0100
,
1000
0010
1000
0001
1000
0010
0100
0001
,
0100
0000
0010
0000
0100
0001
0100
0010
,
0100
0001
1000
0010
1000
0100
1000
0010
,
1000
0000
0001
0000
0100
0010
0100
0001
,
0100
0010
0100
0010
1000
0100
1000
0010
,
1000
0001
0100
0010
,
0100
0001
0100
0000
0010
1000
0100
1000
,
0010
0000
1000
0000
0010
0000
0010
0100
,
0001
0000
0010
0100
1000
0000
0100
0000
,
1000
0000
0100
0000
0010
0000
1000
0010
,
0100
0000
0010
0100
0001
0100
0010
0000
,
1000
0000
0000
0000
0010
0000
0000
0000
1000
0000
0000
1000
0100
0000
1000
0000
,
0010
0000
0000
0000
1000
0000
0000
0000
0001
0000
0000
0001
0100
0000
0010
0000
,
0100
0000
0010
1000
0100
0000
1000
0001
,
0010
0000
0001
0100
0010
0100
0010
1000
,
0100
1000
0010
0010
,
0000
0000
0100
0100
,
0000
0000
0000
0000
0001
1000
0001
0000
,
1000
0001
1000
0000
0110
0000
0110
0000
,
0000
0000
0001
0001
,
0000
0000
1000
1000
,
0000
0000
0000
0000
0001
1000
0001
0000
,
0100
0010
0100
0000
1001
0000
1001
0000
,
1001
0000
0000
0000
1000
0100
0010
0001
,
0000
0000
0000
0000
1000
0100
0010
0001
,
0010
0100
1000
0000
0001
0010
0100
1000
,
0000
0000
0000
0000
0001
0010
0100
1000
,
0100
0010
0001
0000
0010
0100
0001
0100
,
0010
1000
0100
1000
0010
1000
0001
0100
,
0010
0100
0001
1000
0010
0000
0100
0000
,
0010
1000
0001
1000
0010
0000
0100
0000
,
0010
0100
0001
1000
0010
0000
1000
0000
,
0100
1000
0010
1000
0001
0000
0001
1000
,
0001
0000
1000
0000
0010
1000
0001
1000
,
0010
0000
0001
0000
0100
0010
0100
0001
,
1000
0000
0010
0000
1000
0100
1000
0010
,
1000
0001
0100
0010
0001
0010
0100
0001
,
0010
0000
0001
0000
1000
0000
0010
1000
,
0100
0000
0010
0100
0001
0000
0010
0100
,
0001
0100
0010
0000
1000
0100
1000
0010
,
1000
0000
0010
0000
0010
0100
0001
0100
,
0010
0000
0100
0000
1000
0100
0010
1000
,
0100
1000
0010
0100
0001
0000
0001
0010
,
0100
0000
0001
0010
0100
0001
0100
0010
,
1000
0100
1000
0010
1000
0000
0100
0001
,
0100
0000
0010
0100
0001
0000
0100
0010
,
1000
0000
1000
0010
1000
0000
1000
0100
,
0010
0100
0010
0100
0001
0000
0010
0100
,
1000
0100
0010
1000
0001
0100
0010
0000
,
0100
0000
0000
0000
0001
0000
1000
0000
0010
0000
0000
0010
1000
0000
0100
0000
,
0001
0000
0010
1000
0001
0000
0100
0000
0010
0000
0000
0010
0100
0000
0100
0000
,
0001
0000
0100
0010
0100
0000
0001
0000
1000
0000
0000
0000
0010
0000
1000
0000
,
0100
0000
0010
1000
0001
0100
0010
0000
,
0100
0000
0001
0100
0010
1000
0100
1000
,
0010
1000
0000
0000
0001
0100
0010
0100
,
0001
1000
0000
0000
0010
1000
0010
1000
,
0100
1000
0010
0100
0001
0100
0010
0100
,
0001
0000
0001
0100
0010
0000
0010
0000
,
0000
0000
0100
0100
,
0000
0000
0000
0000
0010
0100
0010
0000
,
1000
0001
1000
0000
1001
0000
1001
0000
,
0000
0000
0110
0110
,
0000
0000
0110
0110
,
0000
0000
0000
0000
0010
0100
0010
0000
,
0100
0010
0100
0000
0001
1000
0001
0000
,
1000
0001
1000
0000
0010
0100
0001
0100
,
0000
0000
0000
0000
0010
1000
0001
0100
,
0010
0000
0001
0000
0010
0100
0001
0100
,
0000
0000
0000
0000
0010
1000
0001
1000
,
0010
0000
0000
0000
0100
0000
0000
0000
0100
0000
0000
0100
0010
0000
0100
0000
,
0001
0000
0100
0000
0010
0000
0000
0000
1000
0000
0000
1000
0010
0000
1000
0000
,
0100
1000
0010
1000
0001
0100
0010
0100
,
0001
0000
0100
0000
0010
1000
0001
1000
,
0010
0000
1001
0001
,
1001
0001
1000
0001
1001
0000
0001
0000
,
1001
0001
1000
0001
1001
0000
0001
0000
,
1001
0001
1000
0001
1001
0000
1001
0000
,
1001
0000
1000
0000
0001
0000
0110
0000
1001
0000
0001
0000
1000
0000
0010
1000
,
0001
0000
1000
0000
0010
0000
0000
0000
0001
0000
1000
0000
0010
0000
1000
0001
,
0100
0010
0100
0000
0001
0000
1000
0000
,
0010
1000
0001
0000
1000
0010
1000
0001
,
0100
0010
0100
0100
,
0100
0001
1000
0010
1000
0000
1000
0000
,
1000
0010
1000
0001
0010
0000
0010
0000
,
0010
0001
1000
0010
0001
0000
0001
0000
,
1001
0000
0000
0000
;

//--------------- dance-single - PWG ----------------
#NOTES:
     dance-single:
     PWG:
     Hard:
     10:
     0,0,0,0,0:
0000
0000
0000
0000
,
0000
0000
0000
0000
,
0000
0000
0000
0000
,
0000
0000
0000
0000
,
0000
0000
0000
0000
0001
0100
0000
0000
,
0100
0000
0010
0000
0100
0001
0000
0000
,
0010
0000
1000
0000
1000
0100
0000
0000
,
1000
0000
0100
0000
1000
0010
0000
0000
,
0010
1000
0001
1000
,
0010
0000
0100
0001
0100
0000
0010
0000
,
1000
0000
0100
1000
0010
0000
1000
0000
,
0010
0000
0100
0001
0100
0000
0010
0100
,
1000
0000
0010
0000
1000
0100
1000
0010
,
1000
0000
0001
0000
0100
0000
0010
0000
0100
0000
0001
0100
0010
0000
0100
0000
,
0001
0000
0000
0000
0010
0000
0000
0000
1000
0000
0001
0000
1000
0000
0010
1000
,
0100
1000
0010
1000
0001
1000
0010
0100
,
0001
0000
0000
0000
0100
0000
0010
0100
0001
0000
0100
0000
0010
0000
0100
0000
,
0001
0000
0000
0000
1000
0000
0010
0000
1000
0000
0100
1000
0010
0000
1000
0000
,
0100
0000
0000
0000
1000
0000
0010
0000
1000
0001
1000
0000
0010
0000
0100
0000
,
0001
0000
0100
0000
0010
0000
0100
0000
0001
0000
0000
0001
0100
0000
0010
0000
,
0100
0000
0000
0100
0010
0000
1000
0000
0100
0000
1000
0010
1000
0000
0001
0000
,
1000
0000
0000
1000
0010
0000
1000
0000
0001
0000
0100
0010
0100
0000
0001
0000
,
0100
0000
0000
0100
0010
0000
0100
0000
0001
0000
0100
0000
0010
0000
1000
0000
,
0001
0000
1000
0010
1000
0000
0100
1000
,
0010
0001
1000
0010
1000
0000
0100
0001
,
0100
0000
0000
0000
0010
0000
0100
0000
0001
0000
0100
0010
0100
0000
0001
0000
,
1000
0000
0000
0000
0010
0000
1000
0000
0100
0000
1000
0010
1000
0000
0001
0000
,
1000
0000
1000
0010
1000
0000
1001
0000
,
1001
0000
1001
0000
0001
1000
0010
0000
,
0000
0000
0010
0000
0010
1000
0001
0000
,
0000
0000
0001
0000
0100
0001
1000
0000
,
0000
0000
1000
0000
1000
0001
0100
0000
,
0000
0100
0110
0000
,
0000
0000
1001
0000
,
0000
0000
0000
0000
1000
0100
0010
0000
,
0001
0010
0100
0000
1000
0100
0010
0100
,
0001
0010
0100
0000
1000
0100
0010
0001
,
0010
1000
0100
0000
0010
0100
0001
0100
,
0010
1000
0100
1000
0010
1000
0001
0100
,
0010
0100
0001
0100
0010
0100
0001
0100
,
0010
0000
1000
0000
0001
0000
0000
0000
1000
0100
1000
0000
0001
0010
0001
0000
,
1000
0100
1000
0000
0001
0010
0001
0000
1000
0100
1000
0000
0001
0010
0001
0000
,
1000
0100
1000
0000
0011
0000
0001
0000
1001
0000
0000
0000
0010
0000
0000
0000
,
0100
0010
0100
0010
0000
0000
0010
0000
,
0100
0010
0100
0010
0000
0000
0010
0000
,
0100
0010
0100
0000
1001
0000
1001
0000
,
0001
0000
1000
0000
0010
0000
1000
0000
0001
0000
0001
1000
0010
0000
1000
0000
,
0001
0000
1000
0000
0010
0000
1000
0000
0001
0000
0100
0010
0100
0000
0001
0000
,
0100
0000
0010
0000
1000
0000
0001
0000
1000
0000
0010
1000
0100
0000
1000
0000
,
0010
0000
1000
0000
0001
0000
1000
0000
0010
0000
1000
0001
0100
0000
0010
0000
,
0100
0001
0100
0010
0100
0000
0001
0000
1000
0000
0010
0000
1000
0100
1000
0000
,
0010
0000
1000
0001
1000
0000
0010
0000
1000
0000
0100
1000
0010
0000
1000
0000
,
0001
1000
0010
1000
0001
0000
0100
0000
0010
0000
0100
0001
0100
0000
0010
0000
,
0100
0000
0000
0000
0001
0000
0000
0000
1000
0000
0010
1000
0100
0000
1000
0000
,
0010
0000
1000
0000
0001
1000
0010
1000
,
0001
0000
1000
0010
1000
0000
0001
0000
0100
0000
0010
0000
0100
0000
0001
0000
,
0100
0000
0000
0000
0010
0000
0000
0000
0100
0000
0001
0100
0010
0000
1000
0000
,
0001
1000
0010
1000
0100
1000
0010
1000
,
0001
0000
0000
0000
0010
0000
1000
0001
1000
0000
0010
0000
0100
0000
0001
0000
,
0100
0000
0000
0000
0100
0000
0010
0000
0100
0000
0001
0100
0010
0000
0100
0000
,
0010
0000
1000
0100
1000
0010
1000
0001
,
0100
0010
0100
0001
0100
0000
0100
0010
,
0100
0000
0000
0000
1000
0000
0100
0000
1000
0000
0000
1000
0010
0000
1000
0000
,
0001
0000
0100
0010
0100
0000
0001
0000
0100
0000
0000
0100
0001
0000
0100
0000
,
0010
0000
0100
0001
0100
0000
0010
0000
1000
0000
0000
1000
0100
0000
1000
0000
,
0010
1000
0001
1000
0100
0000
0010
0000
0100
0000
0001
0100
0010
0000
0100
0000
,
0001
0100
0010
0100
0001
0000
1000
0000
0010
0000
0000
0010
1000
0000
0100
0000
,
1000
0000
0010
1000
0001
0000
1000
0000
0010
0000
0000
0010
0100
0000
0100
0000
,
0001
0000
0100
0010
0100
0000
0001
0000
0100
0010
0100
0000
0001
1000
0010
0000
,
1000
0100
1000
0000
0010
1000
0001
0000
0100
0000
0010
0000
0001
0000
0110
0000
,
0101
0100
0010
1000
0001
0000
0010
0000
,
0000
0000
1000
0010
,
0000
0000
0000
0000
1000
0100
0010
0000
,
0001
0010
0100
0000
1010
0000
0101
0000
,
0000
0000
0000
0000
0010
0100
0001
0000
,
0000
0000
0000
0000
1000
0010
0100
0000
,
0000
0000
0110
0110
,
1001
0000
1001
1001
,
0110
0000
0000
0000
1000
0100
0010
0001
,
0000
0000
0000
0000
1000
0100
0010
0001
,
0100
0010
0100
0000
0001
0000
0000
0000
0001
0000
0010
0000
0100
0000
1000
0000
,
0000
0000
0000
0000
0001
0010
0100
1000
,
0100
0010
0100
0000
0010
0000
0100
0000
0001
1000
0010
0000
1000
0100
1000
0000
,
0010
1000
0001
0000
0100
0010
0100
0000
0001
0100
0010
0000
0100
0010
1000
0000
,
0100
1000
0010
0000
1000
0001
1000
0000
0010
0000
0100
0000
0001
0000
0100
0000
,
0010
0000
0100
0000
0001
1000
0010
1000
,
0100
0000
1100
0100
,
1000
0100
1000
0100
0011
0000
0001
0000
,
0010
0000
0001
0000
0010
0000
0001
0010
0100
0000
0000
0000
0010
0000
0000
0000
,
0100
0010
0100
0010
1010
0000
0001
1000
,
0001
0000
1000
0000
0010
0000
1000
0000
0001
0000
1000
0010
1000
0000
0100
0000
,
1000
0000
0000
0000
0010
0000
0000
0000
1000
0000
0001
0100
0010
0000
0100
0000
,
0001
0000
0000
0000
0100
0000
0000
0000
0010
0100
0001
0000
0100
0010
1000
0000
,
0100
0000
1000
0000
0010
0000
1000
0000
0001
0000
0000
0001
1000
0000
0010
0000
,
1000
0000
0001
1000
0010
0000
0100
0000
0001
0000
0000
0001
0100
0000
0010
0000
,
0100
0000
0001
0100
0010
0000
0100
0000
0100
0000
0000
0100
1000
0000
0010
0000
,
1000
0000
0100
1000
0010
0000
1000
0000
0001
0000
0000
0000
0001
0000
0000
0000
,
1000
0000
0010
0000
1000
0000
0100
0000
1000
0000
0010
1000
0001
0000
1000
0000
,
0110
0000
0000
0000
;

//--------------- dance-single - PWG ----------------
#NOTES:
     dance-single:
     PWG:
     Challenge:
     11:
     0,0,0,0,0:
0000
0000
0000
0000
,
0000
0000
0000
0000
,
0000
0000
0000
0000
,
0000
0000
0000
0000
,
0000
0000
0000
0000
0010
0100
0001
1000
,
0100
0000
0010
0001
0100
0000
0000
0000
,
0001
0010
0010
0010
0001
0010
0100
0010
,
1000
0000
0100
0010
1000
0000
0001
0000
,
0100
0010
0100
1000
0001
0100
0010
0100
,
0001
0001
1000
0010
1000
0000
0100
0000
,
1000
0100
0010
1000
0001
0100
0010
0100
,
0001
0000
0100
0010
0100
0000
0100
0000
,
1000
0000
0100
0000
1000
0100
0010
0100
1000
0000
0100
0000
0100
0000
0001
0010
,
0100
0000
1000
0000
0001
0000
0100
0000
1000
0010
0100
0010
0001
0000
1000
0000
,
0010
0000
0100
0000
0001
0000
0100
0001
0010
0000
0100
0000
0001
0000
0100
0000
,
0010
0000
0100
0000
0001
0100
1000
0001
0110
0000
0000
0000
0110
0000
0000
0000
,
0110
0000
0000
0000
0010
1000
0001
0000
0100
0000
0010
0000
0100
0000
0001
0000
,
0100
0000
0010
0000
0100
0000
0001
0000
1000
0000
0100
0010
0100
0000
0001
0000
,
1000
0010
1000
0001
1000
0000
0010
0000
1000
0000
0100
1000
0010
0000
1000
0000
,
0001
0000
0100
0000
0010
0000
0100
0000
0001
0100
0010
0000
0100
0010
1000
0000
,
0100
1000
0010
1000
0001
0000
1001
0010
,
1000
0000
1000
0000
0010
0000
1000
0000
0001
0000
0010
0000
0001
0100
0010
0000
,
0100
0001
0100
0010
0100
0000
0001
0000
1000
0000
1000
0000
0010
0000
1000
0000
,
0100
0000
0100
0000
1000
0000
0010
0000
1000
0001
1000
0010
0100
0000
0001
0000
,
0100
0000
0010
0000
0100
0000
0001
0000
0100
0000
0010
0100
0001
0000
1000
0000
,
0010
0000
1000
0100
1000
0000
0010
0000
1000
0001
1000
0010
0100
0000
0001
0000
,
0100
0000
0010
0000
0100
0000
0001
0000
0100
0000
0010
0100
0010
0000
1000
0000
,
0100
0000
1000
0000
0010
0000
1000
0000
0001
0000
0000
0001
1000
0000
0010
0000
,
1000
0001
1000
0000
0010
0000
0100
0000
0001
0000
0000
0000
0001
0000
0000
0000
,
0000
0000
1000
1000
,
0000
0000
0000
0000
0010
0100
0010
0000
,
0100
0010
1001
1001
,
0000
0000
0010
0010
,
0000
0000
0100
0100
,
0000
0000
0000
0000
0010
0100
0010
0000
,
0001
0000
1000
0000
0001
0000
0000
0000
0001
0000
1000
0001
1000
0010
1000
0001
,
0010
0100
0010
0100
0110
0000
0110
0000
,
0110
0110
1100
1100
,
1100
1100
0101
0101
,
0101
0101
0011
0011
,
1010
0000
1010
0000
1000
0100
0010
0001
,
1000
0000
0100
0010
0001
0000
0001
0000
0001
0000
0010
0000
0100
0000
1000
0000
,
0001
0000
0010
0100
1000
0000
1000
0000
1001
0000
0000
0000
0000
0000
0000
0000
,
0110
0000
1100
0000
,
1100
0000
0011
0000
,
0011
0000
0110
0000
,
0110
0000
0000
0000
1000
0100
1000
0100
,
1100
0000
0100
0000
1000
0100
1000
0100
1000
0000
0100
0000
1000
0000
0100
0000
,
1100
0000
0100
0000
1000
0100
1000
0100
0011
0000
0010
0000
0001
0000
0010
0000
,
0001
0010
0001
0010
0001
0000
0010
0000
0001
0000
0010
0000
0011
0000
0000
0000
,
0011
0000
0000
0000
0011
0000
0000
0000
0010
0000
0100
0000
0001
0000
0100
0010
,
1000
0000
0001
0000
1000
0000
0010
1000
0001
0000
0100
0000
0010
0000
0100
0001
,
0100
0000
0010
0000
0100
0000
0001
0000
1000
0010
1000
0000
0001
0000
0100
0010
,
0100
0000
0001
0000
0100
0000
0010
0000
0100
0000
0001
0100
0010
0000
0100
0000
,
0001
0100
0010
0001
1000
0100
0001
0010
1000
0000
0000
0000
0100
0000
1000
0000
,
0010
1000
0001
0100
0010
0000
0010
0100
,
0001
0000
0000
0000
0100
0000
0010
0100
0001
0000
0100
0000
0010
0000
1000
0000
,
0001
0000
1000
0000
0010
0000
1000
0001
1000
0000
0010
0000
0100
0001
0100
0010
,
0100
0001
1000
0010
1000
1000
0100
0100
,
0010
0000
0010
0000
0001
0100
0010
0000
0010
0100
0001
0000
0010
0000
1000
0000
,
0001
0000
0000
0001
1000
0000
0010
0000
1000
0000
0100
0000
1010
0000
1000
0000
,
0001
0000
0010
0000
0101
0000
0001
0000
0100
0000
0010
0100
0001
0000
0100
0000
,
0010
0100
0001
1000
0010
0000
1000
0000
0100
0000
1000
0010
1000
0000
0001
0000
,
0100
0010
0100
0001
0100
0000
0010
0000
0100
0000
0001
0100
0010
0000
0100
0000
,
0001
1000
0010
1000
0001
0000
1000
0000
0010
0000
1000
0100
1000
0000
0010
0000
,
1000
0001
0100
0010
0100
0000
0001
0000
0100
0000
0010
0000
0100
0000
0001
0000
,
1000
0000
0000
0000
1000
0000
1000
0010
1000
0000
0001
0000
0100
0000
0010
0000
,
0100
0000
0000
0000
0100
0000
0001
0100
0010
0000
0100
0000
0001
0000
0100
0000
,
0010
0000
0000
0000
0010
0000
0010
0100
0001
0000
0100
0010
0100
0000
0001
1000
,
0010
0000
1000
0100
1000
0000
0010
0000
0010
0000
1000
0001
0100
0000
0010
0000
,
0100
0000
0100
0010
1000
0100
0010
0001
,
0010
0100
1000
0100
0110
0000
0110
0000
,
0110
0000
1000
0100
0001
1000
0001
0000
,
1000
0001
1000
0000
1001
0000
1001
0000
,
0001
0010
1000
0100
0010
0000
0001
0000
,
0010
0001
0010
0001
,
0000
0000
0000
0000
0001
0010
0100
1000
,
0100
0000
1000
0000
1001
1000
0010
0100
,
0001
0000
0000
0000
0010
0000
0000
0000
0010
0000
0100
0000
0001
0000
0100
0010
,
0100
0000
0001
0000
1000
0000
0000
0000
0010
0000
1000
0000
0001
0000
1000
0010
,
1000
0001
0100
0000
0010
0000
0100
0000
0001
0000
0100
0010
0100
0000
0001
0000
,
0000
0000
0000
0000
0010
0000
0000
0000
0100
0000
0001
0100
0010
0000
0100
0000
,
0001
0000
0000
0000
1000
0000
0000
0000
0010
1000
0100
1000
0010
1000
0001
0000
,
0110
0000
0100
0000
0110
0000
0010
0000
0100
0010
1000
0001
1000
0100
0010
0100
,
0001
0000
1010
0000
1000
0010
1000
0000
0010
0000
1000
0000
0010
0000
0000
0000
,
1000
0000
0000
0000
0001
0000
0100
0010
0100
0000
0001
0000
0100
0000
0000
0000
,
0010
0000
0110
0010
,
0110
0100
0010
0100
0110
0000
0010
0000
,
0110
0010
0100
0010
0110
0000
0010
0000
,
0110
0010
0100
0100
0001
1000
1001
0000
,
1001
0000
0010
0000
1000
0000
0001
1000
0001
0000
1000
0000
0010
0000
1000
0000
,
0001
0100
0010
0100
0001
0000
0100
0000
0010
0000
0100
0001
1000
0000
0010
0000
,
1000
0001
1000
0010
0100
0000
0001
0000
0100
0000
0010
0100
0001
0000
1000
0000
,
0010
1000
0001
1000
0010
0000
0100
0000
0001
0000
0010
0000
0100
0000
0001
0000
,
0100
0010
0001
0000
0100
0000
0010
0000
1000
0000
1000
0000
0010
0000
1000
0000
,
0001
0001
0100
0010
0100
0100
0001
0100
,
0010
0000
0100
0001
0100
0000
0010
0000
1000
0001
1000
0010
1000
0000
0001
0000
,
0100
0010
0001
0000
0100
0000
0010
0000
0100
0000
0110
0000
0010
0000
0100
0000
,
1001
0000
0000
0000
;

//--------------- dance-double - PWG ----------------
#NOTES:
     dance-double:
     PWG:
     Beginner:
     4:
     0,0,0,0,0:
00000000
00000000
00000000
00000000
,
00000000
00000000
00000000
00000000
,
00000000
00000000
00000000
00000000
,
00000000
00000000
00000000
00000000
,
00000000
00000000
00010000
01000000
,
00001000
00100000
00000100
00000000
,
00000100
00000100
00001000
00000010
,
00010000
00000100
00100000
00000000
,
00000100
00000000
00001000
01000000
,
00010000
10000000
00100000
00000000
,
00100000
00010000
00001000
00000000
,
00000100
00000000
00000010
00000100
,
00000010
00000100
00001000
00001000
,
00100000
00000000
00001000
00010000
,
00000100
00000000
00001000
00100000
,
00010000
01000000
00100000
00000000
,
00100000
00000000
00000100
00010000
,
00001000
00000000
00000010
00100000
,
00000010
00000000
01000000
00000100
,
01000000
00000001
00000100
00000000
,
00000010
00000000
00001000
00000100
,
00010000
00001000
01000000
00000010
,
00100000
00000100
00010000
00000010
,
10000000
00001000
00100000
00000010
,
00010000
00000100
00000001
00000001
,
00001000
00000000
00000100
00010000
,
00000100
00000000
00000001
00000001
,
00100000
00100000
00001000
00010000
,
00010000
00000100
00000010
01000000
,
00000000
00000000
00001000
00010000
,
00000000
00000000
00100000
00000000
,
00000100
00000000
00001000
00000000
,
00000000
00000000
00100000
01000000
,
00000000
00000000
00000100
00001000
,
00000000
00000000
00000010
00000100
,
00000010
00000000
00100000
01000000
,
00100000
00000000
00001000
00000000
,
00000000
00000000
00010000
00001000
,
00010000
00000000
00001000
00000000
,
00000000
00000000
00100000
01000000
,
00100000
00000000
10000000
01000000
,
00100000
00010000
00001000
00000100
,
00000010
00000001
00011000
01000000
,
00000000
00001000
00100000
00000100
,
00000000
00000010
00010000
00001000
,
00000000
00100000
00010000
01000000
,
00001000
00000000
00000100
00000100
,
00000010
00000000
00010000
00001000
,
00010000
00000000
01100000
00100000
,
01100000
00000000
00000110
00000100
,
00000110
00000000
00010000
01000000
,
00010000
00000000
00000010
00000100
,
00000010
00000000
00000001
00001000
,
00000100
00100000
00001000
00000010
,
00100000
00000000
00001000
00100000
,
00001000
00000000
01000000
00100000
,
10010000
00000000
00000100
00100000
,
00001000
00000000
00001000
00000100
,
00001001
00000000
00010000
01000000
,
00010000
00010000
00001000
00000100
,
00001000
00001000
00000010
00000100
,
00100000
00010000
00100000
00001000
,
00010000
00000000
00000100
00000000
,
00010000
00001000
00100000
00000000
,
00000000
00000000
00001000
00000000
,
00010000
01000000
00001000
00000000
,
00000010
00000000
00000100
00000000
,
00000010
00000000
10000000
00000000
,
00100000
00000000
01000000
00010000
,
00001000
00100000
00000100
00000000
,
00000010
00000000
10000000
10000000
,
00000000
00000000
00001000
00001000
,
00000000
00000000
00000001
00000000
,
00000001
00000000
00010000
00010000
,
00000000
00000000
00000010
00000010
,
00000000
00000000
00100000
00100000
,
00000000
00000000
01000000
00000000
,
01000000
00000000
00000100
00000000
,
00000000
00000000
00100000
00010000
,
00000000
00000000
00100000
00010000
,
00100000
00000000
00001000
00000100
,
00000000
00000000
00001000
00000100
,
00001000
00000000
10000000
10000000
,
00100000
00100000
00001000
00001000
,
00000010
00000010
00000001
00000000
,
00000010
00000000
00000100
00000000
,
00001000
00000000
00000000
00100000
,
01000000
00010000
00000000
00000010
,
00000100
00001000
00000000
00001000
,
00010000
00100000
00000100
00000000
,
00001000
00000000
10010000
00010000
,
10000000
00000000
00001001
00000001
,
00001000
00000000
00100000
00010000
,
00100000
00000000
00000100
00001000
,
00000100
00000000
00010000
00001000
,
00010000
00000000
00001000
00010000
,
00001000
00000000
01000000
00000000
,
00100000
10000000
00010000
00001000
,
01000100
00000000
00000000
00000000
;

//--------------- dance-double - PWG ----------------
#NOTES:
     dance-double:
     PWG:
     Easy:
     5:
     0,0,0,0,0:
00000000
00000000
00000000
00000000
,
00000000
00000000
00000000
00000000
,
00000000
00000000
00000000
00000000
,
00000000
00000000
00000000
00000000
,
00000000
00000000
00010000
00001000
,
00000100
00000000
00001000
00010000
00000100
00000000
00000000
00000000
,
00000000
00000000
00100000
00010000
,
01000000
00000000
00100000
10000000
00010000
00000000
00000000
00000000
,
00100000
00000000
01000000
00010000
,
00100000
00000000
00001000
00010000
00000100
00000000
00000000
00000000
,
00000010
00000000
00000001
00001000
,
00000010
00010000
00000100
00001000
,
00000100
00000000
10000000
00100000
,
01000000
00000000
00010000
00100000
00001000
00000000
00000100
00000000
,
00010000
00000000
00000100
00001000
,
00000010
00000000
00010000
00000000
00000100
00000000
00100000
00001000
,
00100000
00000000
00010000
01000000
,
00100000
00000000
10000000
00100000
,
01000000
00000000
00010000
00000000
,
00001000
00010000
00000100
00000100
,
00100000
00000000
00100000
00000000
00001000
01000000
00010000
00000000
,
00000000
00000000
00000000
00000000
01000000
00100000
10000000
00000000
,
00000000
00000000
00000000
00000000
00000010
00000100
00000001
00000000
,
00000000
00000000
00000000
00000000
00010000
00001000
00010000
00000000
,
00000000
00000000
01000000
01000000
,
00100000
00000000
00000010
00000010
,
00000100
00000000
00010000
00001000
,
00010000
00001000
00010000
00000000
,
00000000
00000000
00100000
00100000
,
00000000
00000000
00000010
00000010
,
00000000
00000000
00000100
00000100
,
00000000
00000000
01000000
01000000
,
00000000
00000000
10000000
10000000
,
00000000
00000000
00001000
00001000
,
00000000
00000000
00010000
00010000
,
00000000
00000000
00000001
00000001
,
00000000
00000000
00010000
01000000
,
00000000
00000000
00010000
01000000
,
00010000
00000000
00001000
00000010
,
00000000
00000000
00001000
00000010
,
00001000
00000000
00000000
00000000
00010000
00001000
00010000
00000000
,
00001000
00010000
00001000
00000000
00010000
00001000
00010000
00000000
,
00001000
00010000
00001000
00000000
00011000
00000000
00100000
00000000
,
00000000
01000000
00100000
01000000
00000000
00000000
00000010
00000000
,
00000000
00000010
00000100
00000010
00000000
00000000
01000000
00000000
,
00000000
00100000
01000000
00000000
00100000
00000000
00000010
00000000
,
00000000
00000100
00000010
00000100
00000010
00000000
00010000
00000000
,
00000100
00010000
00001000
00100000
,
00010000
00000000
00010000
00100000
,
00001000
00010000
00000100
00001000
,
00000010
00000000
00000010
00000010
,
00001000
00000000
00010000
00010000
,
00100000
00000000
00001000
00010000
,
00000100
00000100
00010000
00001000
,
00100000
00000000
00010000
01000000
,
00100000
10000000
00010000
00010000
,
01000000
00000000
00000010
00001000
,
00000100
00010000
00001000
00000010
,
00001000
00000000
00000001
00001000
,
00000010
00000100
00001000
00000100
,
00010000
00000000
00001000
00100000
,
00010000
00100000
00000100
00000010
,
01000000
00000000
00000100
00100000
,
00000100
00000100
01000000
00000010
,
01000000
01000000
00010000
10000000
,
00010000
00010000
00001000
00001001
,
00001000
00001000
00010000
00100000
,
00001000
00000000
00010000
00000100
,
00001000
00000000
00001000
00100000
,
00010000
01000000
00100000
10000000
,
00010000
00000000
00100000
00010000
00011000
00000000
00001000
00000000
,
00000000
00000000
00000110
00000010
,
00000000
00000000
01100000
01000000
,
01000000
01000000
00010000
00010000
,
00000000
00000000
10010000
10000000
,
00000000
00000000
00000110
00000010
,
00000000
00000000
00100000
00100000
,
00001000
00001000
01000000
00000110
,
00010000
00000000
00000100
00001000
,
00000000
00000000
00000000
00000000
00001000
00010000
00010000
00000000
,
00100000
00000000
10000000
00100000
,
00000000
00000000
00000000
00000000
00100000
00010000
00001000
00000000
,
00000100
00000000
00000001
00000010
,
00000001
00000010
10000000
00100000
,
10000000
00100000
00001000
00100000
,
00001000
00001000
00010000
00000100
,
00011000
00000000
00000000
00001000
,
00000000
00001000
00010000
00001000
00000000
00000000
00001000
00000000
,
00000000
00001000
00010000
00001000
00000000
00000000
00010000
00000000
,
00000000
00000000
00001000
00010000
00000000
00000000
00010000
00000000
,
00010000
00001000
00010000
00000000
00010000
00000000
01000000
00100000
,
01000000
00010000
10000000
00100000
,
10000000
00000000
00000000
00000000
00000001
00000000
00000100
00000010
,
00000100
00000001
00001000
00000010
,
00001000
00000000
00000000
00000000
00000100
00000000
00000000
00000100
,
00010000
00000000
00000000
00000000
00100000
00000000
00000000
00100000
,
00010000
00000000
10000000
00100000
,
01000000
00010000
00100000
00001000
,
00000100
00011000
00000000
00000000
;

//--------------- dance-double - PWG ----------------
#NOTES:
     dance-double:
     PWG:
     Medium:
     9:
     0,0,0,0,0:
00000000
00000000
00000000
00000000
,
00000000
00000000
00000000
00000000
,
00000000
00000000
00000000
00000000
,
00000000
00000000
00000000
00000000
,
00000000
00000000
00000000
00000000
00010000
01000000
00100000
01000000
,
00010000
00000000
10000000
00100000
10000000
01010000
00100000
01000000
,
00010000
00000000
00001000
00000000
00100000
00010000
00100000
00001000
,
00010000
00000100
00010000
00000010
00001000
00000000
00000100
00000000
,
00010000
00000000
00001000
00100000
00000100
00000000
00000010
00000100
,
00000001
00000000
00000010
00001000
00000010
00001000
00000100
00010000
,
00001000
00000000
00000100
00000000
00100000
00001000
00100000
00000100
,
00010000
00000000
00000010
00010000
00000010
00100000
00000010
00000000
,
00000100
01000000
00001000
01000000
00000100
10000000
00001000
10000000
,
00010000
10000000
00100000
10000000
00010000
00000000
00010000
01000000
,
00001000
00000000
01000000
00000000
00001000
00100000
00001000
00100000
,
00000100
00010000
00000010
00010000
00000100
00000000
00000010
00001000
,
00000001
00001000
00000100
00000000
00000010
00010000
00000100
00100000
,
00001000
00000000
00001000
00000000
00100000
00010000
01000000
00100000
,
10000000
00010000
10000000
00100000
,
01000000
00000000
00010000
01000000
00100000
00000000
00010000
00000000
,
00001000
00000000
00000100
00010000
00001000
00000000
00000100
00010000
,
00001000
00000000
00100000
00001000
00010000
00000000
00100000
00001000
,
00010000
00000000
10000000
01000000
00100000
00010000
10000000
01000000
,
00100000
00000000
00010000
00100000
01000000
10000000
00010000
00100000
,
01000000
00000000
00001000
00000100
00000001
00000010
00000001
00001000
,
00000010
00000000
00000001
00000010
00000100
00001000
00000001
00000010
,
00000100
00001000
00010000
00001000
00010000
00000000
00000100
00100000
,
00001000
00000000
00010000
00100000
00001000
00100000
00010000
00000000
,
01000000
00000000
00100000
10000000
00100000
00000000
00100000
00000000
,
00000000
00000000
00000001
00000010
,
00000000
00000000
00000000
00000000
00010000
00100000
00010000
00000000
,
00001000
00010000
00001000
00000000
00000100
00001000
00000100
00000000
,
00000000
00000000
00001000
00010000
00000100
00000000
00000100
00000000
,
00000000
00000000
01000000
01000000
,
00000000
00000000
00000000
00000000
10000000
01000000
10000000
01000000
,
10000000
00000000
00000100
00001000
00000100
00001000
00000100
00001000
,
00000100
00000000
00000000
00000000
00000010
00001000
00000100
00001000
,
00000000
00000000
00000000
00000000
00010000
01000000
00100000
01000000
,
00010000
00000000
01000000
00000000
10000000
01000000
00100000
00010000
,
00000000
00000000
00000000
00000000
00000001
00000010
00000100
00001000
,
00000010
00000010
00000100
00000000
00001000
00000010
00001000
00000100
,
00010000
00000000
00001000
00000000
00100000
00010000
00100000
00001000
,
01000000
00010000
00011000
10000000
,
00000000
10000000
00100000
01000000
00000000
00000000
00001000
00000000
,
00000000
00001000
00010000
00000100
00000000
00000000
00000010
00000000
,
00000000
00000100
00000010
00000100
00001000
00000000
00000010
00000000
,
00001000
00000100
00001000
00000000
00000010
00000100
00000001
00000100
,
00000010
00000000
00000001
00000000
00000010
00000100
00001000
00000000
,
00000100
00000000
00010000
00000000
00001000
00010000
00001000
00010000
,
00000010
00000000
00000100
00000000
00001000
00100000
00000100
00100000
,
00001000
00000000
00100000
00000000
00010000
01000000
00100000
01000000
,
00010000
00000000
10000000
00000000
00100000
10000000
00010000
01000000
,
00001000
00000000
01000000
00000000
00000100
00001000
00010000
00100000
,
00000100
00000000
00000100
00000000
00000100
00001000
00010000
00100000
,
00000100
00000000
00000000
00000000
00000001
00000010
00001000
00000010
,
00001000
00000100
00010000
00001000
,
00100000
00000000
00000000
00000000
01000000
00010000
01000000
00001000
,
00100000
00000000
00010000
00100000
00001000
00000000
01000000
00000000
,
00010000
00000000
00000000
00000000
10000000
00000000
10000000
00100000
,
01000000
00000000
00000000
00000000
00000001
00000000
00000001
00001000
,
00000010
00000100
00000010
00000010
,
00100000
00100000
00000100
00000100
,
01000000
00000000
01000000
00000000
00100000
01000000
00100000
01000000
,
00100000
00000000
01000000
00000000
00000010
00000100
00000010
00000100
,
00000010
00000000
00000100
00000000
00000100
00010000
00001000
00010000
,
00010000
00000000
00100000
00000000
00100000
00001000
01000000
00000000
,
00010000
00000000
10000000
00000000
00100000
10000000
00010000
01000000
,
00001000
00000000
00000000
00000000
00000100
00010000
00001000
00010000
,
00000010
00001000
00000000
00000000
00000100
00000000
00001000
00000000
,
00000010
00000000
00010000
00001000
00100000
00000000
00010000
01000000
,
00001000
00000000
00010000
10000000
00100000
00000000
10000000
00000000
,
00000000
00000000
00010000
01000000
,
00000000
00000000
00000000
00000000
00001000
00100000
00010000
00000000
,
00100000
00000100
00001000
00000010
00001000
00000000
00000100
00000000
,
00000000
00000000
00001000
00100000
00000100
00000000
00010000
00000000
,
00000000
00000000
00001000
00100000
,
00000000
00000000
00010000
10000000
,
00100000
00100000
00010000
00001000
,
00000100
00000000
00000000
00000000
00000100
00001000
00000010
00001000
,
00000000
00000000
00000000
00000000
00000100
00100000
00001000
00100000
,
00001000
00000000
00010000
00000000
00001000
01000000
00010000
01000000
,
00000000
00000000
00000000
00000000
00010000
01000000
00001000
01000000
,
00100000
00000000
00010000
00000000
10000000
01000000
00100000
00010000
,
00001000
00000100
00000010
00000001
00000010
00000100
00001000
00010000
,
00100000
01000000
10000000
01000000
10000000
00000000
00010000
00000000
,
00001000
00000000
00100000
00000000
00010000
00000100
00010000
00001000
,
00010000
00000000
00011000
00001000
,
00011000
00001000
00010000
00001000
00011000
00000000
00001000
00000000
,
00011000
00001000
00010000
00000000
00100100
00000000
00000100
00000000
,
01000100
00000100
01000000
00000100
00100010
00000000
00000010
00000000
,
00100010
00000010
00100000
00000010
00000100
01000000
00010000
01000000
,
00001000
00000000
10000000
00000000
00010000
10000000
00001000
01000000
,
00010000
00000000
00001000
00000000
01000000
00010000
01000000
00001000
,
00100000
00000100
00010000
00000010
00001000
00000100
00001000
00000010
,
00000100
00000000
00000001
00000000
00000010
00001000
00000100
00001000
,
00000010
00000000
00010000
00000000
00000100
00100000
00001000
00100000
,
00010000
00000000
01000000
00000000
00011000
00001000
00010000
00001000
,
00011000
00000000
00001000
00000000
00011000
00001000
00010000
00001000
,
00011000
00000000
00000000
00000000
;

//--------------- dance-double - PWG ----------------
#NOTES:
     dance-double:
     PWG:
     Hard:
     10:
     0,0,0,0,0:
00000000
00000000
00000000
00000000
,
00000000
00000000
00000000
00000000
,
00000000
00000000
00000000
00000000
,
00000000
00000000
00000000
00000000
,
00000000
00000000
00000000
00000000
00010000
00100000
00001000
00100000
,
00010000
00000000
01000000
00100000
01000000
00000000
00010000
00000000
01000000
00000000
00000000
00000000
00100000
00000000
00000000
00000000
,
10000000
00000000
00000000
00000000
00010000
00000000
01000000
00000000
00100000
00000000
01000000
00010000
01000000
00000000
00100000
00000000
,
01000000
00010000
00100000
00001000
00100000
00000000
00010000
00100000
,
00001000
00000000
00010000
00000100
00010000
00000000
00001000
00000000
00010000
00000000
00000100
00010000
00001000
00000000
00010000
00000000
,
00000100
00000000
00010000
00001000
00100000
00000000
00001000
00000000
,
00100000
00010000
00100000
00001000
00010000
00000000
00000100
00010000
,
00000010
00000000
00001000
00000100
00001000
00000010
00010000
00000100
,
00010000
00000000
00001000
00100000
00000100
00000000
00100000
00000000
00001000
00000000
01000000
00000000
00000000
00010000
01000000
00001000
,
01000000
00000000
00010000
00000000
10000000
00000000
00000000
00100000
10010000
00000000
10000000
00000000
00000000
00100000
00000000
01000000
,
00010000
01000000
00001000
01000000
00010000
00000000
00100000
00000000
00001000
00000000
00010000
00000100
00010000
00000000
00001000
00000000
,
00010000
00000100
00001000
00000010
00001000
00000000
00000100
00000000
,
00010000
00000000
00000100
00000000
00010000
00000000
00001000
00000000
00100000
00000000
00000000
00100000
00001000
00000000
00100000
00000000
,
00010000
00000000
00100000
00001000
00100000
00000000
00000100
00000000
00010000
00000000
00000000
00000100
00010000
00000000
00001000
00000000
,
00010000
00000000
00000100
00010000
00000010
00000000
00001000
00000000
00000100
00001000
00000010
00001000
00000001
00000000
00000100
00000000
,
00000010
00000100
00000001
00001000
00000010
00000000
00000010
00001000
,
00000100
00000000
00000100
00010000
00001000
00010000
00000100
00100000
,
00001000
00100000
00001000
00100000
00010000
00000000
00010000
01000000
,
00100000
00000000
10000000
00000000
10010000
00000000
00010000
10000000
,
00100000
00000000
01000000
00000000
00001001
00000000
00000001
00001000
,
00000001
00000000
00000010
00000000
00000100
00001000
00000100
00010000
,
00001000
00000000
00001000
00000000
00100000
00010000
00100000
00001000
,
01000000
00000000
00010000
01000000
00100000
01000000
00010000
10000000
,
00100000
00000000
10000000
00000000
00010000
00000000
01000000
00000000
00100000
00000000
00000000
00000000
00010000
00000000
00100000
00010000
,
00001000
00000000
00100000
00001000
00010000
00000000
00000100
00000000
,
00000000
00000000
00000010
00000100
,
00000000
00000000
00000000
00000000
00000010
00000100
00001000
00000000
,
00010000
00100000
01000000
00000000
00100000
00000000
00010000
00000000
,
00000000
00000000
00001000
00100000
00010000
00000000
00000100
00000000
,
00000000
00000000
00000000
00000000
00000100
00010000
00001000
00000000
,
00000000
00000000
00000000
00000000
00001000
01000000
00010000
01000000
,
00100000
00000000
00100000
01000000
00010000
01000000
00001000
00100000
,
00000100
00000000
00001000
00000000
00000100
00010000
00001000
00000000
,
00000100
00010000
00001000
00000000
00100000
00001000
00100000
00000000
,
00010000
01000000
00100000
00000000
00010000
01000000
00100000
00000000
,
10000000
01000000
10000000
00000000
00100000
01000000
00010000
00000000
,
01000000
00000000
00001000
00000000
00100000
00000000
00000000
00000000
00010000
00100000
00001000
00000000
00100000
00000100
00010000
00000000
,
00001000
00010000
00000100
00000000
00001000
00000010
00001000
00000000
00000100
00001000
00000010
00000000
00010000
00000100
00010000
00000000
,
00001000
00100000
00000100
00000000
00000000
00000000
00011000
00000000
00100100
00000000
00000000
00000000
00001000
00000000
00000000
00000000
,
00000000
00010000
00100000
00001000
00000000
00000000
00000100
00000000
,
00000000
00001000
00010000
00000100
00000000
00000000
00001000
00000000
,
00000000
00010000
01000000
00000000
00011000
00000000
00011000
00000000
,
00011000
00000000
00000000
00000000
00011000
00000000
00000000
00000000
00010000
00000000
10000000
00000000
00100000
00000000
10000000
00010000
,
01000000
00000000
00100000
00000000
01000000
00000000
00000000
00000000
00010000
00000000
10000000
00000000
00100000
00000000
10000000
01000000
,
10000000
00000000
00100000
00000000
01000000
00010000
01000000
00100000
01000000
00000000
00010000
00000000
00100000
00000000
00001000
00010000
,
00100000
00000000
00010000
00000000
00001000
00000000
00000000
00000000
00000100
00000000
00001000
00000000
00000010
00000000
00001000
00000100
,
00001000
00000000
00000010
00000000
00000100
00000000
00000000
00000000
00000001
00000000
00001000
00000000
00000010
00000000
00001000
00000100
,
00001000
00000010
00010000
00000000
00000100
00000000
00010000
00000000
00000010
00000000
00100000
00000000
00000100
00000000
00100000
00001000
,
00100000
00000000
00000100
00000000
00100000
00000000
00001000
00000000
00100000
00001000
00100000
00010000
01000000
00000000
00001000
00000000
,
01000000
00000000
00000000
00000000
00010000
00000000
00000000
00000000
00001000
00100000
00000100
00100000
00001000
00000000
00100000
00000000
,
00000100
00000000
00010000
00000000
00000010
00000010
00010000
00010000
,
00000100
00000000
00100000
00100000
00001000
00000000
00001000
00100000
,
00000100
00010000
00001000
00010000
00000100
00000100
00100000
00100000
,
00001000
00000000
00001000
00010000
00010000
00000010
00000100
00001000
,
00000010
00000000
00000000
00000000
00000100
00000000
00010000
00000000
00001000
00000000
00100000
00000100
00100000
00000000
00001000
00000000
,
01000000
00000000
00010000
00000000
01000000
00000000
00001000
00000000
01000000
00000000
00100000
01000000
00010000
00000000
01000000
00000000
,
00100000
00000000
10000000
00000000
00010000
00000000
01000000
00000000
00100000
00000000
01000000
00010000
01000000
00000000
00001000
00000000
,
00100000
00000000
00010000
00100000
00001000
00000000
00100000
00000000
00010000
00000000
00100000
00000000
00001000
00000000
00100000
00000000
,
00010000
00000000
00000000
00000000
00010000
00000000
01000000
00000000
00100000
00000000
01000000
00010000
01000000
00000000
00001000
00000000
,
00100000
00000000
00010000
00000000
00100000
00000000
00001000
00000000
00010000
00000000
00000100
00010000
00001000
00000000
00010000
00000000
,
00000100
00000000
00100000
00001000
00100000
00000000
00010000
00000000
01000000
00000000
00001000
01000000
00010000
00000000
00100000
00000000
,
00001000
00000000
00010000
00000000
00000100
00000000
00010000
00000000
00000010
00000000
00001000
00000100
00001000
00000000
00000010
00000000
,
00010000
00000000
00000100
00000000
00010000
00000000
00001000
00000000
00100000
00000000
00000100
00100000
00001000
00000000
00100000
00000000
,
00000100
00000000
00010000
00000000
00001000
00000000
00010000
00000000
00000100
00000000
00001000
00000010
00001000
00000000
00000100
00000000
,
00010000
00000100
00010000
00000000
00000100
00000000
00010000
00000000
00001000
00000000
00000100
00010000
00100000
00000000
00001000
00000000
,
00100000
00010000
00100000
00000000
00000100
00000000
00010000
00000000
00000010
00000000
00000000
00000000
00000001
00000000
00000000
00000000
,
00000010
00000000
00000001
00001000
00000010
00000000
00000100
00000000
,
00000000
00000000
00000100
00000010
,
00000000
00000000
00000000
00000000
00000100
00010000
00001000
00000000
,
00100000
00010000
00001000
00000000
00010000
00000000
00100000
00000000
,
00000000
00000000
00001000
00100000
00000100
00000000
00000010
00000000
,
00000000
00000000
00000001
00001000
,
00000000
00000000
00000000
00000000
00000000
00001000
00000010
00010000
,
00000100
00100000
00001000
00000000
00000000
00100000
00001000
00010000
,
00000100
00000000
00000000
00000000
01000000
00000000
00000000
00000000
00010000
00000000
01000000
00100000
01000000
00000000
00010000
10000000
,
00100000
00000000
00000000
00000000
10000000
00000000
00000000
00000000
00010000
00000000
00100000
00001000
00100000
00000000
00010000
00100000
,
00001000
00000000
00000000
00000000
00010000
00000000
00000000
00000000
00000100
00000000
00010000
00001000
00010000
00000000
00000100
00001000
,
00000010
00000000
00000000
00000000
00001000
00000000
00000000
00000000
00000100
00000000
00001000
00000100
00001000
00000000
00000001
00000100
,
00001000
00000010
00001000
00000000
00000001
00000010
00000100
00001000
,
00000001
00000010
00000100
00001000
00010000
00100000
01000000
10000000
,
00010000
00100000
01000000
10000000
00001000
00100000
00000100
00100000
,
00001000
00000000
00000000
00000000
00010000
00000000
00000100
00010000
00001000
00000000
00010000
00000000
00000100
00000000
00001000
00000000
,
00000010
00000100
00001001
00000001
,
00001001
00000001
00001000
00000001
00101000
00000000
00001000
00000000
,
00101000
00001000
00100000
00010000
00010000
00000000
00010000
00000000
,
00010000
00000000
00010000
10000000
00010000
10000000
00010000
10000000
,
00100000
00000000
10000000
00010000
10000000
00000000
00100000
00000000
01000000
00000000
00010000
01000000
00001000
00000000
00100000
00010000
,
00100000
00000000
00001000
00000000
00100000
00000000
00001000
00000000
00000100
00000000
00010000
00000010
00010000
00000000
00000100
00001000
,
00000010
00000000
00001000
00000000
00000001
00000000
00001000
00000000
00000010
00000000
00000100
00000001
00000100
00000000
00001000
00000010
,
00001000
00000000
00010000
00000000
00000100
00000000
00010000
00000000
00000010
00000000
00010000
00000100
00100000
00000000
00000010
00100000
,
00000100
01000000
00000010
01000000
00000100
00100010
00001000
00000010
,
00000100
00000000
00100000
00000000
00000010
00000000
00100000
00000000
00000100
00000000
00110000
00001000
00010000
00000000
00000010
00000000
,
00010000
00000000
00001000
00000000
00010000
00000000
00000100
00000000
00100000
00001000
00100000
00000000
00000100
00000000
00000000
01000000
,
00001000
00000000
01000000
00000000
00010000
00000000
01000000
00000000
00001000
01000000
00010000
00000000
00001000
00000000
00000000
00100000
,
00000100
00100000
00001000
00100000
00000000
00000000
00000000
00000000
;

//--------------- dance-double - PWG ----------------
#NOTES:
     dance-double:
     PWG:
     Challenge:
     11:
     0,0,0,0,0:
00000000
00000000
00000000
00000000
,
00000000
00000000
00000000
00000000
,
00000000
00000000
00000000
00000000
,
00000000
00000000
00000000
00000000
,
00010000
00000000
00000000
00000000
10000000
00000000
00000000
00000000
00100000
00000000
01000000
00010000
01000000
00000000
00100000
00000000
,
10000000
00000000
00010000
00000000
10000000
00000000
00100000
00000000
10000000
00000000
01000000
10000000
00100000
00000000
10000000
00000000
,
00010000
10000000
00100000
00000000
01000000
00000000
00010000
00000000
01000000
00000000
00100000
01000000
00010000
00000000
10000000
00000000
,
00100000
10000000
01000000
00000000
10000000
00000000
00100000
00000000
10000000
00000000
10000000
00000000
00100000
00000000
10000000
00000000
,
00010000
00000000
00000000
00010000
01000000
00000000
00100000
00000000
00010000
00000000
00000000
00000000
01000000
00000000
00010000
00000000
,
10000000
00000000
00100000
10000000
01000000
00000000
10000000
00100000
,
01000000
00000000
00010000
00000000
00100000
00000000
01000000
00000000
00010000
10000000
00100000
10000000
01000000
00000000
10000000
00100000
,
10000000
00000000
00010000
00000000
01000000
00000000
00100000
00000000
01000000
00000000
00010000
10000000
00100000
00000000
10000000
01000000
,
10000000
00000000
00000000
00000000
10010000
00000000
01000000
00000000
00100000
00000000
01000000
00010000
01000000
00000000
00100000
00000000
,
10000000
00000000
01000000
00000000
10000000
00000000
00100000
00000000
10000000
00000000
01000000
10000000
00100000
00000000
10000000
00000000
,
00010000
01000000
00100000
00000000
01000000
00010000
00000000
00000000
01000000
00000000
00100000
10000000
00010000
00000000
10000000
00000000
,
00100000
00000000
01000000
00010000
01000000
00000000
00100000
00000000
10000000
00000000
00010000
00000000
10000000
00000000
00100000
00000000
,
01000000
00000000
00000000
00000000
00000000
00000000
00000000
00000000
00000010
00000000
00001000
00000001
00001000
00000000
00000010
00000000
,
00000100
00000000
00000001
00000000
00001000
00000000
00000100
00000010
00001000
00000000
00000001
00000000
00001000
00000000
00000100
00001000
,
00000100
00000000
00000010
00001000
00000001
00000000
00000100
00000000
00000010
00000000
00000100
00000001
00000100
00000000
00000010
00000000
,
00001000
00000000
00000001
00000000
00001000
00000000
00000010
00000000
00010000
00001000
00010000
00001000
00010000
00001000
00010000
00001000
,
00010000
00000000
00000000
00001000
00010000
00000000
00001000
00000000
00100000
00000000
00000100
00100000
00001000
00000000
00100000
00000000
,
00001000
01000000
00010000
01000000
00010000
00000000
01000000
00000000
00100000
00000000
00000000
00000010
00100000
00000000
00000000
00000000
,
00000100
00000000
00010000
00000000
00001000
00000000
00010000
00000000
00000100
00000000
00010000
00001000
00100000
00001000
00010000
00000000
,
00100000
00010000
01000000
00001000
01000000
00000000
00010000
00000000
01000000
00000000
00100000
01000000
00010000
00000000
01000000
00000000
,
00010000
00001000
00100000
01000000
00001000
00000000
00100000
00000000
00000100
00000000
00010000
00001000
00010000
00000000
00000100
00000000
,
00001000
00000010
00001000
00000100
00001000
00000000
00000010
00000000
00000100
00000000
00000001
00000000
00000110
00000000
00000100
00000000
,
00001001
00000000
00000010
00001000
00000010
00000000
00001000
00000000
00000100
00000000
00001000
00000010
00001000
00000000
00000100
00000000
,
00000000
00000010
00010000
00000100
00010000
00000000
00001000
00000000
00100000
00000000
00000100
00100000
00001000
00000000
00100000
00000000
,
00001000
00000100
00000010
01000000
,
00000000
00000000
00000010
01000000
,
00000000
00000000
00000001
00000001
,
00000010
00000010
10000000
01000000
,
00000000
00000000
10000000
01000000
,
00000000
00000000
00000100
00010000
,
00000000
00000000
00000000
00000000
00001000
00010000
00001000
00010000
,
00001000
00000000
00001000
00000000
00100000
00000100
00100000
00000010
,
01000000
00000000
00000010
00000000
01000000
00000000
00100000
00000000
00000100
00000000
00100000
00000000
00000010
00000000
00100000
00000100
,
01000000
00000000
00000010
00000000
01000000
00000000
00000000
00000000
00001000
00000000
00010000
00000000
00000100
00000000
00010000
00001000
,
00100000
00000000
00000100
00000000
00100000
00000000
00000000
00000000
00000001
00000000
10000000
00000000
00000010
00000000
01000000
00000010
,
01000000
00000000
00000100
00000000
00100000
00000000
00000000
00000000
00001000
00000000
00010000
00001000
00010000
00000000
00000100
00000000
,
00100000
00000000
00010000
00000000
01000000
00000000
00000000
00000000
00100000
01000000
00010000
01000000
00100000
01000000
00010000
01000000
,
00010000
00000000
01000000
00000000
00010000
00000000
00100000
00000000
00001000
00010000
00000100
00010000
00001000
00010100
00001000
00000010
,
00001000
00000100
00001000
00100000
00011000
00000000
00010000
00000000
,
00010000
00100000
00001000
00100000
00010000
00000000
01000000
00000000
,
00000100
00100000
00001000
00010000
00000100
00000000
00100000
00000000
,
00001000
00100000
00000100
00100000
00001000
00000000
00100000
00010000
,
01000000
00001000
01000000
00010000
01000000
00000000
10000000
00000000
00100000
10000000
00010000
10000000
00100000
00000000
10000000
00000000
,
00010000
01000000
00100000
01000000
00010000
00000000
01000000
00000000
00110000
00000000
10000000
00010000
10000000
00000000
00100000
00000000
,
10000000
00010000
10000000
00100000
01000000
00000000
00010000
00000000
01000000
00000000
00100000
01000000
00010000
00000000
01000000
00000000
,
00100000
10000000
00010000
10000000
00100000
00000000
10000000
00000000
00010000
00000000
01000000
00100000
01000000
00000000
00010000
01000000
,
00100000
01000000
00010000
00000000
01000000
00000000
00000000
00000000
00001000
00000000
00000100
00001000
00000010
00000000
00000100
00000000
,
00000001
00000100
00000010
00000100
00000000
00000000
00000100
00000000
00000010
00000000
00001000
00000001
00001000
00000000
00000010
00000000
,
00000100
00000001
00000100
00000010
00000100
00000000
00000001
00000000
00001000
00000100
00010000
00000000
00000010
00000000
00010000
00000000
,
00000100
00000000
00010000
00000000
00001000
00000000
00100000
00010000
00000100
00000000
00100000
00001000
00100000
00000000
00000100
00000000
,
00010000
00000010
00010000
00000000
00000100
00000000
00010000
00000000
00000100
00000000
00000000
00000100
00100000
00000000
00000000
00100000
,
00001000
00000000
00100000
00000000
00001000
00000000
00000000
00000000
00000100
00000000
00010000
00000000
00001000
00000000
00000000
00001000
,
00010000
00000000
00000000
00010000
00000100
00000000
00001000
00000000
00010000
00000000
00000000
00010000
00000100
00000000
00000000
00000100
,
00100000
00000000
00001000
00100000
00000100
00000000
00100000
00000000
00001000
00000000
00000000
00001000
00100000
00000000
00000000
00100000
,
00010000
00000000
01000000
00010000
01000000
00000000
00100000
00000000
00000000
00000000
01000000
00000000
01000000
00000000
00100000
00000000
,
01000000
00000000
00010000
00000000
10000000
00000000
00100000
00000000
10000000
00000000
00010000
01000000
00010000
00000000
01000000
00000000
,
00001000
00000000
00100000
00010000
00100000
00000000
00001000
00000000
00100000
00000100
00100000
00001000
00100000
00000000
00000100
00000000
,
00010000
00000000
00010100
00001000
00010000
00000000
00000100
00000000
00100000
00000000
00000010
00000000
01000000
00000000
00000010
00000000
,
00100000
00000010
00100000
00000010
00100000
00000000
00000010
00000000
00000000
00010000
00000100
00010000
00000100
00000000
00010000
00000000
,
00000010
00001000
00000010
00001000
00000001
00000000
00001000
00000000
00000010
00001000
00000001
00000100
00000010
00000000
00000100
00000000
,
00000001
00001000
00000010
00001000
00000001
00000000
00001000
00000000
00000010
00010000
00000100
00010000
00000010
00000000
00010000
00000000
,
00000100
00000010
00000100
00100000
00001000
00000100
01000000
00001000
,
00010000
00000000
01000000
00000000
00001000
00000000
00001100
00000000
00100000
00000000
00000100
00010000
00001000
00000000
00001000
00010000
,
00000000
00000000
00000100
00000000
00010000
00001000
00010000
00000000
01000100
00000000
00100000
00001000
00000000
00000000
00100000
00000000
,
00010000
00000000
00100000
00001000
00100000
00000000
00000100
00000000
00010000
00000000
00001000
00000000
00000100
00000000
00010000
00000000
,
00001000
00000000
00100000
00010000
00100000
00000000
00001000
00000000
01000000
00010000
01000000
00100000
01000000
00100000
00010000
10000000
,
00100000
00000000
10000000
00010000
01000000
00000000
00100000
00000000
,
00000000
00000000
00010000
00001000
,
00000000
00000000
00000000
00000000
00000100
00000100
00000100
00000000
,
00000010
00000010
00000010
00000010
00000001
00000000
00000001
00000000
,
00000000
00000000
00000001
00000010
00000100
00000000
00001000
00000000
,
00000000
00000000
00000000
00000000
00010000
00100000
01000000
10000000
,
00000000
00000000
00000000
00000000
10000000
01000000
00100000
00010000
,
00001000
00000100
00000010
00000000
00000001
00000010
00000100
00001000
,
00010000
00100000
01000000
00000000
00100000
01000000
00100000
00001000
,
00000000
00000000
00000000
00000000
00000100
00010000
00001000
00010000
,
00000100
00000000
00100000
00001000
00100000
00000000
00000000
00000000
00000100
00000000
00010000
00000000
00001000
00000000
00001000
00000000
,
00100000
00000000
00000000
00000000
00001000
00000000
00100000
00000000
00000100
00000000
00100000
00001000
00010000
00000000
00000100
00000000
,
00000010
00000000
00001000
00000000
00000100
00001000
00000010
00000000
00001000
00000000
00000010
00000000
01000000
00000000
00000010
00000000
,
01000000
00000100
00000001
00100000
00000100
00100000
00000010
00000100
,
00100000
00000000
00000010
00000000
00001000
00000000
00000100
00000000
00010000
00000000
00001000
00010000
00000100
00000000
00010000
00000000
,
00001100
00000000
00100000
00000000
00001100
00000000
00100000
00000000
00001000
00000000
00100000
00000100
01000000
00000000
00001000
00000000
,
01000000
00100000
01000000
00001000
01000000
00000000
00001000
00000000
00100000
00000000
00000100
00010000
00001000
00000000
00010000
00000100
,
00010000
00000000
00001000
00010000
00000100
00000000
00001000
00010000
00001000
00000000
00000100
00010000
00000010
00000000
00001000
00000100
,
00001000
00000000
00000010
00001000
00000100
00000000
00010000
00000100
00010000
00000000
00001000
00100000
00000100
00000000
00100000
00001000
,
00100000
00010000
01000000
00001000
01000000
00100000
00010000
01000000
,
00001000
00100000
00001000
00000000
00100000
00000000
00000100
00000000
00010000
00000000
00000000
00010000
00000010
00000000
00010000
00000000
,
00000100
00000000
00001000
00000010
00001000
00000000
00000100
00000000
00010000
00000000
00000000
00010000
00001000
00000000
00100000
00000000
,
00001000
00000000
00100000
00010000
00100000
00000000
00001000
00000000
01000000
00000000
00010000
00000000
01000000
00000000
00000000
00100000
,
10000000
00000000
00010000
10000000
00100000
00000000
10000000
00000000
00010000
00000000
01000000
00000000
00001000
00000000
00100000
00000000
,
00010000
00000000
00001000
00000000
00100000
00001000
00010000
00000100
,
00001000
00000010
00001000
00000000
00000100
00010000
00001000
00100000
,
00010000
00000000
01000000
00000000
00001000
00000000
00000000
00000000
00010000
01000000
00001000
00000000
00100000
00000000
00000100
00000000
,
00010000
00000000
00000100
00010000
00001000
00000000
00010000
00000100
,
00001000
00010010
00001000
00000000
00000000
00000000
00000000
00000000
;
