#TITLE:Memories (feat. Kid Cudi);
#SUBTITLE:;
#ARTIST:David Guetta;
#TITLETRANSLIT:;
#SUBTITLETRANSLIT:;
#ARTISTTRANSLIT:;
#GENRE:;
#CREDIT:;
#BANNER:Memories.png;
#BACKGROUND:Memories-bg.png;
#LYRICSPATH:;
#CDTITLE:cdtitle.png;
#MUSIC:Memories.ogg;
#OFFSET:-0.011995;
#SAMPLESTART:44.319683;
#SAMPLELENGTH:14.538464;
#SELECTABLE:YES;
#BPMS:0.000000=130.000000
;
#STOPS:
;
#BGCHANGES:;
#KEYSOUNDS:;
#ATTACKS:;

//---------------dance-single - ----------------
#NOTES:
     dance-single:
     :
     Hard:
     9:
     0.555492,0.533453,0.312265,0.000000,0.000000,523.000000,481.000000,42.000000,0.000000,0.000000,0.000000,0.555492,0.533453,0.312265,0.000000,0.000000,523.000000,481.000000,42.000000,0.000000,0.000000,0.000000:
// measure 0
0000
0000
0000
0000
,  // measure 1
0000
0000
0000
0000
,  // measure 2
1000
0001
0100
0001
1000
0001
0100
0001
,  // measure 3
0010
0001
1000
0001
0010
0001
1000
0001
,  // measure 4
0100
0010
1000
0010
0100
0010
1000
0010
,  // measure 5
0001
0010
0100
0010
0001
0010
0100
0010
,  // measure 6
1000
0001
0000
0001
0100
1000
0000
1000
,  // measure 7
0100
0001
0000
0001
0010
1000
0000
1000
,  // measure 8
0010
0001
1000
0100
0010
0010
0100
1000
,  // measure 9
0010
0100
0001
0110
,  // measure 10
0001
0100
1000
0100
0010
0100
0001
0000
,  // measure 11
1000
1000
0100
0000
0010
0000
1001
0000
,  // measure 12
1000
0010
0100
0001
0010
0010
0001
1000
,  // measure 13
0100
0000
0100
1000
0001
0000
0101
0000
,  // measure 14
1000
0001
0010
0001
0100
0001
1000
0000
,  // measure 15
1000
0001
0010
0100
1000
0000
1010
0000
,  // measure 16
0000
0000
0001
0100
0010
0010
0100
0001
,  // measure 17
0010
0001
1000
0000
,  // measure 18
0000
0000
1000
0100
0010
0100
1000
0000
,  // measure 19
0001
0001
0100
0000
0000
0000
0000
0000
,  // measure 20
0000
0000
0010
1000
0010
0010
1000
0001
,  // measure 21
0100
0000
0100
0001
1000
0000
0000
0000
,  // measure 22
0000
0000
0010
1000
0100
1000
0001
0000
,  // measure 23
0001
1000
0010
0100
0001
0000
0010
0000
,  // measure 24
1001
0100
0010
0001
0010
0100
1000
0001
,  // measure 25
1000
1000
0100
0100
0001
0001
0100
0100
,  // measure 26
1001
0100
0010
0001
0010
0100
1000
0001
,  // measure 27
1000
1000
0010
0010
0001
0001
0010
0010
,  // measure 28
1010
0100
0001
0010
1000
0010
0001
1000
,  // measure 29
0100
0010
0100
1000
0001
0010
0100
0010
,  // measure 30
0011
0100
1000
0010
0001
0010
1000
0001
,  // measure 31
0010
0100
0010
0001
1000
0100
0010
0100
,  // measure 32
1001
0100
0010
0001
1000
0010
0100
0001
,  // measure 33
1000
0100
0010
0001
1000
0100
0010
0001
,  // measure 34
1001
1000
0010
0100
0001
1000
0100
0010
,  // measure 35
0001
0100
0010
1000
0001
0100
0010
1000
,  // measure 36
1100
0100
0010
0100
1000
0010
0100
0001
,  // measure 37
0010
0001
0100
0001
1000
0001
0010
0001
,  // measure 38
0101
0100
0010
0100
0001
0010
0100
1000
,  // measure 39
0010
0010
0100
0100
0001
0000
1000
0001
,  // measure 40
0100
0001
0000
0110
0000
1100
0000
0110
,  // measure 41
0000
0101
0000
1001
0000
0000
0000
1000
,  // measure 42
0100
1000
0000
0110
0000
0101
0000
0110
,  // measure 43
0000
1100
0000
1001
0000
0000
0000
1000
,  // measure 44
0010
1000
0000
1100
0000
0101
0000
0011
,  // measure 45
0000
1010
0000
1001
0000
0000
0000
0001
,  // measure 46
0010
0001
0000
0101
0000
1100
0000
1010
,  // measure 47
0000
0011
0000
1001
0000
0000
0000
1000
,  // measure 48
0010
0100
0001
0010
0100
1000
0010
0100
,  // measure 49
0001
0001
0001
0001
1000
1000
1000
1000
,  // measure 50
0001
0100
0010
1000
0100
0010
0001
0100
,  // measure 51
0010
0010
0010
0010
1000
1000
1000
1000
,  // measure 52
0001
0100
1000
0100
0001
0100
1000
0100
,  // measure 53
0001
0001
0001
0001
0010
0010
0010
0010
,  // measure 54
1000
0010
0001
0010
1000
0010
0001
0010
,  // measure 55
0100
0100
0100
0100
1000
1000
1000
1000
,  // measure 56
1001
0010
0100
0001
0100
0010
1000
0001
,  // measure 57
1000
1000
0010
0010
0001
0001
0010
0010
,  // measure 58
1001
0010
0100
0001
0100
0010
1000
0001
,  // measure 59
1000
1000
0100
0100
0001
0001
0100
0100
,  // measure 60
1100
0010
0001
0100
1000
0100
0001
1000
,  // measure 61
0010
0100
0010
1000
0001
0100
0010
0100
,  // measure 62
0101
0010
1000
0100
0001
0100
1000
0001
,  // measure 63
0100
0010
0100
0001
1000
0010
0100
0010
,  // measure 64
1001
0010
0100
0001
1000
0100
0010
0001
,  // measure 65
1000
0010
0100
0001
1000
0010
0100
0001
,  // measure 66
1001
1000
0100
0010
0001
1000
0010
0100
,  // measure 67
0001
0010
0100
1000
0001
0010
0100
1000
,  // measure 68
1010
0010
0100
0010
1000
0100
0010
0001
,  // measure 69
0100
0001
0010
0001
1000
0001
0100
0001
,  // measure 70
0011
0010
0100
0010
0001
0100
0010
1000
,  // measure 71
1100
0100
0110
0010
0001
0000
0100
0000
;

//---------------dance-single - ----------------
#NOTES:
     dance-single:
     :
     Medium:
     7:
     0.392987,0.373417,0.267656,0.000000,0.000000,370.000000,334.000000,36.000000,0.000000,0.000000,0.000000,0.392987,0.373417,0.267656,0.000000,0.000000,370.000000,334.000000,36.000000,0.000000,0.000000,0.000000:
0000
0000
0000
0000
,
0000
0000
0000
0000
,
1000
1100
0001
0101
,
1000
1100
0001
0101
,
1000
1010
0001
0011
,
1000
1010
0001
0011
,
1000
0001
0000
0001
1000
0001
0000
0001
,
1000
0001
0000
0001
1000
0001
0000
0001
,
1000
0000
0001
0000
0100
0000
0010
1000
,
0010
0100
0001
1001
,
0100
0000
0010
0000
0001
1000
0001
0000
,
0010
0100
0010
0000
0100
0000
1000
0000
,
1001
0000
0001
1000
0010
0000
0010
0100
,
0001
0000
0001
0100
0010
0000
1000
0000
,
1100
0000
0100
0010
0001
0010
0100
0000
,
1000
0001
0100
0110
,
0000
0000
1000
0000
0000
0000
0001
0100
,
0001
1000
0000
0001
,
0000
1000
0000
0001
,
1000
0100
1000
0000
0000
0000
0001
0000
,
0000
0010
0000
0100
,
0000
0000
0010
0001
0100
0000
0001
0000
,
0000
0100
0000
0010
,
1000
0001
1000
0001
1000
0000
0100
0000
,
1001
1000
0100
0010
,
0001
0100
0001
0100
0001
0000
1000
0000
,
1001
0001
0100
0010
,
1000
0100
1000
0100
1000
0000
0001
0000
,
0110
1000
0001
0010
,
0100
1000
0100
1000
0100
0000
0010
0000
,
0110
0001
1000
0010
,
0100
0001
0100
0001
0100
0000
0010
0000
,
1001
1000
1100
0100
,
0010
0001
0010
0100
0010
0000
0001
0000
,
1001
0001
0101
0100
,
0010
1000
0010
0100
0010
0000
1000
0000
,
1100
0010
0101
0010
,
1000
0010
0100
0001
0010
0000
0100
0000
,
0011
0100
1010
0100
,
0001
0010
0100
1000
0010
0000
0100
0001
,
1000
0001
0000
0001
0000
1000
0000
1000
,
0000
0010
0000
0100
0000
0000
0000
0001
,
1000
0001
0000
0001
0000
1000
0000
1000
,
0000
0010
0000
0100
0000
0000
0000
0001
,
1000
0001
0000
0001
0000
1000
0000
1000
,
0000
0010
0000
0100
0000
0000
0000
0001
,
1000
0001
0000
0001
0000
1000
0000
1000
,
0000
0010
0000
0100
0000
0000
0000
0000
,
0001
0100
1000
0100
,
0001
1000
0001
1000
0001
0100
0001
0100
,
0001
0010
1000
0010
,
0001
1000
0001
1000
0001
0010
0001
0010
,
0001
0100
0001
0010
,
0100
1000
0100
1000
0100
0010
0100
0010
,
0100
1000
0010
1000
,
0100
0010
0100
0010
0100
1000
0100
1000
,
1001
0001
0010
0100
,
1000
0010
1000
0010
1000
0000
0001
0000
,
1001
1000
0010
0100
,
0001
0010
0001
0010
0001
0000
1000
0000
,
0110
0001
1000
0100
,
0010
0001
0010
0001
0010
0000
0100
0000
,
0110
1000
0001
0100
,
0010
1000
0010
1000
0010
0000
0100
0000
,
1001
0001
0011
0010
,
0100
1000
0100
0010
0100
0000
1000
0000
,
1001
1000
1010
0010
,
0100
0001
0100
0010
0100
0000
0001
0000
,
0011
0100
1010
0100
,
0001
0100
0010
1000
0100
0000
0010
0000
,
1100
0010
0101
0010
,
1000
0100
0010
0001
0010
0000
0100
0000
;

//---------------dance-single - ----------------
#NOTES:
     dance-single:
     :
     Easy:
     5:
     0.311203,0.373417,0.237916,0.000000,0.000000,293.000000,261.000000,32.000000,0.000000,0.000000,0.000000,0.311203,0.373417,0.237916,0.000000,0.000000,293.000000,261.000000,32.000000,0.000000,0.000000,0.000000:
0000
0000
0000
0000
,
0000
0000
0000
0000
,
1000
1000
0001
0001
,
1000
1000
0001
0001
,
0100
0100
0010
0010
,
0100
0100
0010
0010
,
0000
1000
0000
0001
,
0000
1000
0000
0001
,
1000
0100
0010
0001
,
0100
0010
1000
0001
,
1000
0010
0100
0001
,
0010
0100
1000
0001
,
1000
0100
0001
0100
,
1000
0100
0001
0100
,
1000
0010
0001
0010
,
1000
0010
0001
0010
,
1000
0001
0000
0001
,
0000
1000
0000
1000
,
0000
0010
0000
0010
,
0000
0100
0000
0100
,
0000
0001
0000
0010
,
0000
0100
0000
1000
,
0000
0010
0000
0100
,
0000
0001
0000
1000
,
1001
1000
0100
0010
,
0001
0001
1000
1000
,
1001
0001
0100
0010
,
1000
1000
0001
0001
,
1001
1000
0010
0100
,
0001
0001
1000
1000
,
1001
0001
0010
0100
,
1000
1000
0001
0001
,
0101
0100
0001
0010
,
0001
0001
0100
0100
,
0110
0010
1000
0100
,
1000
1000
0010
0010
,
1010
1000
0100
1000
,
0010
0010
0100
0100
,
0110
0010
1000
0001
,
0010
0010
0100
0100
,
1000
1001
0001
1001
,
1000
1001
0001
1001
,
0010
0110
0100
0110
,
0010
0110
0100
0110
,
0010
1001
0100
1001
,
0010
1001
0100
1001
,
0010
0101
0010
1100
,
0010
0101
0010
1100
,
0001
0010
0100
1000
,
0001
0001
1000
1000
,
0001
0100
0010
1000
,
0001
0001
1000
1000
,
0001
0100
1000
0100
,
0001
0001
1000
1000
,
0001
0010
1000
0010
,
0001
0001
1000
1000
,
1001
1000
0100
0010
,
0001
0001
1000
1000
,
1001
0001
0100
0010
,
1000
1000
0001
0001
,
1001
1000
0010
0100
,
0001
0001
1000
1000
,
1001
0001
0010
0100
,
1000
1000
0001
0001
,
0101
0100
0001
0010
,
0001
0001
0100
0100
,
0110
0010
1000
0100
,
1000
1000
0010
0010
,
1010
1000
0100
1000
,
0010
0010
0100
0100
,
0110
0010
1000
0001
,
0010
0010
0100
0100
;
