#TITLE:METAL GEAR SOLID ~Main Theme~;
#SUBTITLE:;
#ARTIST:ESPACIO BROTHERS;
#TITLETRANSLIT:;
#SUBTITLETRANSLIT:;
#ARTISTTRANSLIT:;
#GENRE:BIGBEAT MIX;
#CREDIT:Graphics made by TonyAkita;
#MUSIC:[Flashback to 1999] - METAL GEAR SOLID ~Main Theme~.ogg;
#BANNER:[Flashback to 1999] - METAL GEAR SOLID ~Main Theme~.png;
#BACKGROUND:[Flashback to 1999] - METAL GEAR SOLID ~Main Theme~-bg.png;
#CDTITLE:;
#SAMPLESTART:37.602;
#SAMPLELENGTH:13.875;
#SELECTABLE:YES;
#OFFSET:-0.370;
#BPMS:0.000=140.000;
#STOPS:;
#JACKET:[Flashback to 1999] - METAL GEAR SOLID ~Main Theme~-jacket.png;
#BGCHANGES:;
#FGCHANGES:;

//--------------- dance-single - forcednature ----------------
#NOTES:
     dance-single:
     forcednature:
     Easy:
     4:
     0,0,0,0,0:
0000
0000
0000
0000
,
0000
0000
0000
0000
,
0000
0000
0000
0000
,
0000
0000
0000
0000
,
0000
0000
0000
0000
,
1000
1000
1000
0010
,
0100
0100
1001
0000
,
0001
0001
0001
0010
,
1001
0000
0000
0000
,
0100
0001
0100
0000
,
0100
1000
0100
0000
,
0100
0001
0100
0000
,
1001
1001
1001
0000
,
1000
0010
1000
0001
,
0010
0001
1000
0001
,
0100
1000
0100
0001
,
0010
1000
0010
0001
,
0100
0010
0001
1000
,
0100
0010
0001
1000
,
0010
0001
0100
1000
,
0010
0001
0100
1000
,
1001
0000
0000
0000
,
1001
0100
0001
0010
,
1001
0100
1000
0010
,
0110
1000
0100
0001
,
0110
0001
0100
1000
,
0110
1000
0010
0001
,
0110
0001
0100
1000
,
0110
1000
0010
0001
,
0110
0001
0100
1000
,
0110
1000
0010
0001
,
0110
0000
0110
0000
,
1000
1000
1000
0000
,
0110
0000
0110
0000
,
0001
0001
0001
0000
,
1001
0010
1000
0001
,
1001
0010
0001
1000
,
1001
0100
1000
0001
,
1001
0000
0000
0000
,
0110
0001
0100
1000
,
0110
0001
0100
1000
,
0110
1000
0100
0001
,
0110
0000
0000
0000
,
0010
1000
0010
0001
,
1001
0010
0100
0000
,
0100
0001
0100
1000
,
1001
0100
0010
0000
,
1000
0001
1000
0001
,
0110
1000
0001
0000
,
0001
1000
0001
1000
,
0110
0000
0000
0000
,
1001
0010
0100
0000
,
1100
0010
0001
0000
,
0101
0010
1000
0000
,
0110
1000
0000
0000
;

//--------------- dance-single - forcednature ----------------
#NOTES:
     dance-single:
     forcednature:
     Medium:
     6:
     0,0,0,0,0:
0000
0000
0000
0000
,
0000
0000
0000
0000
,
0000
0000
0000
0000
,
0000
0000
0000
0000
,
0000
0000
0000
0000
,
1001
0010
0100
0010
,
1001
0010
0100
0010
,
1001
0010
0100
0010
,
1001
0000
0000
0000
,
1000
1000
0100
0000
0001
0100
1000
0000
,
1000
1000
0100
0000
0001
0100
1000
0000
,
0001
0001
0100
0000
1000
0100
0001
0000
,
0001
0001
0100
0000
1000
0100
0001
0000
,
1001
0000
0001
0010
1000
0010
0100
0000
,
1001
0000
0001
0010
1000
0010
0100
0000
,
1001
0000
1000
0010
0001
0010
0100
0000
,
1001
0000
1000
0010
0001
0010
0100
0000
,
1001
0000
0001
0100
0010
0100
1000
0000
,
1001
0000
0001
0100
0010
0100
1000
0000
,
1001
0000
1000
0100
0010
0100
0001
0000
,
1001
0000
1000
0100
0010
0100
0001
0000
,
0000
0010
0000
0000
0000
0010
0000
0000
0000
0010
0000
0000
0000
0000
0000
0000
,
1001
0000
1000
0010
0001
0100
1000
0000
,
1001
0000
1000
0010
0001
0100
1000
0000
,
1001
0000
0001
0010
1000
0100
0001
0000
,
1001
0000
0001
0010
1000
0100
0001
0000
,
1001
0000
0010
0001
0100
1000
0010
0000
,
1001
0000
0010
0001
0100
1000
0010
0000
,
1001
0000
0100
0001
0010
1000
0100
0000
,
1001
0000
0100
0001
0010
1000
0100
0000
,
1001
0000
0100
0001
0010
1000
0100
0000
,
1001
0110
1001
0010
,
1100
0011
1100
0010
,
0101
1010
0101
0010
,
1001
0110
1001
0000
,
1000
1000
0100
0000
0001
0100
0001
0000
,
1000
1000
0100
0000
0001
0100
0001
0000
,
1000
1000
0100
0000
0001
0100
0001
0000
,
1001
0000
0000
0000
,
0001
0001
0100
0000
1000
0100
1000
0000
,
0001
0001
0100
0000
1000
0100
1000
0000
,
0001
0001
0100
0000
1000
0100
1000
0000
,
1001
0000
0000
0000
,
0010
0010
0010
0001
0010
0010
1000
0000
,
0010
0010
0010
0001
0010
0010
1000
0000
,
0100
0100
0100
0001
0100
0100
1000
0000
,
1001
0000
0000
0000
,
0010
1000
0100
0010
0001
0000
0000
1000
,
0010
1000
0100
0010
0001
0000
0000
0000
,
1000
0000
0010
1000
0100
0010
0001
0000
,
1001
0110
0000
0000
,
1001
0000
0001
0100
1000
0100
0001
0000
,
1001
0000
1000
0100
0001
0100
1000
0000
,
1001
0000
0001
0100
1000
0100
0001
0000
,
1001
0010
0000
0000
;

//--------------- dance-single - forcednature ----------------
#NOTES:
     dance-single:
     forcednature:
     Hard:
     8:
     0,0,0,0,0:
0000
0000
0000
0000
,
0000
0000
0000
0000
,
0000
0000
0000
0000
,
0000
0000
0000
0000
,
0000
0000
0000
0000
,
1000
0010
1000
0100
0010
0001
0100
0000
,
0101
0001
1100
1000
,
0001
0010
0100
1000
0001
0100
0010
0000
,
0100
0000
0100
0000
0100
0000
0000
0010
0000
0000
1000
0000
0001
0000
0000
0000
,
1001
0000
0000
0001
0000
0000
0010
0000
0100
0000
1000
0000
0001
0000
0000
0000
,
1001
0000
0000
1000
0000
0000
0010
0000
0100
0000
0001
0000
0010
0000
0000
0000
,
0110
0000
0000
0100
0000
0000
1000
0000
0100
0000
0010
0000
0001
0000
0000
0000
,
1001
0000
0000
1001
0000
0000
1001
0000
0000
0000
0000
0000
0001
0000
0100
0000
,
0101
0000
0010
1000
0100
0010
0001
1000
,
1100
0000
1000
0001
0100
0010
1000
0001
,
0101
0000
0001
0010
0100
1000
0010
0100
,
0110
0000
0010
1000
0001
0010
0100
1000
,
1001
0000
1000
0001
0100
0001
0010
0100
,
1100
0000
1000
0001
0010
0001
0100
0001
,
0101
0000
0001
1000
0010
1000
0100
0010
,
0011
0000
0001
1000
0100
0010
0001
1000
,
0000
1001
0000
0000
0000
0110
0000
0000
0000
1001
0000
0000
0100
0000
1000
0000
,
1001
0000
1000
0100
0010
0001
0100
0010
,
1001
0000
0001
0010
0100
1000
0010
0100
,
0110
0000
0100
0001
1000
0100
0010
0001
,
0110
0000
0001
1000
0010
1000
0100
0010
,
1001
0000
0001
0100
1000
0100
0010
1000
,
1001
0000
1000
0100
0010
0001
0100
1000
,
1001
0000
0001
0100
0010
0001
1000
0100
,
1001
0000
0001
1000
0100
0010
0001
0100
,
1001
0000
1000
0001
0100
0010
1000
0100
,
1001
0000
0001
0100
1000
0100
0010
0000
,
0100
0000
0100
0100
0000
0010
1000
0000
,
1001
0000
0000
0000
1000
0001
0000
0000
1000
0000
0000
1000
0000
0000
1000
0000
,
1001
0000
0001
0100
0001
0010
0100
0000
,
1000
0000
0000
0001
0000
0000
1000
0000
0010
0000
0100
0000
0001
0000
0000
0000
,
1000
0000
0000
0001
0000
0000
1000
0000
0100
0000
0010
0000
0001
0000
0000
0000
,
0001
0000
0000
1000
0000
0000
0001
0000
0010
0000
0100
0000
1000
0000
0000
0000
,
1001
0100
0010
0100
,
1001
0000
0000
0001
0000
0000
0100
0000
0010
0000
1000
0000
0100
0000
0000
0000
,
1001
0000
0000
0100
0000
0000
1000
0000
0010
0000
0100
0000
0001
0000
0000
0000
,
1001
0000
0000
0010
0000
0000
1000
0000
0001
0000
0100
0000
0010
0000
0000
0000
,
0110
0000
0000
0000
,
1000
0001
1000
0100
0001
0100
1000
0000
,
0001
0100
1000
0100
0010
1000
0100
0000
,
0010
0001
0010
1000
0010
0001
1000
0000
,
1001
0100
0100
0000
,
0001
0100
1000
0100
0001
0000
1000
0000
,
0001
0100
1000
0100
0001
0000
1000
0000
,
0001
0000
0001
0100
1000
0100
0001
0000
,
1001
0100
0000
0000
,
1001
0000
0000
0001
0000
0000
0100
0000
0001
0000
0010
0000
0100
0000
0000
0000
,
1001
0000
0000
0100
0000
0000
1000
0000
0010
0000
1000
0000
0100
0000
0000
0000
,
1001
0000
0000
0010
0000
0000
0001
0000
0100
0000
0010
0000
1000
0000
0000
0000
,
1001
0010
0000
0000
;

//--------------- dance-double - forcednature ----------------
#NOTES:
     dance-double:
     forcednature:
     Easy:
     6:
     0,0,0,0,0:
00000000
00000000
00000000
00000000
,
00000000
00000000
00000000
00000000
,
00000000
00000000
00000000
00000000
,
00000000
00000000
00000000
00000000
,
00000000
00000000
00000000
00000000
,
00010000
01000000
10000000
00010000
,
00001000
00000001
00000100
00001000
,
00000010
00000001
00001000
00010000
,
10010000
00000000
00000000
00000000
,
10000000
00010000
00001000
00000001
,
00000100
00000010
00010000
01000000
,
10000000
00100000
00001000
00000100
,
00001001
00000000
00000000
00000000
,
00000001
00001000
00010000
10000000
,
00100000
01000000
00010000
00000100
,
00000010
00000001
00001000
00000010
,
00010000
01000000
00010000
00001000
,
10000000
00100000
01000000
00010000
,
10000000
01000000
00001000
00000100
,
00000001
00000010
00010000
00100000
,
10000000
01000000
00001000
00000100
,
00011000
00000000
00000000
00000000
,
00000110
00000100
00000001
00010000
,
01100000
00100000
10000000
00010000
,
00001001
00000100
00000010
00000001
,
10010000
00001000
01000000
00100000
,
10010000
00010000
00001000
00000010
,
00001001
00000100
00001000
00010000
,
01100000
10000000
00010000
00001000
,
00000110
00000001
00001000
00010000
,
01100000
10000000
00010000
00001000
,
00000010
00000010
00000010
00000000
,
00000100
00000100
00001001
00000000
,
00100000
00100000
00100000
00000000
,
01000000
01000000
10010000
00000000
,
10000000
00100000
10000000
00001000
,
00000100
00000001
00000010
00000100
,
00000001
00010000
00100000
00001000
,
01100000
00000000
00000000
00000000
,
00001000
00010000
00000001
00000010
,
00001000
01000000
00010000
10000000
,
00010000
00000010
00000100
00000001
,
00001001
00000000
00000000
00000000
,
00000001
00000000
00000100
00000000
00001000
00001000
00001000
00000000
,
00010000
00100000
10000000
00000000
,
10000000
00000000
01000000
00000000
00010000
00010000
00010000
00000000
,
00001000
00000010
00000001
00000000
,
00001001
00000010
00010000
00000000
,
10010000
01000000
00001000
00000000
,
00001001
00000100
00010000
00000000
,
10010000
00100000
00000000
00000000
,
10000000
01000000
00001000
00000010
,
00000001
00000100
00010000
00100000
,
10000000
01000000
00010000
00000010
,
00001001
00000100
00000000
00000000
;

//--------------- dance-double - forcednature ----------------
#NOTES:
     dance-double:
     forcednature:
     Medium:
     8:
     0,0,0,0,0:
00000000
00000000
00000000
00000000
,
00000000
00000000
00000000
00000000
,
00000000
00000000
00000000
00000000
,
00000000
00000000
00000000
00000000
,
00000000
00000000
00000000
00000000
,
00001000
00010000
00000100
00001000
00000001
00000100
00010000
00000000
,
00001000
00100000
10000000
01000000
00010000
00000000
10010000
00000000
,
10000000
00100000
00010000
00001000
00000010
00000001
00000100
00000000
,
00001001
00000000
00000001
00000000
00000001
00000000
00000000
00001000
00000000
00000000
00000010
00000000
00000010
00000000
00000000
00000000
,
00000100
00000000
00000000
00000001
00000000
00000000
00000010
00000000
00000100
00000000
00010000
00000000
01000000
00000000
00000000
00000000
,
00100000
00000000
00000000
00010000
00000000
00000000
10000000
00000000
00100000
00000000
00010000
00000000
00001000
00000000
00000000
00000000
,
01000000
00000000
00000000
00010000
00000000
00000000
00001000
00000000
00000100
00000000
00000001
00000000
00000010
00000000
00000000
00000000
,
00000100
00000000
00000000
00000110
00000000
00000000
00001001
00000000
00000000
00000000
00000000
00000000
00000010
00000000
00000010
00000000
,
00001010
00000000
00000100
00000001
00000010
00010000
01000000
00000000
,
10010000
10000000
10010000
00010000
,
01100000
00000000
10000000
01000000
00010000
00000100
00000001
00000000
,
00001001
00000100
00001001
00000010
,
00001001
00000000
00000001
00000100
00010000
01000000
10000000
00000000
,
10010000
00100000
10010000
01000000
,
10010000
00000000
10000000
01000000
00001000
00000100
00000001
00000000
,
00001001
00000010
00001001
00000100
,
00000010
00000100
00000000
00000000
00000010
00000100
00000000
00000000
00000010
00000100
00000000
00000000
00000001
00000000
00001000
00000000
,
00001001
00000000
00000001
00000100
00001000
00000100
00000010
00010000
,
01001000
00000000
00100000
00010000
10000000
01000000
00010000
00001000
,
00110000
00000000
01000000
00100000
00010000
00001000
00000100
00000010
,
00001001
00000000
00000001
00000100
00000001
00000010
00001000
00010000
,
01010000
00000000
00100000
00010000
10000000
00100000
00010000
00001000
,
00011000
00000000
00010000
00000100
00000010
00001000
00000010
00000001
,
00001001
00000000
00000001
00000100
00001000
00000100
00000010
00010000
,
00011000
00000000
00001000
01000000
00010000
01000000
10000000
01000000
,
10010000
00000000
10000000
01000000
00010000
00001000
00100000
00010000
,
00011000
00000000
00010000
00011000
00000000
00001000
00010000
00000000
,
00001010
00000000
00000001
00000010
00000000
00000100
00010000
00000000
,
00011000
00000000
00000000
00000000
01000000
01000000
00000000
00000000
00100000
00000000
00000000
10000000
00000000
00000000
00010000
00000000
,
10010000
00000000
10000000
01000000
00010000
00001000
00000010
00000000
,
00001001
00000000
00000000
00000001
00000000
00000000
00000100
00000000
00001000
00000000
00010000
00000000
00000000
00000000
01000000
00000000
,
10010000
00000000
00000000
01000000
00000000
00000000
00010000
00000000
00001000
00000000
00000100
00000000
00000000
00000000
00000001
00000000
,
00001001
00000000
00000000
00000001
00000000
00000000
00000100
00000000
00001000
00000000
00010000
00000000
00000000
00000000
01000000
00000000
,
10010000
00100000
10010000
01000000
,
10000000
00000000
00000000
10000000
01000000
00000000
00100000
00000000
00010000
00000000
01000000
00000000
00001000
00000000
00000000
00000000
,
00010000
00000000
00000000
00010000
00000010
00000000
00001000
00000000
00000001
00000000
00000100
00000000
00000010
00000000
00000000
00000000
,
00001000
00000000
00000000
00001000
00000100
00000000
00000010
00000000
00000001
00000000
00000100
00000000
00000010
00000000
00000000
00000000
,
00000110
00000000
00000000
00000000
,
00000001
00000010
00001000
00000010
00001000
00010000
01000000
00100000
,
00010000
00000010
00000100
00010000
00000010
00001000
00010000
00000000
,
01000000
00100000
00010000
00001000
01000000
00100000
10000000
01000000
,
00100000
00010000
01000000
00100000
00001000
00000000
00011000
00000000
,
10000000
01000000
00010000
00000100
00000001
00000000
00000000
00000000
,
00000001
00000100
00001000
01000000
10000000
00000000
00000000
00000000
,
10010000
00000000
10000000
00100000
00010000
00000010
00000001
00000001
,
00000101
00001001
00000000
00000000
,
00000001
00000000
00000000
00000100
00000000
00000000
00000001
00000000
00000010
00000000
00001100
00000000
00000000
00000000
00010000
00000000
,
01000000
00000000
00000000
00100000
00000000
00000000
10000000
00000000
01000000
00000000
10010000
00000000
00000000
00000000
10000000
00000000
,
00100000
00000000
00000000
00010000
00000000
00000000
00001000
00000000
00000100
00000000
00001001
00000000
00000000
00000000
00000001
00000000
,
00001010
01010000
00000000
00000000
;

//--------------- dance-couple - forcednature ----------------
#NOTES:
     dance-couple:
     forcednature:
     Easy:
     4:
     0,0,0,0,0:
00000000
00000000
00000000
00000000
,
00000000
00000000
00000000
00000000
,
00000000
00000000
00000000
00000000
,
00000000
00000000
00000000
00000000
,
00000000
00000000
00000000
00000000
,
10011001
01000100
10001000
00010001
,
10011001
01000100
00010001
10001000
,
10011001
01000100
10001000
00010001
,
10011001
00000000
00000000
00000000
,
00101001
00100010
00100100
00000010
,
01001001
01000010
01000100
00000010
,
00101001
00100100
00100010
00000100
,
10011001
00000000
00000000
00000000
,
10001001
01000000
00010000
01000000
,
10000110
01000000
00010000
01000000
,
10001001
00100000
00010000
00100000
,
10000110
00100000
00010000
00100000
,
10011000
00000010
00000001
00000010
,
10011000
00000100
00000001
00000100
,
01101000
00000010
00000001
00000010
,
01101000
00000100
00000001
00000100
,
10011001
00000000
00000000
00000000
,
10001001
00010000
00100000
01000000
,
10010001
00000100
00001000
00000100
,
00011001
10000000
00100000
01000000
,
01101000
00000100
00000010
00000001
,
00010110
01000000
10000000
00100000
,
10010001
00000010
00001000
00000100
,
10001001
00100000
00010000
01000000
,
10010100
00000010
00000001
00001000
,
00010110
01000000
10000000
01000000
,
10011001
00000000
00000000
00100010
,
10011001
01000100
10011001
00000000
,
01100110
00000000
00000000
10001000
,
01100110
00010001
01100110
00000000
,
10011001
00100010
10001000
01000100
,
10011001
00100010
00010001
01000100
,
10011001
00100010
10001000
01000100
,
10011001
00000000
00000000
00000000
,
01100110
10001000
00100010
00010001
,
01100110
00010001
01000100
10001000
,
01100110
10001000
00100010
00010001
,
01100110
00000000
00000000
00000000
,
10011001
00011000
01000100
00100010
,
10011001
10000001
01000100
00100010
,
10011001
00011000
01000100
00100010
,
01100110
00000000
00000000
00000000
,
10011001
00100100
10011001
00000000
,
10011001
00100100
10011001
00000000
,
10011001
00100100
10011001
00000000
,
01100110
00000000
00000000
00000000
,
10011001
00011000
00100010
10000001
,
10011001
10000001
01000100
00011000
,
10011001
00011000
00100010
10000001
,
10011001
01100110
00000000
00000000
;

//--------------- dance-couple - forcednature ----------------
#NOTES:
     dance-couple:
     forcednature:
     Medium:
     6:
     0,0,0,0,0:
00000000
00000000
00000000
00000000
,
00000000
00000000
00000000
00000000
,
00000000
00000000
00000000
00000000
,
00000000
00000000
00000000
00000000
,
00000000
00000000
00000000
00000000
,
10001000
01000100
10001000
01000100
00010001
00000000
10011001
00000000
,
00010001
01000100
00010001
01000100
10001000
00000000
10011001
00000000
,
10001000
00100010
10001000
00100010
00010001
00000000
10011001
00000000
,
01100110
00000000
00000000
00000000
,
10011001
00000000
01100110
00000000
10000001
00100010
00011000
00000000
,
10011001
00000000
01100110
00000000
10000001
00100010
00011000
00000000
,
10011001
00000000
01100110
00000000
10000001
00100010
00011000
00000000
,
10011001
00000000
00000000
00000000
,
01101001
00000000
10000010
00000001
00010100
00001000
01000010
00000000
,
01101001
00000000
10000010
00000001
00010100
00001000
01000010
00000000
,
10010110
00000000
00100001
10000000
01001000
00010000
00100100
00000000
,
10010110
00000000
00100001
10000000
01001000
00010000
00100100
00000000
,
10010110
00000000
00100001
10000000
01001000
00010000
00100100
00000000
,
10010110
00000000
00100001
10000000
01001000
00010000
00100100
00000000
,
01101001
00000000
10000010
00000001
00010100
00001000
01000010
00000000
,
01101001
00000000
10000010
00000001
00010100
00001000
01000010
00000000
,
00000000
01100110
00000000
00000000
00000000
01100110
00000000
00000000
00000000
01100110
00000000
00000000
00000000
00000000
00000000
00000000
,
10011001
00000000
01000100
10000001
00100010
00011000
01000100
00000000
,
10011001
00000000
01000100
00011000
00100010
10000001
01000100
00000000
,
10011001
00000000
00011000
00100100
10000001
01000010
00011000
00000000
,
10011001
00000000
10000001
00100100
00011000
01000010
10000001
00000000
,
01100110
00000000
10000001
01000010
00011000
00100100
10000001
00000000
,
01100110
00000000
00011000
01000010
10000001
00100100
00011000
00000000
,
10011001
00000000
10000001
00100010
00011000
01000100
10000001
00000000
,
10011001
00000000
00011000
00100010
10000001
01000100
00011000
00000000
,
10011001
00000000
10000001
00100010
00011000
01000100
10000001
00000000
,
00001001
00000000
00000000
10010000
00000000
00000000
01000100
00000000
,
01000100
00000000
01000100
01000100
00000000
00000000
00000000
00000000
,
10011001
00000000
00000000
00000000
01000100
00000000
00000000
00000000
00100010
00000000
00000000
00100010
00000000
00000000
00100010
00000000
,
10011001
01100110
01100110
10011001
,
10000001
00100010
00011000
01000100
10000001
00100010
00011000
00000000
,
00011000
00100010
10000001
01000100
00011000
00100010
10000001
00000000
,
10000001
00100010
00011000
01000100
10000001
00100010
00011000
00000000
,
10011001
00000000
00000000
00000000
,
00011000
00100100
01000010
10000001
00011000
00100100
01000010
00000000
,
10000001
00100100
01000010
00011000
10000001
00100100
01000010
00000000
,
00011000
00100100
01000010
10000001
00011000
00100100
01000010
00000000
,
10011001
00000000
00000000
00000000
,
10000001
10000001
10000001
01000100
10000001
10000001
01000100
00000000
,
10000001
10000001
10000001
01000100
10000001
10000001
01000100
00000000
,
00011000
00011000
00011000
01000100
00011000
00011000
01000100
00000000
,
10011001
00000000
00000000
00000000
,
10000001
00100010
00011000
00100010
01000100
00000000
10011001
00000000
,
10000001
00100010
00011000
00100010
01000100
00000000
10011001
00000000
,
10000001
00100010
00011000
00100010
01000100
00000000
10011001
00000000
,
01100110
00000000
00000000
00000000
,
00010001
01000100
10001000
01000100
00010001
01000100
10001000
00000000
,
10001000
00100010
00010001
00100010
10001000
00100010
00010001
00000000
,
00010001
01000100
10001000
01000100
00010001
01000100
10001000
00000000
,
10011001
01100110
00000000
00000000
;

//--------------- dance-couple - forcednature ----------------
#NOTES:
     dance-couple:
     forcednature:
     Hard:
     8:
     0,0,0,0,0:
00000000
00000000
00000000
00000000
,
00000000
00000000
00000000
00000000
,
00000000
00000000
00000000
00000000
,
00000000
00000000
00000000
00000000
,
00000000
00000000
00000000
00000000
,
10011001
00000000
10001000
01000100
00010001
01000100
00100010
01000100
,
10011001
00000000
00010001
01000100
10001000
01000100
00100010
01000100
,
10011001
00000000
10001000
01000100
00010001
01000100
00100010
01000100
,
10011001
00000000
00011000
00000000
00011000
00000000
00000000
00011000
00000000
00000000
00000000
00000000
00000000
00000000
00000000
00000000
,
10001000
00000000
00000000
00010001
00100010
00000000
00010001
00000000
10001000
00000000
00010001
00000000
01000100
00000000
00000000
00000000
,
10001000
00000000
00000000
00010001
00100010
00000000
00010001
00000000
10001000
00000000
00010001
00000000
01000100
00000000
00000000
00000000
,
00010001
00000000
00000000
10001000
01000100
00000000
10001000
00000000
00010001
00000000
10001000
00000000
00100010
00000000
00000000
00000000
,
10101010
00000000
00000000
01010101
00000000
00000000
10011001
00000000
00000000
00000000
00000000
00000000
00000000
00000000
00000000
00000000
,
10011001
00000000
10001000
01000100
00010001
00100010
01000100
10001000
,
10011001
00000000
10001000
00100010
00010001
01000100
00100010
00010001
,
10011001
00000000
00010001
00100010
10001000
01000100
00100010
10001000
,
10011001
00000000
10001000
01000100
00100010
10001000
00100010
00010001
,
10011001
00000000
00010001
01000100
10001000
01000100
00010001
01000100
,
10011001
00000000
10001000
01000100
00010001
01000100
00100010
00010001
,
10011001
00000000
00010001
00100010
10001000
00100010
01000100
10001000
,
10011001
00000000
10001000
00100010
00010001
00100010
10001000
01000100
,
00000000
10011001
00000000
00000000
00000000
01100110
00000000
00000000
00000000
10011001
00000000
00000000
00000000
00000000
00000000
00000000
,
10011001
10001000
00100010
00010001
00100010
10001000
01000100
00100010
,
10011001
00010001
01000100
10001000
01000100
00100010
10001000
01000100
,
01100110
00100010
00010001
10001000
00010001
01000100
00100010
10001000
,
10011001
10001000
01000100
00100010
00010001
00100010
10001000
00100010
,
01100110
00100010
00010001
10001000
00010001
01000100
00100010
10001000
,
10011001
10001000
01000100
00100010
00010001
01000100
00100010
01000100
,
01100110
00100010
10001000
00010001
00100010
01000100
10001000
00010001
,
10011001
00010001
01000100
00010001
10001000
01000100
00100010
00010001
,
10011001
00010001
00100010
01000100
10001000
00100010
01000100
00010001
,
01101001
00000000
00000000
01100000
00000000
00000000
10010110
00000000
,
10010110
00000000
00000110
10010110
00000000
00000000
01100000
00000000
,
01100000
00000000
00000000
00000000
00001000
00000001
01100000
00000000
00001001
00000000
00000000
00001001
10010000
00000000
00001001
00000000
,
10010000
00000000
00000000
01100000
00000000
00000000
01100000
00000000
,
10001000
00000000
00000001
00100000
10001000
00000000
00010100
00000000
00100010
00000000
00010001
00000000
10000010
00000000
00011000
01000000
,
00010010
00000000
00000001
10000000
00100100
00000000
10001000
00000000
01000100
00000000
00100010
00000000
00011000
00000000
10000100
00010000
,
10000001
00000000
00000100
00010000
01000010
00000000
00010001
00000000
10001000
00000000
00100010
00000000
10000100
00000000
01000001
00100000
,
01001001
00000000
00000000
00000000
,
00010001
00000000
01000000
00000100
10000001
00000000
01001000
00000000
00010100
00000000
00100010
00000000
01000100
00000000
10001000
00000001
,
00101000
00000000
00010000
00000001
00100010
00000000
10000001
00000000
01001000
00000000
00100001
00000000
10000100
00000000
00100010
00001000
,
00010010
00000000
10000000
00001000
00010100
00000000
01000010
00000000
00100001
00000000
10001000
00000000
01000001
00000000
00100100
00000010
,
10010100
00000000
00000000
00000000
,
10011001
10000001
00100010
00011000
10011001
10011001
10011001
00000000
,
10011001
00011000
00100010
10000001
10011001
10011001
10011001
00000000
,
01100110
10000001
01000100
00011000
01100110
01100110
01100110
00000000
,
10011001
00000000
00000000
00000000
,
10000001
01000100
00011000
01000100
00100010
00000000
10011001
00000000
,
00011000
01000100
10000001
01000100
00100010
00000000
10011001
00000000
,
10000001
01000100
00011000
01000100
00100010
00000000
10011001
00000000
,
01100110
00000000
00000000
00000000
,
10001000
01000100
00010001
01000100
00100010
00010001
10001000
00100010
,
00010001
00100010
10001000
01000100
00100010
10001000
00100010
00010001
,
01000100
00100010
10001000
01000100
00100010
00010001
01000100
00100010
,
01100110
10011001
00000000
00000000
;
