#TITLE:Light My Fire;
#SUBTITLE:;
#ARTIST:NAUSIKAA;
#TITLETRANSLIT:;
#SUBTITLETRANSLIT:;
#ARTISTTRANSLIT:;
#GENRE:;
#CREDIT:;
#BANNER:lightmyfire-bn.png;
#BACKGROUND:lightmyfire-bg.png;
#LYRICSPATH:;
#CDTITLE:cdtitle-classic.png;
#MUSIC:Nausikaa - Light My Fire.ogg;
#OFFSET:0.004000;
#SAMPLESTART:49.710999;
#SAMPLELENGTH:21.857000;
#SELECTABLE:YES;
#BPMS:0.000000=139.998993
;
#STOPS:
;
#BGCHANGES:;
#KEYSOUNDS:;
#ATTACKS:;

//---------------dance-single - ----------------
#NOTES:
     dance-single:
     :
     Hard:
     8:
     0.489145,0.526879,0.304755,0.000000,0.358535,382.000000,348.000000,34.000000,0.000000,0.000000,0.000000,0.489145,0.526879,0.304755,0.000000,0.358535,382.000000,348.000000,34.000000,0.000000,0.000000,0.000000:
// measure 0
0000
0000
0000
0000
,  // measure 1
0000
0000
0000
0000
,  // measure 2
0000
0000
0000
0000
,  // measure 3
0000
0000
0000
0000
,  // measure 4
0010
0000
1000
0000
0001
0010
0000
0001
0000
0010
0000
0100
0000
1000
0100
0000
,  // measure 5
1000
0000
0001
0000
1000
0010
0000
1000
0000
0010
0000
0100
0000
0001
1000
0000
,  // measure 6
0001
0000
1000
0000
0001
0100
0000
0010
0000
0100
0000
0001
0000
1000
0001
0000
,  // measure 7
1000
0000
0001
0000
1000
0100
0000
0010
0000
0100
0000
1000
0000
0001
1000
0000
,  // measure 8
0001
0000
0000
0001
0000
0000
0010
0000
0001
0000
0000
0001
0000
0000
1000
0000
,  // measure 9
0001
0000
0100
0000
0010
0000
1000
0001
0000
1000
0001
0000
1000
0000
0100
0000
,  // measure 10
0010
0000
0000
0001
0000
0000
0001
0000
1000
0000
0000
0001
0000
0000
0001
0000
,  // measure 11
1000
0100
0010
0001
0100
0010
0100
0001
,  // measure 12
1000
0000
0000
0010
0000
0000
0010
0000
0100
0000
0000
0010
0000
0000
0010
0000
,  // measure 13
1000
0000
0001
0000
1000
0000
0010
0100
,  // measure 14
1001
0000
0000
1000
0000
0000
1000
0000
0010
0000
0000
1000
0000
0000
1000
0000
,  // measure 15
0001
0010
0100
1000
0100
0001
0100
1000
,  // measure 16
0001
0000
0000
0010
0000
0000
0010
0000
0001
0000
0000
1000
0000
0000
1000
0000
,  // measure 17
1010
0000
1100
0000
0001
0010
0100
1000
,  // measure 18
0010
0000
0000
1000
0000
0000
1000
0000
0001
0000
0000
1000
0000
0000
1000
0000
,  // measure 19
0001
0100
0010
1000
0001
0010
0100
0010
,  // measure 20
0001
0000
0000
0100
0000
0000
0100
0000
0010
0000
0000
0100
0000
0000
0100
0000
,  // measure 21
0001
0000
0100
0000
0001
0000
1000
0001
,  // measure 22
1001
0000
0000
0001
0000
0000
0001
0000
0100
0000
0000
0001
0000
0000
0001
0000
,  // measure 23
1000
0010
0100
0001
1000
0001
0010
0001
,  // measure 24
1000
0000
0000
0100
0000
0000
0100
0000
1000
0000
0000
0010
0000
0000
0010
0000
,  // measure 25
1010
0000
0101
0000
0010
0001
1000
0100
,  // measure 26
0010
0000
0001
0000
1000
0010
0100
0000
,  // measure 27
0001
0000
0100
0000
0001
0010
0100
0000
,  // measure 28
1000
0100
1000
0001
,  // measure 29
1001
0000
0110
0000
0001
0100
0010
1000
,  // measure 30
0001
0000
1000
0000
0010
1000
0000
1010
,  // measure 31
0000
1001
0000
0001
0010
0001
0000
0011
,  // measure 32
0000
1001
0000
0000
1000
1000
0000
0100
,  // measure 33
0000
0010
0000
0001
0000
0100
0001
0010
,  // measure 34
0000
0000
0000
0000
0001
0001
0000
0011
,  // measure 35
0000
1001
0000
0100
1000
0010
0000
1010
,  // measure 36
0000
1001
0000
0000
0001
0001
0000
1000
,  // measure 37
0000
0100
0000
0001
0000
0100
0000
1000
,  // measure 38
0000
0000
0000
0000
0010
1000
0000
1010
,  // measure 39
0000
1100
0000
0010
0001
0010
0000
0011
,  // measure 40
0000
0101
0000
0000
0100
0100
0000
0001
,  // measure 41
0000
1000
0000
0001
0000
1000
0100
0010
,  // measure 42
0000
0000
0000
0000
0001
1000
0000
1001
,  // measure 43
0000
0110
0000
0100
0010
0100
0000
0110
,  // measure 44
0000
1001
0000
0000
1000
0001
0000
1000
,  // measure 45
0000
0100
0000
0010
0000
0001
0000
1000
,  // measure 46
0010
0000
1000
0000
0010
0100
0000
0001
0000
0100
0000
0001
0000
0010
0001
0000
,  // measure 47
0010
0000
0001
0000
0010
0100
0000
1000
0000
0100
0000
1000
0000
0010
1000
0000
,  // measure 48
0001
0000
1000
0000
0001
0010
0000
0001
0000
1000
0000
0001
0000
0100
0001
0000
,  // measure 49
1000
0000
0001
0000
1000
0010
0000
1000
0000
0001
0000
1000
0000
0100
1000
0000
,  // measure 50
0001
0000
0010
0000
0001
0010
0000
0100
0000
1000
0000
0010
0000
1000
0010
0000
,  // measure 51
1000
0000
0010
0000
1000
0010
0000
0100
0000
0001
0000
0010
0000
0001
0010
0000
,  // measure 52
0001
0000
1000
0000
0001
1000
0000
0010
0000
0100
0000
0010
0000
1000
0001
0000
,  // measure 53
1000
0000
0001
0000
1000
0001
0000
0010
0000
0100
0000
0010
0000
0001
1000
0000
,  // measure 54
0010
0000
1000
0000
0001
0010
0000
0011
,  // measure 55
0000
1001
0000
1000
0100
0010
0000
1100
,  // measure 56
0000
1001
0000
0000
0001
0001
0000
0010
,  // measure 57
0000
0001
0000
0100
0000
0001
0010
0100
,  // measure 58
0000
0000
0000
0000
1000
0010
0000
1010
,  // measure 59
0000
1100
0000
0001
0010
0001
0000
0011
,  // measure 60
0000
0101
0000
0000
0001
1000
0000
0100
,  // measure 61
0000
0010
0000
0001
0000
1001
0000
0110
;

//---------------dance-single - ----------------
#NOTES:
     dance-single:
     :
     Medium:
     5:
     0.354694,0.388227,0.286828,0.000000,0.107561,277.000000,245.000000,32.000000,0.000000,0.000000,0.000000,0.354694,0.388227,0.286828,0.000000,0.107561,277.000000,245.000000,32.000000,0.000000,0.000000,0.000000:
0000
0000
0000
0000
,
0000
0000
0000
0000
,
0000
0000
0000
0000
,
0000
0000
0000
0000
,
1000
0000
0010
0000
0000
1000
0000
0010
0000
0000
0000
0000
1000
0000
0100
0000
,
0010
0000
0001
0000
0000
0010
0000
0001
0000
0000
0000
0000
0001
0000
1000
0000
,
0100
0000
1000
0000
0000
0100
0000
1000
0000
0000
0000
0000
0100
0000
0010
0000
,
0001
0000
1000
0000
0000
0001
0000
1000
0000
0000
0000
0000
0010
0000
1000
0000
,
0010
0000
0000
1000
0001
0000
0000
1000
,
0010
0010
0010
0010
,
1001
0000
0001
0010
,
0001
1000
0100
0010
,
0001
0000
1000
0001
,
1000
0000
0000
0010
0010
0000
0000
1000
,
1000
0000
0001
0100
,
0001
1000
0100
0010
,
0100
1000
0010
0000
,
1010
0000
0000
0011
0000
0000
0001
0001
,
0001
0000
1000
0100
,
0001
0100
1000
0010
,
1000
0000
0001
0100
,
0010
0000
0000
0100
0100
0000
0000
0001
,
0001
0000
0010
0001
,
0100
0001
0010
0100
,
1000
0001
1000
0000
,
1010
0000
0000
1100
0000
0001
1000
0001
,
0000
0000
0000
0001
0001
0000
0000
0010
,
0010
0001
0100
0001
,
1000
0000
0000
0010
1000
0000
0000
0000
,
0001
0000
1000
0000
0001
0010
0100
1000
,
0000
0000
0000
0000
0001
0010
0000
0011
,
0000
1001
0000
0000
1000
0010
0000
1010
,
0000
1001
0000
0000
1000
0000
0100
0000
,
0010
0000
0001
0000
0010
0000
0001
1000
,
0100
0000
0000
0000
1000
0010
0000
1010
,
0000
1100
0000
0000
0001
0010
0000
0011
,
0000
0101
0000
0000
0001
0000
1000
0000
,
0001
0000
0100
0000
0010
0000
1000
0100
,
0010
0000
0000
0000
0001
1000
0000
1001
,
0000
0110
0000
0000
1000
0010
0000
1010
,
0000
1001
0000
0000
0001
0000
0010
0000
,
0001
0000
1000
0000
0010
0000
1000
0100
,
0010
0000
0000
0000
0001
1000
0000
1001
,
0000
0110
0000
0000
0010
0100
0000
0110
,
0000
1001
0000
0000
1000
0000
0001
0000
,
1000
0100
0010
0001
,
0010
0000
0001
0000
0000
0010
0000
0001
0000
0000
0000
0000
1000
0000
0001
0000
,
1000
0000
0010
0000
0000
1000
0000
0010
0000
0000
0000
0000
0001
0000
0010
0000
,
0100
0000
1000
0000
0000
0100
0000
1000
0000
0000
0000
0000
0001
0000
0010
0000
,
0001
0000
0100
0000
0000
0001
0000
0100
0000
0000
0000
0000
0001
0000
0010
0000
,
0100
0000
1000
0000
0000
0010
0000
1000
0000
0000
0000
0000
0100
0000
0010
0000
,
0001
0000
0010
0000
0000
0001
0000
0100
0000
0000
0000
0000
0001
0000
0010
0000
,
0100
0000
1000
0000
0000
0001
0000
1000
0000
0000
0000
0000
0001
0000
0010
0000
,
0100
0000
0010
0000
0000
0100
0000
0010
0000
0000
0000
0000
1000
0000
0001
0000
,
1000
0000
0000
0000
1000
0010
0000
1010
,
0000
1001
0000
0000
0001
0010
0000
0011
,
0000
1001
0000
0000
1000
0000
0100
0000
,
0010
0000
0001
0000
0100
0000
0001
0010
,
0100
0000
0000
0000
1000
0100
0000
1100
,
0000
1010
0000
0000
0001
0100
0000
0101
,
0000
0011
0000
0000
0001
1000
0000
1010
,
0000
0000
0000
1001
0000
0000
0000
0011
;

//---------------dance-single - ----------------
#NOTES:
     dance-single:
     :
     Easy:
     3:
     0.263780,0.277865,0.134451,0.000000,0.000000,206.000000,191.000000,15.000000,0.000000,0.000000,0.000000,0.263780,0.277865,0.134451,0.000000,0.000000,206.000000,191.000000,15.000000,0.000000,0.000000,0.000000:
0000
0000
0000
0000
,
0000
0000
0000
0000
,
0000
0000
0000
0000
,
0000
0000
0000
0000
,
0010
0001
0010
0001
,
1000
0100
0010
0001
,
1000
0010
1000
0010
,
1000
0001
0010
0100
,
1000
0000
1010
0000
,
0001
0001
0001
0001
,
0011
0000
0001
1000
,
0001
0010
0100
1000
,
0010
0000
1000
0000
,
0100
0000
1000
1000
,
1010
0000
1000
0001
,
1000
0100
0010
0001
,
0100
0001
0010
0000
,
0011
0000
0000
0101
0000
0000
0000
0000
,
0011
0000
0001
1000
,
0010
1000
0001
0010
,
0100
0000
1000
0000
,
0010
0000
1000
1000
,
1100
0000
0001
1000
,
0010
1000
0001
0100
,
0001
0010
0100
0000
,
1001
0000
0000
0110
0000
0000
0000
1001
,
0000
0000
1000
0000
,
1000
0010
1000
0001
,
0100
0000
0001
0000
,
0001
0010
0100
1000
,
1100
0000
0001
0010
,
0001
0000
0001
1000
,
0001
0000
1000
0100
,
0010
0001
0100
0001
,
0010
0000
1000
0010
,
1000
0000
1000
0001
,
1000
0000
0001
0010
,
0100
1000
0010
1000
,
0001
0000
0100
0001
,
0100
0000
0100
0010
,
0100
0000
0010
1000
,
0001
1000
0010
0100
,
0010
0000
0010
1000
,
0010
0000
0010
0100
,
0010
0000
1000
0001
,
1000
0100
0010
0001
,
1000
0100
1000
0100
,
1000
0001
0010
0100
,
0010
0001
0010
0001
,
1000
0100
0010
0001
,
1000
0010
1000
0010
,
0100
0001
0010
0001
,
1000
0001
1000
0001
,
1000
1000
1000
1000
,
1010
0000
1000
0010
,
1000
0000
1000
0001
,
1000
0000
0001
0010
,
0100
1000
0001
0100
,
0001
0000
1000
0100
,
1000
0000
1000
0001
,
1000
0000
0001
0001
,
0011
0000
1001
0000
,
0110
0000
0000
0000
;
