#TITLE:Let's Go Round Again;
#SUBTITLE:;
#ARTIST:Louise;
#TITLETRANSLIT:;
#SUBTITLETRANSLIT:;
#ARTISTTRANSLIT:;
#GENRE:;
#CREDIT:hooky;
#BANNER:[Flashback to 1999] - Let's Go Round Again.png;
#BACKGROUND:[Flashback to 1999] - Let's Go Round Again-bg.png;
#LYRICSPATH:;
#CDTITLE:;
#MUSIC:[Flashback to 1999] - Let's Go Round Again.ogg;
#OFFSET:0.000000;
#SAMPLESTART:46.838001;
#SAMPLELENGTH:15.499999;
#SELECTABLE:YES;
#DISPLAYBPM:123.000000;
#BPMS:0.000000=123.000000
;
#STOPS:
;
#BGCHANGES:;
#KEYSOUNDS:;
#ATTACKS:;

//---------------dance-single - ----------------
#NOTES:
     dance-single:
     :
     Hard:
     6:
     0.212914,0.259200,0.064800,0.000000,0.000000,184.000000,176.000000,8.000000,0.000000,0.000000,0.000000,0.212914,0.259200,0.064800,0.000000,0.000000,184.000000,176.000000,8.000000,0.000000,0.000000,0.000000:
0000
0000
0000
0000
,
0000
0000
0000
0000
,
0000
0000
0000
0000
,
0000
0000
0000
0000
,
0000
0000
0000
0000
,
0000
0000
0000
0000
,
1000
0010
0001
0100
,
1000
0100
1000
0000
0001
0100
0010
0000
,
0100
0100
0010
1000
,
0001
0100
0010
0000
1000
0100
0010
0000
,
0001
1000
0001
0011
,
0001
1000
0010
0000
0010
0100
0001
0001
,
0010
0001
0001
0000
,
1000
0100
0100
1000
,
0010
0000
0010
0000
0100
0001
0000
0010
,
0000
0100
0000
1000
0000
0001
0000
0000
,
0110
0000
0010
0010
,
1000
0100
1000
0000
1000
0010
0100
0000
,
0100
0001
0010
0001
1000
1000
0001
0000
,
0001
0001
0100
0000
0100
0100
0001
0000
,
0001
0100
0010
1000
,
0001
0100
1000
0010
,
0001
0100
0001
0001
,
1000
0001
1000
0000
0011
0000
1010
0000
,
1001
0000
0001
1000
0000
1000
0000
0010
,
0100
0001
0010
0000
0001
1000
0001
0000
,
0100
0010
1000
0100
1000
0001
0100
0001
,
0010
0010
0001
0000
0101
0000
0011
0000
,
0001
0100
0010
0100
0001
0001
1000
0001
,
0010
0000
0100
0000
1000
1000
0001
0000
,
0001
0010
1000
0100
,
0001
0010
1000
0100
,
0100
0100
0010
0000
0010
0010
0001
0000
,
0001
0100
1000
0100
0001
0001
0100
0010
,
1000
0000
1000
0000
0010
0100
0001
1000
,
0100
0100
1000
0000
,
0001
0001
0001
0001
,
0010
0010
0010
0010
,
0100
1000
0100
1000
0010
0100
0001
0001
,
0100
0001
0010
0000
0010
0001
1000
0000
,
1001
0000
0000
0000
;

//---------------dance-single - ----------------
#NOTES:
     dance-single:
     :
     Medium:
     3:
     0.129600,0.162000,0.024300,0.000000,0.000000,112.000000,109.000000,3.000000,0.000000,0.000000,0.000000,0.129600,0.162000,0.024300,0.000000,0.000000,112.000000,109.000000,3.000000,0.000000,0.000000,0.000000:
// measure 0
0000
0000
0000
0000
,  // measure 1
0000
0000
0000
0000
,  // measure 2
0000
0000
0000
0000
,  // measure 3
0000
0000
0000
0000
,  // measure 4
0000
0000
0000
0000
,  // measure 5
0000
0000
0000
0000
,  // measure 6
1000
0100
0010
0001
,  // measure 7
0100
0100
0001
1000
,  // measure 8
0001
0000
0000
1000
0000
0000
0000
0000
,  // measure 9
0010
0100
0001
0010
,  // measure 10
0001
0001
1000
0000
,  // measure 11
1000
0100
1000
0000
,  // measure 12
0010
0100
0001
0000
,  // measure 13
0010
0001
1000
0000
,  // measure 14
0001
0000
1000
0000
,  // measure 15
0100
0000
0010
0000
,  // measure 16
0001
0001
0001
0000
,  // measure 17
1000
0010
0100
0000
,  // measure 18
0001
1000
0001
0000
,  // measure 19
0010
0100
1000
0000
,  // measure 20
0001
0000
1000
0000
,  // measure 21
1000
0000
0001
0000
,  // measure 22
0100
0100
0100
0000
,  // measure 23
0010
0000
0010
0000
,  // measure 24
0110
0000
1001
0000
,  // measure 25
0100
1000
1000
0000
,  // measure 26
0010
0100
0001
0010
,  // measure 27
0001
0100
0001
0000
,  // measure 28
0001
0100
0010
1000
,  // measure 29
0010
1000
0100
0000
,  // measure 30
1000
0000
0001
0000
,  // measure 31
0001
0010
0100
1000
,  // measure 32
0001
1000
0010
0010
,  // measure 33
0100
0000
0100
0000
0001
0010
0001
0000
,  // measure 34
0001
1000
0010
0100
,  // measure 35
0001
0010
0100
0000
,  // measure 36
1000
1000
1000
1000
,  // measure 37
0001
0001
0001
0001
,  // measure 38
1000
0100
0001
0010
,  // measure 39
1000
1000
0001
0100
,  // measure 40
1001
0000
0000
0000
;

//---------------dance-single - ----------------
#NOTES:
     dance-single:
     :
     Easy:
     1:
     0.082157,0.113400,0.048600,0.000000,0.000000,71.000000,65.000000,6.000000,0.000000,0.000000,0.000000,0.082157,0.113400,0.048600,0.000000,0.000000,71.000000,65.000000,6.000000,0.000000,0.000000,0.000000:
0000
0000
0000
0000
,
0000
0000
0000
0000
,
0000
0000
0000
0000
,
0000
0000
0000
0000
,
0000
0000
0000
0000
,
0000
0000
0000
0000
,
1000
0000
0100
0000
,
0010
0000
0001
0000
,
1001
0000
0110
0000
,
0010
0000
1000
0000
,
0100
0000
0100
0000
,
1000
0000
0001
0000
,
1000
0000
0000
0000
,
0001
0000
0000
0000
,
0100
0000
0000
0000
,
0010
0000
0000
0000
,
0110
0000
0000
0000
,
0010
0000
1000
0000
,
0100
0000
0100
0000
,
1000
0000
0001
0000
,
0100
0000
0000
0000
,
0001
0000
0000
0000
,
0010
0000
0000
0000
,
0100
0000
0100
0000
,
0110
0000
1001
0000
,
0010
0000
1000
0000
,
0001
0000
1000
0000
,
0100
0100
0010
0000
,
0001
0000
0010
0000
,
0100
0000
1000
0000
,
0001
0000
1000
0000
,
0001
1000
0001
0000
,
0100
0000
0100
0000
,
0010
0000
0010
0000
,
1000
0000
0100
0000
,
1000
1000
1000
0000
,
0001
0000
0100
0000
,
0001
0000
0010
0010
,
0001
0000
1000
0000
,
0001
0000
0100
0000
,
1001
0000
0000
0000
;
