#VERSION:0.83;
#TITLE:King of the Jungle;
#SUBTITLE:;
#ARTIST:Shanguy;
#TITLETRANSLIT:;
#SUBTITLETRANSLIT:;
#ARTISTTRANSLIT:;
#GENRE:;
#ORIGIN:;
#CREDIT:;
#BANNER:kingofthejungle_bn.png;
#BACKGROUND:kingofthejungle_bg.png;
#PREVIEWVID:;
#JACKET:kingofthejungle_jacket.png;
#CDIMAGE:;
#DISCIMAGE:;
#LYRICSPATH:;
#CDTITLE:cdtitle.png;
#MUSIC:kingofthejungle.ogg;
#OFFSET:0.000000;
#SAMPLESTART:41.379311;
#SAMPLELENGTH:15.517242;
#SELECTABLE:YES;
#BPMS:0.000=116.000;
#STOPS:;
#DELAYS:;
#WARPS:;
#TIMESIGNATURES:0.000=4=4;
#TICKCOUNTS:0.000=4;
#COMBOS:0.000=1;
#SPEEDS:0.000=1.000=0.000=0;
#SCROLLS:0.000=1.000;
#FAKES:;
#LABELS:0.000=Song Start;
#BGCHANGES:;
#KEYSOUNDS:;
#ATTACKS:
;

//---------------dance-single - ----------------
#NOTEDATA:;
#CHARTNAME:;
#STEPSTYPE:dance-single;
#DESCRIPTION:;
#CHARTSTYLE:;
#DIFFICULTY:Hard;
#METER:9;
#RADARVALUES:0.575401,0.622447,0.467226,0.000000,0.660560,500.000000,442.000000,58.000000,0.000000,0.000000,0.000000,0.000000,0.000000,0.000000,0.575401,0.622447,0.467226,0.000000,0.660560,500.000000,442.000000,58.000000,0.000000,0.000000,0.000000,0.000000,0.000000,0.000000;
#CREDIT:;
#NOTES:
// measure 0
0000
0000
0000
0000
,  // measure 1
0000
0000
0000
0000
,  // measure 2
0000
0000
0000
0000
,  // measure 3
0000
0000
0000
0000
0000
0000
0000
0000
0000
0000
0000
0000
1000
0000
0000
0100
,  // measure 4
1000
0000
0010
0000
0100
0000
0010
0100
0000
0000
0000
0000
0100
0001
0000
0000
,  // measure 5
1000
0000
0100
0000
1000
0010
0000
0100
0000
0000
0000
0000
0100
0000
0010
0000
,  // measure 6
1000
0000
0001
0000
0010
0000
0001
0010
0000
0100
0000
0000
0100
0010
0000
0000
,  // measure 7
0001
0000
1000
0000
0010
1000
0000
0010
0000
0000
0000
0000
0100
0000
0001
0100
,  // measure 8
0000
0000
0010
0000
1000
0001
0000
0010
0000
0000
0000
0000
0010
0000
0001
1000
,  // measure 9
0000
0000
0010
0000
0100
0001
0000
1000
0000
0000
0000
0000
0010
0000
0100
0001
,  // measure 10
0000
0000
0010
0000
0100
0000
0010
0001
0000
1000
0000
0000
0010
0100
0000
0000
,  // measure 11
0010
0000
0100
0000
0001
1000
0000
0001
0000
0000
1001
0000
1001
0000
0000
0000
,  // measure 12
0001
0010
0100
0001
0100
0010
0001
0010
0000
0100
0000
1000
0100
1000
0001
0010
,  // measure 13
0000
0010
0000
0001
0100
0010
1000
0100
0000
1000
0000
1000
0001
0000
0100
0000
,  // measure 14
0010
1000
0100
0010
1000
0010
0100
1000
0000
0010
0000
0100
0001
0100
0010
1000
,  // measure 15
0000
1000
0000
0100
1000
0001
0100
0010
0000
0000
0110
0000
0110
0000
0000
0000
,  // measure 16
0001
0000
0001
0000
0100
0000
0100
0000
0010
0000
0010
0000
1000
0010
0100
0010
,  // measure 17
0000
0000
0100
0000
0110
0000
0000
0100
0000
0010
0000
1000
0001
0000
0001
0000
,  // measure 18
1000
0000
1000
0000
0100
0000
0100
0000
0010
0000
0010
0000
0001
0010
0100
0010
,  // measure 19
0000
0000
0100
0000
0010
0000
0000
0100
0000
0010
0000
0001
1000
0000
1000
0000
,  // measure 20
1100
0000
0000
0000
1001
0000
0000
0000
0101
0000
0000
1001
0000
0000
0000
0000
,  // measure 21
0001
0000
0001
0000
1000
0000
1000
0000
0100
0000
0000
0100
0000
0100
0010
0000
,  // measure 22
0011
0000
0000
0000
1001
0000
0000
0000
1010
0000
0000
1001
0000
0001
1000
0000
,  // measure 23
0100
0000
0100
0000
0010
0000
0010
0100
0000
0010
0000
0001
1000
0000
0001
0000
,  // measure 24
0101
0000
0000
0000
1001
0000
0000
0000
1100
0000
0000
1001
0000
0000
0000
0000
,  // measure 25
1000
0000
0000
0000
0000
0000
1000
0000
0000
0000
0000
0000
0001
0000
0000
0000
1000
0000
0001
0000
0000
0000
0000
0000
0100
0000
0000
0000
0000
0000
0010
0000
0000
0100
0000
0000
0000
0000
0000
0100
0000
0000
0010
0000
0000
0000
0000
0000
,  // measure 26
1010
0000
0000
0000
1001
0000
0000
0000
0011
0000
0000
1001
0000
1000
0001
0000
,  // measure 27
0100
0000
0100
0000
0010
0000
0010
0100
0000
0000
0000
0000
0010
0000
0100
0000
,  // measure 28
0001
0000
1000
0000
0100
0010
0000
1000
0000
0010
0000
0000
0000
0000
0000
0000
,  // measure 29
0010
0000
0001
0000
1000
0001
0000
1000
0000
1000
0000
0000
0010
0000
0100
0010
,  // measure 30
0000
0000
1000
0000
0010
0000
0001
0010
0000
0100
0000
0000
0000
0000
0000
0000
,  // measure 31
0010
0000
0100
0000
0001
1000
0000
0001
0000
0001
0000
0000
0010
0000
0100
0010
,  // measure 32
0000
0000
0001
0000
1000
0000
0010
0001
0000
0000
0010
0000
0100
0000
0001
1000
,  // measure 33
0100
0000
0010
0000
1000
0010
0000
0100
0000
0000
0010
0000
0001
0000
1000
0010
,  // measure 34
0000
0100
0000
0000
0010
0000
1000
0001
0000
0010
0000
0000
0000
0000
0000
0000
,  // measure 35
0010
0000
0001
0000
1000
0010
0000
0100
0000
0000
0110
0000
0110
0000
0000
0000
,  // measure 36
1000
0010
0100
1000
0100
0010
1000
0010
0000
0100
0000
0001
0100
0001
1000
0010
,  // measure 37
0000
0010
0000
1000
0100
0010
0001
0100
0000
0001
0000
0001
1000
0000
0100
0000
,  // measure 38
0010
0001
0100
0010
0001
0010
0100
0001
0000
0010
0000
0100
1000
0100
0010
0001
,  // measure 39
0000
0001
0000
0100
0001
1000
0100
0010
0000
0000
0110
0000
0110
0000
0000
0000
,  // measure 40
1000
0000
1000
0000
0100
0000
0100
0000
0010
0000
0010
0000
0001
0010
0100
0010
,  // measure 41
0000
0000
0100
0000
0110
0000
0000
0100
0000
0010
0000
0001
1000
0000
1000
0000
,  // measure 42
0001
0000
0001
0000
0100
0000
0100
0000
0010
0000
0010
0000
1000
0010
0100
0010
,  // measure 43
0000
0000
0100
0000
0010
0000
0000
0100
0000
0010
0000
1000
0001
0000
0001
0000
,  // measure 44
0101
0000
0000
0000
1001
0000
0000
0000
1100
0000
0000
1001
0000
0000
0000
0000
,  // measure 45
1000
0000
1000
0000
0001
0000
0001
0000
0100
0000
0010
0100
0000
0100
0010
0000
,  // measure 46
1010
0000
0000
0000
1001
0000
0000
0000
0011
0000
0000
1001
0000
1000
0001
0000
,  // measure 47
0100
0000
0100
0000
0010
0000
0010
0100
0000
0010
0000
1000
0001
0000
1000
0000
,  // measure 48
1100
0000
0000
0000
1001
0000
0000
0000
0101
0000
0000
1001
0000
0000
0000
0000
,  // measure 49
0001
0000
0000
0000
0000
0000
0001
0000
0000
0000
0000
0000
1000
0000
0000
0000
0001
0000
1000
0000
0000
0000
0000
0000
0100
0000
0000
0000
0000
0000
0010
0000
0000
0100
0000
0000
0000
0000
0000
0100
0000
0000
0010
0000
0000
0000
0000
0000
,  // measure 50
0011
0000
0000
0000
1001
0000
0000
0000
1010
0000
0000
0101
0000
0001
1000
0000
,  // measure 51
0100
0000
0100
0000
0010
0000
0010
0100
0000
0010
0000
0001
1000
0000
0010
0000
,  // measure 52
0101
0000
0000
0000
0011
0000
0000
0000
1100
0000
0000
1010
0000
0000
0000
0000
,  // measure 53
1000
0000
1000
0000
0010
0000
0010
0000
0001
0000
0010
0100
0000
0100
0010
0000
,  // measure 54
1010
0000
0000
0000
1100
0000
0000
0000
0011
0000
0000
0101
0000
0001
0100
0000
,  // measure 55
0010
0000
0010
0000
0001
0000
0010
0100
0000
0010
0000
1000
0001
0000
1000
0000
,  // measure 56
1100
0000
0000
0000
0011
0000
0000
0000
0101
0000
0000
1010
0000
0000
0000
0000
,  // measure 57
1000
0000
0000
0000
0000
0000
1000
0000
0000
0000
0000
0000
0100
0000
0000
0000
0010
0000
0100
0000
0000
0000
0000
0000
0010
0000
0000
0000
0000
0000
1000
0000
0000
0010
0000
0000
0000
0000
0000
0010
0000
0000
0100
0000
0000
0000
0000
0000
,  // measure 58
1100
0000
0000
0000
1010
0000
0000
0000
0101
0000
0000
0011
0000
0001
0010
0000
,  // measure 59
0100
0000
0100
0000
0010
0000
0001
1000
0000
0000
0000
0000
0000
0000
0000
0000
;
