#TITLE:Iguana;
#SUBTITLE:;
#ARTIST:HALLPBE.S;
#TITLETRANSLIT:;
#SUBTITLETRANSLIT:;
#ARTISTTRANSLIT:;
#GENRE:Electronica;
#CREDIT:tikal. '99;
#MUSIC:[Flashback to 1999] - Iguana.ogg;
#BANNER:[Flashback to 1999] - Iguana.png;
#BACKGROUND:[Flashback to 1999] - Iguana-bg.png;
#CDTITLE:;
#SAMPLESTART:17.284;
#SAMPLELENGTH:15.360;
#SELECTABLE:YES;
#OFFSET:-0.004;
#BPMS:0.000=125.000;
#STOPS:;
#BGCHANGES:;
#FGCHANGES:;

//--------------- dance-single - tikal '99 ----------------
#NOTES:
     dance-single:
     tikal '99:
     Medium:
     5:
     0,0,0,0,0:
0000
0000
0000
0000
,
0000
0000
0000
0000
,
0000
0000
0000
0000
,
0000
0000
0000
0000
,
0011
0000
1000
0000
,
1010
0000
0001
0000
,
0101
0000
1000
0000
,
1100
0000
0001
0000
,
0000
0000
0000
0000
,
1000
0000
0000
0000
0100
0000
0000
0000
0010
0000
0000
0000
0000
0001
0000
0000
,
1000
0000
0000
0000
0010
0000
0000
0000
0100
0000
0000
0000
0000
0001
0000
0000
,
1000
0000
0000
0000
0001
0000
0000
0000
0100
0000
0000
0000
0000
0010
0000
0000
,
1000
0000
0001
0000
0010
0000
0100
1000
,
0001
0000
0000
0000
0100
0000
0000
0000
0010
0000
0000
0000
0000
1000
0000
0000
,
0001
0000
0000
0000
0010
0000
0000
0000
0100
0000
0000
0000
0000
1000
0000
0000
,
0001
0000
0000
0000
1000
0000
0000
0000
0100
0000
0000
0000
0000
0010
0000
0000
,
0001
0000
0000
0100
0000
0000
1000
0000
0000
0010
0000
0000
0001
0000
1000
0000
,
0001
0100
0001
0000
0001
0100
0001
0000
,
1000
0001
1000
0001
,
1000
0100
1000
0000
1000
0100
1000
0000
,
0001
1000
0001
1000
,
0001
0000
0100
0000
0010
0000
1000
1000
,
0001
0000
0010
0000
0100
0000
1000
1000
,
0001
0100
0001
0000
1000
0100
1000
0000
,
0001
1000
0001
1000
0010
0100
0010
0100
,
0001
0000
0000
0000
,
1000
0000
0000
0000
,
0001
0000
0000
0000
,
1000
0000
0000
0000
,
0011
0000
1010
0000
,
0101
0000
1100
0000
,
0001
1000
0001
1000
,
1001
0110
1001
0000
,
0001
0000
0000
0000
0100
0000
0000
0000
0010
0000
0000
0000
0010
1000
0000
0000
,
0001
0000
0000
0000
0010
0000
0000
0000
0100
0000
0000
0000
0100
1000
0000
0000
,
0001
0000
0000
0000
1000
0000
0000
0000
0100
0000
0000
0000
0100
0010
0000
0000
,
0001
0000
1000
0000
0010
0000
0100
0001
,
1000
0000
0000
0000
0100
0000
0000
0000
0010
0000
0000
0000
0010
0001
0000
0000
,
1000
0000
0000
0000
0010
0000
0000
0000
0100
0000
0000
0000
0100
0001
0000
0000
,
1000
0000
0000
0000
0001
0000
0000
0000
0100
0000
0000
0000
0100
0010
0000
0000
,
1000
0000
0001
0000
0010
0000
0100
0100
,
1000
0010
1000
0000
1000
0010
1000
0000
,
0001
0010
0001
0000
0001
0010
0001
0000
,
1000
0001
1000
0001
,
0100
0000
0010
0000
0100
0000
0010
1000
,
0001
0100
0001
0000
0001
0100
0001
0000
,
1000
0100
1000
0000
1000
0100
1000
0000
,
0001
1000
0001
1000
,
0001
0000
0000
0010
0000
0000
1000
0000
0000
0100
0000
0000
0001
0000
1000
0000
;

//--------------- dance-single - tikal '99 ----------------
#NOTES:
     dance-single:
     tikal '99:
     Hard:
     7:
     0,0,0,0,0:
0000
0000
0000
0000
,
0000
0000
0000
0000
,
0000
0000
0000
0000
,
0000
0000
0000
0000
,
0011
0000
1000
0000
,
1010
0000
0001
0000
,
0101
0000
1000
0000
,
1100
0000
0000
0000
0001
0000
1000
0001
,
0000
0000
0000
0000
,
1000
0000
0000
0000
0100
0000
0000
0100
0010
0000
0000
0000
0010
0001
0000
0000
,
1000
0000
0000
0000
0010
0000
0000
0010
0100
0000
0000
0000
0100
0001
0000
0000
,
1000
0000
0000
0000
0001
0000
0000
0001
0100
0000
0000
0000
0100
0010
0000
0000
,
1000
0000
0000
0000
0001
0000
0000
0001
0010
0000
0000
0000
0010
0000
0001
1000
,
0001
0000
0000
0000
0100
0000
0000
0100
0010
0000
0000
0000
0010
1000
0000
0000
,
0001
0000
0000
0000
0010
0000
0000
0010
0100
0000
0000
0000
0100
1000
0000
0000
,
0001
0000
0000
0000
1000
0000
0000
1000
0100
0000
0000
0000
0100
0010
0000
0000
,
0001
0000
0000
0100
0000
0000
1000
0000
0000
0010
0000
0000
0001
1000
0001
0000
,
1000
0100
0010
0000
1000
0100
0010
0000
,
1000
0000
0000
0000
0001
0000
0000
0000
1000
0000
0000
0000
0001
1000
0000
0000
,
0001
0100
0010
0000
0001
0100
0010
0000
,
0001
0000
0000
0000
1000
0000
0000
0000
0001
0000
0000
0000
1000
0001
0000
0000
,
1000
0000
0010
0000
0100
0001
0010
0001
,
1000
0000
0100
0000
0010
0001
0100
0001
,
1000
0010
1000
0010
0100
0001
0100
0001
,
1000
0100
0010
0001
1000
0010
0100
0001
,
1000
0000
0000
0000
,
0001
0000
0000
0000
,
1000
0000
0000
0000
,
0001
0000
0000
0000
,
0011
1000
1010
0001
,
0101
1000
1100
0001
,
1010
1100
0011
0101
,
1001
0110
1001
0000
,
0001
0000
0000
0000
0100
0000
0000
0100
0010
0000
0100
0000
0010
1000
0000
0000
,
0001
0000
0000
0000
0010
0000
0000
0010
0100
0000
0010
0000
0100
1000
0000
0000
,
0001
0000
0000
0000
1000
0000
0000
1000
0100
0000
1000
0000
0100
0010
0000
0000
,
0001
0000
0000
0000
1000
0000
0000
1000
0010
0000
1000
0000
0100
0000
0000
0000
,
1000
0000
0000
0000
0100
0000
0000
0100
0010
0000
0100
0000
0010
0001
0000
0000
,
1000
0000
0000
0000
0010
0000
0000
0010
0100
0000
0010
0000
0100
0001
0000
0000
,
1000
0000
0000
0000
0001
0000
0000
0001
0100
0000
0001
0000
0100
0010
0000
0000
,
1000
0000
0000
0000
0001
0000
0000
0001
0010
0000
0000
0100
1000
0000
1000
0000
,
0001
0100
0010
0000
0001
0100
0010
0000
,
0001
0010
0100
0000
0001
0010
0100
0000
,
0001
1000
0001
1000
,
0001
0000
0000
0000
0010
0000
0000
0000
0100
0000
0000
0000
1000
0000
0000
0001
,
1000
0010
0100
0000
1000
0010
0100
0000
,
1000
0100
0010
0000
1000
0100
0010
0000
,
1000
0001
1000
0001
,
1000
0000
0000
0100
0000
0000
0001
0000
0000
0010
0000
0000
1000
0001
1000
0001
;

//--------------- dance-single - tikal '99 ----------------
#NOTES:
     dance-single:
     tikal '99:
     Challenge:
     8:
     0,0,0,0,0:
0000
0000
0000
0000
,
0000
0000
0000
0000
,
0000
0000
0000
0000
,
0000
0000
0000
0000
,
0011
0000
0000
0001
0000
0000
0001
0000
1000
0000
0000
0000
0000
0000
0000
0000
,
1010
0000
0000
1000
0000
0000
1000
0000
0001
0000
0000
0000
0000
0000
0000
0000
,
0101
0000
0000
0001
0000
0000
0001
0000
1000
0000
0000
0000
0000
0000
0000
0000
,
1100
0000
0000
1000
0000
0000
1000
0000
0001
0000
0000
0000
0010
0000
0100
0000
,
0000
0000
0000
0000
,
1000
0000
0000
0000
0100
0000
0000
0010
0001
0000
1000
0000
0001
1000
0000
0000
,
0001
0000
0000
0000
0100
0000
0000
0010
1000
0000
0001
0000
1000
0001
0000
0000
,
1000
0000
0000
0000
0010
0000
0000
0100
0001
0000
1000
0000
0001
1000
0000
0000
,
0001
0000
0000
0000
0010
0000
0000
0100
1000
0000
0001
0000
1000
0000
0001
1000
,
0001
0000
0000
0000
0100
0000
0000
0010
0001
0000
0010
0000
1000
0010
0000
0000
,
1000
0000
0000
0000
0100
0000
0000
0010
1000
0000
0010
0000
0001
0010
0000
0000
,
0001
0000
0000
0000
0010
0000
0000
0100
0001
0000
0100
0000
1000
0100
0000
0000
,
1000
0000
0000
0010
0000
0000
0001
0000
0000
0100
0000
0000
1000
0001
1000
0000
,
0001
0100
0001
0000
1000
0000
0001
0000
1000
0100
1000
0000
0001
0000
0000
0000
,
1000
0010
0000
0000
0010
0100
0000
0000
0100
0001
0000
0000
1000
0001
0000
0000
,
1000
0100
1000
0000
0001
0000
1000
0000
0001
0100
0001
0000
1000
0000
0000
0000
,
0001
0010
0000
0000
0010
0100
0000
0000
0100
1000
0000
0000
1000
0001
1000
0001
,
1000
0000
1000
0000
0010
0000
0010
0000
0100
0000
0100
0001
1000
0000
1000
0000
,
0001
0000
0001
0000
0010
0000
0010
0000
0100
0000
0100
1000
0001
0000
0001
0000
,
1000
0000
1000
0001
0010
0000
0010
0000
0001
0000
0001
1000
0010
0000
0010
0000
,
0100
0001
0100
0001
1000
0100
1000
0100
0010
0100
0010
0100
0010
0001
1000
0010
,
0100
0000
0000
0000
,
0001
0000
0000
0000
0100
0000
0000
0010
0000
0000
0000
0000
0000
0000
0000
0000
,
1000
0000
0000
0000
0010
0000
0000
0100
0000
0000
0000
0000
0000
0000
0000
0000
,
0001
0000
0000
0000
0010
0000
0000
0100
0000
0000
0000
0000
0000
0000
0000
0000
,
0011
0000
0000
0000
1000
0000
0000
0000
1010
0000
0000
0000
0001
0100
0000
0001
,
0101
0000
0000
0000
1000
0000
0000
0000
1100
0000
0000
0000
0001
0010
0000
0001
,
0010
0010
0100
0100
1000
1000
0001
0001
,
0100
0100
0010
0010
1000
0000
0000
0000
,
0101
0000
0000
0000
0100
0000
0001
1000
0001
0000
0010
0000
0100
1000
0000
0000
,
0100
0000
0000
0000
0010
0000
0001
1000
0001
0000
0100
0000
0010
1000
0000
0010
,
0100
0000
0000
0000
0010
0000
1000
0001
1000
0000
0100
0000
0010
0001
0000
0000
,
0010
0000
0000
0000
0100
0000
1000
0001
1000
0000
0100
0000
0010
0000
0000
0000
,
0011
0000
0000
0000
0001
0000
0010
1000
0010
0000
0100
0000
1000
0001
0000
0000
,
0100
0000
0000
0000
0001
0000
0100
1000
0100
0000
0010
0000
1000
0001
0000
1000
,
0010
0000
0000
0000
1000
0000
0010
0001
0010
0000
0100
0000
0001
1000
0000
0000
,
0100
0000
0000
0000
1000
0000
0100
0001
0100
0000
0010
0001
1000
0000
1000
0000
,
1100
0000
0000
0000
1000
0100
0000
0000
0100
0010
0000
0000
0010
0001
0000
0000
,
0101
0000
0000
0000
0001
0100
0000
0000
0100
0010
0000
0000
0010
1000
0000
0000
,
0001
0000
0000
1000
0001
0000
1000
0000
0010
0000
0000
0100
0010
0000
0100
0000
,
0001
0000
0000
0001
0010
0000
0000
0010
0100
0000
0000
0100
1000
0000
1000
0001
,
1000
0000
0000
0000
0001
0010
0000
0000
0010
0100
0000
0000
0100
1000
0000
0000
,
0001
0000
0000
0000
1000
0010
0000
0000
0010
0100
0000
0000
0100
0001
0000
0000
,
1000
0000
0000
0001
1000
0000
0001
0000
0010
0000
0000
0100
0010
0000
0100
0000
,
1000
0000
0000
0010
0000
0000
0001
0000
0000
0100
0000
0000
1000
0001
1000
0001
;
