#TITLE:HIGH BRIGHT NIGHT;
#SUBTITLE:;
#ARTIST:ELISA FIORILLO;
#TITLETRANSLIT:;
#SUBTITLETRANSLIT:;
#ARTISTTRANSLIT:;
#CREDIT:;
#BANNER:HIGH BRIGHT NIGHT.png;
#BACKGROUND:HIGH BRIGHT NIGHT-bg.png;
#LYRICSPATH:HIGH BRIGHT NIGHT.lrc;
#CDTITLE:cdtitle.png;
#MUSIC:HIGH BRIGHT NIGHT.ogg;
#OFFSET:-3.525;
#SAMPLESTART:58.320;
#SAMPLELENGTH:12.000;
#SELECTABLE:YES;
#BPMS:0.000=139.000;
#STOPS:;
#BGCHANGES:;

//---------------dance-single - ----------------
#NOTES:
     dance-single:
     :
     Hard:
     9:
     0.688,0.690,0.341,0.000,0.311: // measure 1
0000
0000
0000
0000
,  // measure 2
0000
0000
0000
0000
,  // measure 3
1100
0000
0101
0000
1001
0000
1000
0100
,  // measure 4
0010
0100
1000
0100
0010
0001
0100
0010
,  // measure 5
1000
0001
1000
0000
0001
0000
1000
0000
0001
1000
0001
0000
1000
0000
0001
0000
,  // measure 6
1000
0001
1000
0000
0001
1000
0001
0000
0100
0010
0100
0000
0010
0100
0010
0000
,  // measure 7
1010
0000
0011
0000
1001
0000
0001
0100
,  // measure 8
0010
0100
0001
0100
0010
1000
0001
0100
,  // measure 9
0001
1000
0001
0000
1000
0000
0001
0000
1000
0001
1000
0000
0001
0000
1000
0000
,  // measure 10
0001
1000
0001
0000
0010
0100
0010
0000
0100
0010
0100
0010
0001
1000
0001
0000
,  // measure 11
1000
0100
0001
0100
1000
0010
1000
0001
,  // measure 12
0100
0010
0001
0010
1000
0100
0010
0000
,  // measure 13
0010
0001
0010
0000
0100
0000
1000
0000
0010
1000
0010
0000
0100
0000
0001
0000
,  // measure 14
0010
0001
0010
0000
0100
1000
0100
0000
0010
0001
0010
0000
0100
1000
0100
0000
,  // measure 15
0001
0100
1000
0010
1000
0100
0001
0100
,  // measure 16
0010
0001
0100
1000
0001
1000
0100
0000
,  // measure 17
0010
1000
0010
0000
0100
0000
0001
0000
0010
0001
0010
0000
0001
0000
1000
0000
,  // measure 18
0001
0100
0001
0000
1000
0100
1000
0000
0001
0010
0001
1000
0010
1000
0001
1000
,  // measure 19
0001
0100
0001
1000
0001
0100
0001
1000
,  // measure 20
0001
0001
0010
0000
1100
0000
0101
0000
,  // measure 21
1000
0100
1000
0001
1000
0010
0100
0000
,  // measure 22
0110
0000
1001
0000
0001
0000
1000
0000
1001
0000
0001
0000
1001
0000
1000
0001
,  // measure 23
1000
0000
0110
0000
1001
0000
1000
0100
,  // measure 24
0001
0000
1000
0000
0001
0000
0100
0000
1000
0000
0001
1000
0001
0010
0001
0100
,  // measure 25
0010
1000
0100
0001
0100
1000
0010
1000
,  // measure 26
0100
0001
0100
1000
0010
1000
0100
0010
,  // measure 27
0001
0100
1000
0100
0001
0010
0001
0100
,  // measure 28
1000
0100
0001
1000
1001
0001
0101
0000
,  // measure 29
0001
0100
1000
0100
0001
0100
1000
0100
,  // measure 30
0001
0010
0100
1000
0010
1000
0100
1000
,  // measure 31
0010
0001
0010
1000
0100
0010
0001
1000
,  // measure 32
0001
0000
0010
0000
0100
0000
1000
0000
0001
0010
0001
0010
0100
1000
0100
1000
,  // measure 33
0001
0000
0101
1000
1001
0000
1000
0100
,  // measure 34
0001
0000
0100
0000
0010
0000
0001
0000
1001
0000
1000
0001
0100
0000
0001
0000
,  // measure 35
1000
0100
0001
1000
0010
0001
1000
0100
,  // measure 36
0001
0000
0100
0000
1000
0000
0001
0000
0100
0000
1000
0100
0001
0000
0100
0000
,  // measure 37
0101
0000
1100
0001
1001
0000
0001
0100
,  // measure 38
1000
0000
0100
0000
0010
0000
1000
0000
1001
0000
0001
1000
0100
0000
1000
0000
,  // measure 39
1010
0010
0100
0001
0010
0100
0010
0001
,  // measure 40
1001
0000
1001
0000
0000
0000
1000
0000
0001
0000
0100
0010
0100
0001
1000
0001
,  // measure 41
1000
0000
0100
0000
0001
0000
0100
0000
1000
0000
0010
1000
0010
0000
0100
0000
,  // measure 42
0010
0000
0100
0000
0001
0000
0010
0000
0100
0000
0010
0001
0010
0000
0100
0000
,  // measure 43
0010
0000
0100
0000
1000
0000
0010
0000
0001
0000
0010
1000
0010
0000
1000
0000
,  // measure 44
0100
0000
0001
0000
0100
0000
0010
0000
0001
0000
0100
1000
0100
0000
0001
0000
,  // measure 45
0100
0000
0010
0000
1000
0000
0100
0000
0010
0000
1000
0010
1000
0000
0010
0000
,  // measure 46
0001
0000
0100
0001
0100
0000
1000
0000
0100
0000
1000
0100
1000
0000
0100
0000
,  // measure 47
0001
0000
1000
0100
0010
0000
0001
0100
0010
0000
1000
0100
0010
0000
0001
0100
,  // measure 48
0010
0000
1000
0100
0010
0000
0001
0100
0010
0000
1000
0100
0010
0001
0100
0010
,  // measure 49
1000
0000
0110
0001
1001
0010
0100
1000
,  // measure 50
0100
0000
0001
0000
0100
0000
1000
0000
0001
0000
0100
0001
1000
0000
0001
0000
,  // measure 51
1001
0000
0110
0001
1001
1000
0010
0001
,  // measure 52
0010
0000
0100
0000
0001
0000
1000
0000
0100
0000
1000
0100
0010
0000
0001
0000
,  // measure 53
1001
0000
0000
0000
0110
0000
0001
0000
1001
0000
1000
0100
0010
0001
1000
0001
,  // measure 54
0010
0000
0000
0000
;

//---------------dance-double - ----------------
#NOTES:
     dance-double:
     :
     Hard:
     9:
     0.638,0.611,0.230,0.000,0.195:
00000000
00000000
00000000
00000000
,
00000000
00000000
00000000
00000000
,
00011000
00000000
00001010
00000000
00000101
00000000
00000001
00000100
,
00001000
00000100
00000001
00001000
00000001
00000010
00000100
00010000
,
00001000
00010000
00001000
00000000
01000000
00000000
00100000
00000000
10000000
00000000
01000000
00000000
00010000
00000000
01000000
00000000
,
10000000
00010000
01000000
00100000
10000000
01000000
00100000
00010000
,
10010000
00000000
00110000
00000000
00011000
00000000
00001000
00000100
,
00000010
00001000
00000100
00000001
00000100
00000010
00000001
00001000
,
00000001
00001000
00000001
00000000
00000100
00000000
00001000
00000000
00010000
00000000
01000000
00000000
00100000
00000000
00010000
00000000
,
01000000
00000000
00100000
00000000
00010000
00000000
00100000
00000000
10000000
00000000
01000000
10000000
01000000
10000000
01000000
00000000
,
10000000
01000000
00010000
01000000
10000000
01000000
00010000
00001000
,
00010000
00000100
00001000
00000001
00000100
00000001
00001000
00000000
,
00000001
00000100
00000010
00001000
00000001
00001000
00000010
00000100
,
00000001
00000000
00000010
00000000
00000100
00000000
00010000
00000000
00001000
00000000
01000000
00010000
10000000
00000000
00010000
00000000
,
00100000
10000000
00100000
00010000
01000000
10000000
01000000
00010000
,
00001000
00000100
00000001
00001000
00000001
00000100
00001000
00000000
,
00000001
00000010
00000100
00001000
00000001
00001000
00000100
00000010
,
00001000
00000000
00010000
00000000
01000000
00000000
00100000
00000000
00010000
00000000
10000000
00010000
01000000
00000000
00010000
10000000
,
01000000
10000000
01000000
00010000
01000000
10000000
00100000
01000000
,
00001000
00010000
00000100
00001000
00000001
00000000
00000011
00000000
,
00000001
00000010
00000100
00000010
00000001
00000100
00000010
00010000
,
00011000
00000000
00011000
00000000
00000000
00000000
01000000
00000000
10000000
00000000
01000000
00000000
00010000
00000000
01000000
00100000
,
01000000
00000000
01010000
00000000
11000000
00000000
10000000
01000000
,
00010000
00000000
00001000
00000000
00010000
00000000
01000000
00000000
10000000
00000000
00010000
10000000
00010000
10000000
00100000
00000000
,
10000000
01000000
00010000
01000000
10000000
01000000
00010000
01000000
,
10000000
00100000
10000000
01000000
10000000
00100000
10000000
01000000
,
10000000
00100000
00010000
00001000
00000100
00000001
00000010
00001000
,
00010000
00001000
00000010
00000001
00000100
00000001
00001000
00000000
,
00000001
00000100
00001000
00000100
00000001
00000100
00001000
00000100
,
00000001
00000010
00000001
00000100
00000000
00000100
00001000
00010000
,
01000000
10000000
00100000
10000000
01000000
00010000
00001000
00000010
,
00000001
00000000
00000100
00000000
00000001
00000000
00000010
00000000
00001000
00010000
00001000
00010000
00001000
00100000
00010000
00100000
,
00010000
00000000
00110000
00000000
10100000
00000000
00100000
10000000
,
01000000
00000000
00010000
00000000
00001000
00000000
00000100
00000000
00000001
00000000
00001000
00000001
00000100
00000000
00001000
00000000
,
00000001
00000010
00001000
00000001
00000100
00001000
00000001
00000010
,
00001000
00000000
00010000
00000000
01000000
00000000
00100000
00000000
10000000
00000000
00010000
10000000
01000000
00000000
00100000
00000000
,
00110000
00000000
00011000
00000000
00001100
00000000
00001000
00000001
,
00000010
00000000
00001000
00000000
00000010
00000000
00000001
00000000
00000100
00000000
00001000
00000100
00000010
00000000
00000100
00000000
,
00001000
00000100
00000001
00000100
00010000
01000000
00100000
10000000
,
10010000
00000000
10010000
00000000
00000000
00000000
10000000
00010000
01000000
00000000
00010000
10000000
00010000
10000000
00010000
10000000
,
01000000
10000000
00100000
10000000
01000000
00100000
00001000
00010000
,
00000100
00000000
00000010
00000000
00000001
00000000
00000100
00000000
00000001
00000000
00000010
00000100
00001000
00000000
00000100
00000000
,
00010000
01000000
00100000
10000000
10000000
00010000
10000000
00100000
,
00001000
00000000
00010000
00000000
00000100
00000000
00001000
00000000
00000001
00000000
00000010
00000100
00001000
00000000
00000001
00000000
,
00000010
00001000
00000010
00000001
00000100
00001000
00010000
01000000
,
10000000
00000000
01000000
00000000
00010000
00000000
00001000
00000000
00000100
00000000
00000001
00000100
00001000
00000000
00010000
00000000
,
00100000
10000000
01000000
00010000
00001000
00000010
00000001
00000100
,
00001000
00000000
00010000
00000000
00100000
00000000
10000000
00000000
00010000
00000000
10000000
00010000
10000000
00010000
10000000
00000000
,
11000000
00000000
10000000
00010000
01000000
00000000
00010000
01000000
00001000
00000000
00010000
00000100
00001000
00000000
00000010
00000000
,
00000100
00000000
00000001
00000000
00001000
00000000
00001001
00000000
00000000
00000000
00000001
00001000
00000001
00000000
00000100
00000000
,
00000101
00000000
00000001
00001000
00000100
00000000
00001000
00000100
00010000
00000000
00001000
00100000
00010000
00000000
01000000
00000000
,
00100000
00000000
10000000
00000000
00010000
00000000
10010000
00000000
00000000
00000000
10000000
00010000
10000000
00000000
00010000
00000000
,
00110000
00000000
00100000
00001000
00010000
00000000
00001000
00010000
00000010
00000000
00001000
00000001
00001000
00000100
00000010
00000001
,
00001000
00000000
00000000
00000000
;

//---------------dance-single - ----------------
#NOTES:
     dance-single:
     :
     Medium:
     7:
     0.538,0.504,0.571,0.000,0.020: // measure 1
0000
0000
0000
0000
,  // measure 2
0000
0000
0000
0000
,  // measure 3
1001
0000
1010
0000
1100
0000
1000
0100
,  // measure 4
0010
0001
0000
0011
0000
0001
1000
0001
,  // measure 5
0010
0100
0010
0000
0001
0000
0100
0000
,  // measure 6
1000
0100
0001
0000
1000
0100
0010
0000
,  // measure 7
0011
0000
1001
0000
0101
0000
0001
0100
,  // measure 8
0010
1000
0000
1010
0000
1000
0001
1000
,  // measure 9
0010
0100
0010
0000
0001
0000
0010
0000
,  // measure 10
1000
0010
0100
0001
0100
0010
1000
0001
,  // measure 11
1001
0000
0001
0010
0001
1000
0001
0100
,  // measure 12
0010
1000
0001
1000
0010
0100
0001
0000
,  // measure 13
1000
0100
0001
0000
0001
0100
1000
0000
,  // measure 14
0001
0100
1000
0000
1000
0100
0001
0000
,  // measure 15
1000
0100
1000
0001
1000
0010
0100
0001
,  // measure 16
1000
1000
0100
0010
0100
1000
0001
0000
,  // measure 17
0001
0100
1000
0000
1000
0100
0001
0000
,  // measure 18
1000
0100
0001
0000
0001
0100
1000
0001
,  // measure 19
1000
0010
1000
0100
1000
0010
1000
0100
,  // measure 20
0010
0001
0101
1100
,  // measure 21
0001
0100
0001
0010
0001
0100
0001
0010
,  // measure 22
1000
1000
0000
0010
0001
0100
1000
0100
,  // measure 23
0001
0000
1001
0000
1000
0000
0100
1000
,  // measure 24
0010
0001
0000
0110
0000
0100
0001
1000
,  // measure 25
0001
0010
1000
0010
0001
0000
0001
0100
,  // measure 26
1000
0001
1000
0100
0010
0000
0010
1000
,  // measure 27
1010
0000
0011
0000
1001
0000
1000
0100
,  // measure 28
0001
0100
0010
0001
0100
1000
0100
0000
,  // measure 29
0101
0001
1000
0001
0100
0010
1000
0000
,  // measure 30
1000
0100
0001
1000
0000
1000
0010
0001
,  // measure 31
0100
1000
0001
1000
0000
1000
0100
0010
,  // measure 32
1000
0000
1000
0000
0000
0000
0001
0000
1000
0000
0001
0000
1000
0001
1000
0000
,  // measure 33
1100
0000
0101
0000
1001
0000
1000
0100
,  // measure 34
0010
0001
0000
1001
0000
0001
1000
0001
,  // measure 35
1000
0100
0001
1000
0010
0001
1000
0100
,  // measure 36
0001
0100
1000
0001
0000
0000
0001
0100
,  // measure 37
0101
0000
1100
0000
1001
0000
1000
0010
,  // measure 38
0100
0001
0000
1001
0000
0001
1000
0001
,  // measure 39
1000
0010
0001
1000
0100
0001
0100
0010
,  // measure 40
1000
1000
0000
0100
0001
0100
1000
0100
,  // measure 41
0010
0000
0011
0000
0101
0000
0001
1000
,  // measure 42
0001
0010
0000
0110
0000
0100
1000
0001
,  // measure 43
0011
0000
1010
0000
1001
0000
0001
0100
,  // measure 44
0010
1000
0000
1001
0001
0100
1000
0100
,  // measure 45
0101
0000
0011
0000
1001
0000
1000
0100
,  // measure 46
0010
0001
0000
1001
0000
0001
0100
0010
,  // measure 47
1100
0011
0110
1001
,  // measure 48
0011
0000
1001
0000
1100
0000
1001
0010
,  // measure 49
1010
0011
0101
0011
,  // measure 50
1010
1000
0100
0001
0100
1000
0001
0000
,  // measure 51
0101
1100
1010
0011
,  // measure 52
0101
0100
1000
0100
0010
1000
0100
0000
,  // measure 53
1100
0000
0000
0000
0101
0000
0000
0000
1001
0000
1000
0001
1000
0001
1000
0001
,  // measure 54
1000
0000
0000
0000
;

//---------------dance-double - ----------------
#NOTES:
     dance-double:
     :
     Medium:
     8:
     0.578,0.557,0.551,0.000,0.015:
00000000
00000000
00000000
00000000
,
00000000
00000000
00000000
00000000
,
00011000
00000000
00110000
00000000
11000000
00000000
10000000
01000000
,
00010000
00000010
00000000
00000100
00000000
00000100
00001000
00000100
,
00000001
00000010
00000001
00000010
00000100
00001000
00000100
00001000
,
00010000
00100000
00010000
00100000
01000000
10000000
01000000
10000000
,
10010000
00000000
10100000
00000000
01010000
00000000
01000000
00001000
,
00000100
00000010
00000000
00001000
00000000
00001000
00000001
00001000
,
00000010
00010000
00000010
00010000
00001000
00100000
00001000
00100000
,
00010000
01000000
00010000
01000000
00000100
00001000
00000100
00001000
,
00001001
00000000
00000001
00000100
00001000
00000100
00000001
00001000
,
00000001
00000010
00001000
00010000
00001000
00000010
00000100
00010000
,
00001000
00010000
00001000
00010000
00100000
00010000
00100000
00010000
,
00001000
00010000
00001000
00010000
00001000
00000100
00000001
00000100
,
00001000
00010000
00001000
00100000
00010000
01000000
00100000
10000000
,
01000000
00010000
00001000
00010000
01000000
00100000
00010000
00000000
,
10000000
00010000
10000000
00010000
00100000
01000000
00100000
01000000
,
00010000
00001000
00010000
00001000
00000100
00000001
00000100
00000010
,
00001000
00000100
00000001
00000100
00001000
00000100
00000010
00000001
,
00001000
00001000
00001001
00000000
00000110
00000000
00011000
00000000
,
10010000
00010000
10000000
01000000
00010000
01000000
10000000
00100000
,
00010000
00010000
00000000
00001000
00000100
00001000
00010000
01000000
,
00010000
00000000
00011000
00000000
00000110
00000000
00001001
00000001
,
00000010
00001000
00010000
01000000
00000000
10000000
01000000
10000000
,
00100000
00010000
00100000
10000000
01000000
00000000
00010000
00001000
,
00000100
00000001
00000010
00001000
00000010
00000000
00001000
00000010
,
00000011
00000000
00000101
00000000
00001001
00000000
00000001
00000100
,
00001000
00010000
01000000
10000000
10100000
00000000
11000000
00000000
,
10010000
10000000
00100000
01000000
00001000
00010000
00000100
00000000
,
00000010
00000100
00001000
00000001
00000000
00000100
00001000
00010000
,
00100000
00100000
10000000
01000000
00000000
11000000
00010000
01000000
,
00000000
01000000
00001000
00010000
00000100
00001000
00000001
00000100
,
00000101
00000000
00001100
00010000
00011000
00000000
00001000
00010000
,
01000000
01000000
10000000
00010000
00000000
00010000
10000000
00010000
,
10000000
01000000
00010000
10000000
00100000
00010000
10000000
01000000
,
00010000
00001000
00000010
00000001
00001000
00000100
00000001
00000100
,
00001100
00000000
00000101
00001000
00001001
00000000
00000001
00000100
,
00000010
00000010
00001000
00000001
00000000
00000001
00001000
00000001
,
00000100
00001000
00010000
00100000
10000000
00010000
10000000
01000000
,
00100000
00100000
00000000
01000000
10000000
01000000
00010000
01000000
,
10000000
00000000
11000000
00000000
01010000
00000000
01000000
00001000
,
00010000
00000100
00001000
00001010
00000000
00000010
00000100
00000001
,
00000011
00000000
00001010
00000000
00011000
00000000
00010000
00001000
,
00100000
10000000
00100000
00001000
00000100
00000001
00000100
00000010
,
00001010
00000000
00000011
00000000
00001001
00000001
00000100
00001000
,
00011000
00001000
00010000
01000000
01010000
01000000
10000000
01000000
,
11000000
01010000
00001100
00000101
,
00000011
00001010
00011000
01100000
,
10010000
00000000
11000000
00000000
01010000
00000000
00010000
10000000
,
01000000
00010000
00001000
00000100
00000001
00000010
00000001
00001000
,
00001001
00000000
00011000
00000000
01100000
00000000
00100000
00010000
,
01000000
10000000
01000000
00001000
00000100
00000001
00000010
00000100
,
00000110
00000000
00000000
00000000
00001001
00000000
00000000
00000000
00011000
00000000
00010000
00001000
00010000
00001000
00010000
00001000
,
00010000
00000000
00000000
00000000
;

//---------------dance-double - ----------------
#NOTES:
     dance-double:
     :
     Easy:
     6:
     0.372,0.478,0.521,0.000,0.000:
00000000
00000000
00000000
00000000
,
00000000
00000000
00000000
00000000
,
00011000
01100000
10010000
10000000
,
01000000
00010000
00001000
00010000
,
00000010
00000010
00000100
00000000
,
00000001
00000010
00001000
00010000
,
00011000
00000110
00001001
00000001
,
00000100
00001000
00010000
00001000
,
00100000
00100000
01000000
00000000
,
10000000
01000000
00010000
00001000
,
00000010
00000100
00001000
00000100
,
00000001
00000100
00010000
00001000
,
00100000
00000000
01000000
00000000
,
10000000
00100000
00010000
00001000
,
00000100
00000001
00000100
00001000
,
00000100
00000001
00001000
00000001
,
00000010
00000000
00001000
00000000
,
00010000
01000000
10000000
00010000
,
10000000
00100000
00010000
00001000
,
00010000
00100000
10000000
10010000
,
10000000
01000000
00010000
00001000
,
00010000
00010000
00000000
00000000
00001000
00000000
00000100
00000000
,
00001001
00000110
00011000
00010000
,
01000000
10000000
00010000
10000000
,
01000000
00010000
01000000
10000000
,
01000000
00000000
00010000
00000000
01000000
00000000
10000000
01000000
,
00010000
00000000
00001000
00000000
00000100
00000000
00000001
00000100
,
00001000
00010000
01000000
10000000
,
00100000
00010000
00100000
10000000
,
00100000
00010000
00001000
00000100
00000000
00000000
00000001
00000000
,
00000010
00001000
00010000
00000000
01000000
00000000
10000000
00100000
,
00010000
00001000
00000100
00000001
,
00001001
00000110
00011000
01100000
,
10010000
00010000
10000000
00010000
,
11000000
00010000
01010000
00001000
,
00011000
00000100
00001100
00000001
,
00001001
00000110
00011000
01100000
,
10010000
01100000
00011000
00000110
,
00001001
00000001
00000100
00001000
,
00010000
00010000
00000000
00000000
00001000
00000000
00010000
00000000
,
01000000
10000000
01000000
00010000
,
00001000
00000100
00000001
00000100
,
00001000
00010000
00100000
10000000
,
01000000
00010000
00001000
00000010
,
00000001
00000000
00000100
00000000
00000100
00000001
00000100
00001000
,
00000000
10000000
01000000
00010000
00000000
00000001
00000100
00001000
,
00000000
00011000
01100000
00011000
,
00000110
00011000
01100000
00011000
,
00001100
00000101
00001001
00000001
,
00000110
00001010
00010010
00011000
,
00110000
10100000
10010000
00010000
,
00110000
00101000
00011000
00010000
,
00010010
00000000
00001010
00000000
00001001
00000000
00000100
00010000
,
00011000
00000000
00000000
00000000
;

//---------------dance-single - ----------------
#NOTES:
     dance-single:
     :
     Easy:
     5:
     0.325,0.425,0.300,0.000,0.000: // measure 1
0000
0000
0000
0000
,  // measure 2
0000
0000
0000
0000
,  // measure 3
1000
0010
0100
0010
,  // measure 4
1000
0000
0001
0000
,  // measure 5
1000
1000
0100
0000
,  // measure 6
0001
0100
1000
0000
,  // measure 7
0001
0010
0100
0010
,  // measure 8
0001
0000
1000
0000
,  // measure 9
0001
0001
0100
0000
,  // measure 10
1000
0100
0001
0100
,  // measure 11
0010
1000
0100
1000
,  // measure 12
0010
1000
0100
0010
,  // measure 13
0001
0100
0001
0000
,  // measure 14
1000
0100
1000
0000
,  // measure 15
0001
0010
0001
0100
,  // measure 16
0001
0010
0001
0100
,  // measure 17
0010
1000
0001
0000
,  // measure 18
0010
0001
1000
0000
,  // measure 19
0010
1000
0010
1000
,  // measure 20
0100
0001
1000
0001
,  // measure 21
0100
1000
0100
1000
,  // measure 22
0001
0001
0000
0000
1000
0000
0001
0000
,  // measure 23
0101
1100
1001
1000
,  // measure 24
0001
1000
0100
1000
,  // measure 25
1000
0100
0001
0100
,  // measure 26
1000
0000
0100
0000
0001
0000
0001
0100
,  // measure 27
1000
0000
0010
0000
0100
0000
0001
1000
,  // measure 28
0001
1000
1001
0110
,  // measure 29
0001
0010
1000
0010
,  // measure 30
0001
0100
1000
0100
0000
0000
0001
0000
,  // measure 31
0010
0000
0010
0000
0000
0100
1000
0001
,  // measure 32
0000
1000
0001
0011
,  // measure 33
1010
1100
1010
1100
,  // measure 34
1000
0001
0000
0100
0000
0000
0000
0000
,  // measure 35
0001
0100
1000
0100
,  // measure 36
0001
0010
1000
0010
,  // measure 37
0011
0101
0011
0101
,  // measure 38
0001
1000
0000
0100
0000
0000
0000
0000
,  // measure 39
1000
0100
0010
0001
,  // measure 40
1000
1000
0000
0000
0001
0000
1000
0100
,  // measure 41
0001
0100
1000
0001
,  // measure 42
1000
0010
0100
0100
,  // measure 43
0001
0010
0100
1000
,  // measure 44
0001
0000
1000
0000
0100
0000
0001
0100
,  // measure 45
1000
0001
0100
1000
,  // measure 46
0100
0001
0100
1000
,  // measure 47
0100
0001
0101
0101
,  // measure 48
1001
1001
1100
1100
,  // measure 49
1010
1001
1100
1000
,  // measure 50
0001
0100
0000
0010
0000
0000
1000
0000
,  // measure 51
1010
1001
1100
1000
,  // measure 52
0100
0010
0000
0001
0000
0000
0001
0000
,  // measure 53
0011
1001
0101
1000
,  // measure 54
1001
0000
0000
0000
;
