#TITLE:ChaserXX;
#SUBTITLE:;
#ARTIST:HuΣeR;
#TITLETRANSLIT:;
#SUBTITLETRANSLIT:;
#ARTISTTRANSLIT:;
#GENRE:;
#CREDIT:;
#BANNER:[Flashback to 1999] - ChaserXX.png;
#BACKGROUND:[Flashback to 1999] - ChaserXX-bg.png;
#LYRICSPATH:;
#CDTITLE:;
#MUSIC:[Flashback to 1999] - ChaserXX.ogg;
#OFFSET:0.180000;
#SAMPLESTART:83.883057;
#SAMPLELENGTH:13.726051;
#SELECTABLE:YES;
#BPMS:0.000000=139.880005
;
#STOPS:
;
#BGCHANGES:;
#KEYSOUNDS:;
#ATTACKS:;

//---------------dance-single - ----------------
#NOTES:
     dance-single:
     :
     Hard:
     8:
     0.427812,0.490989,0.077382,0.000000,0.212801,387.000000,377.000000,10.000000,0.000000,0.000000,0.000000,0.427812,0.490989,0.077382,0.000000,0.212801,387.000000,377.000000,10.000000,0.000000,0.000000,0.000000:
// measure 0
0000
0000
0000
0000
,  // measure 1
0000
0000
0000
0000
,  // measure 2
0000
0000
0000
0000
,  // measure 3
0000
0000
0000
0000
,  // measure 4
0000
0000
0000
0000
,  // measure 5
0001
0000
0001
0000
,  // measure 6
1000
0000
1000
0000
,  // measure 7
0010
0000
0010
0000
,  // measure 8
0100
0000
0100
0000
,  // measure 9
1001
0000
0001
0000
1000
0010
0100
0000
,  // measure 10
0001
0000
1000
0000
0010
0100
0001
0000
,  // measure 11
0010
0000
0001
0000
1000
0001
0010
0000
,  // measure 12
0100
0000
1000
0000
0001
0100
0010
0000
,  // measure 13
0000
1000
0010
0100
0000
0010
1000
0001
,  // measure 14
0000
0010
0100
1000
0000
0100
0010
0001
,  // measure 15
0000
0010
0001
0100
0000
0010
1000
0100
,  // measure 16
0000
0010
0001
1000
0001
0010
1000
0010
,  // measure 17
0001
0000
1001
0000
0001
1000
0001
0000
,  // measure 18
0100
0000
0010
0000
1000
0010
0100
0000
,  // measure 19
0001
0010
0001
0000
0010
0000
0001
0000
,  // measure 20
1000
0010
1000
0000
0001
0100
1000
0000
,  // measure 21
0100
0010
0100
0000
0001
0100
0001
0000
,  // measure 22
0010
0001
0010
0000
0001
1000
0001
0000
,  // measure 23
1000
0000
0001
0000
1000
0010
0100
0000
,  // measure 24
0010
0100
0001
1000
0100
0001
0100
1000
,  // measure 25
0001
0000
1010
0000
1000
0000
0001
0010
,  // measure 26
0100
0010
0001
0010
0100
0010
0001
1000
,  // measure 27
0010
1000
0001
1000
0010
1000
0001
0100
,  // measure 28
0010
0100
0001
0100
0010
0100
0001
1000
,  // measure 29
0100
0000
0000
0000
0000
0000
0000
0000
1000
0000
0000
0010
0000
0000
0100
0000
,  // measure 30
0001
0000
0000
0000
0010
0001
1000
0010
,  // measure 31
0100
0000
0000
0000
0000
0000
0000
0000
0010
0000
0000
1000
0000
0000
0001
0000
,  // measure 32
0010
0000
0000
0000
0100
0010
0001
1000
,  // measure 33
0010
0000
1001
0000
0000
0000
1000
0010
,  // measure 34
0100
0010
1000
0010
0100
0010
1000
0001
,  // measure 35
0100
0001
1000
0001
0100
0001
1000
0100
,  // measure 36
0010
0100
1000
0100
0010
0100
1000
0001
,  // measure 37
0100
0000
0000
0000
0000
0000
0000
0000
0010
0000
0000
1000
0000
0000
0001
0000
,  // measure 38
0010
0000
0000
0000
0000
0100
0010
0001
,  // measure 39
1000
0000
0000
0000
0000
0000
0000
0000
0001
0000
0000
0100
0000
0000
0010
0000
,  // measure 40
0100
0000
0000
0000
0000
0000
0010
0100
0010
1000
0001
1000
,  // measure 41
0001
0000
0000
1000
0000
0010
0000
0010
0000
0000
0000
0000
0000
0000
0000
0000
,  // measure 42
0100
0000
0000
0000
0000
0001
0000
0000
0010
0100
0000
0000
0000
0000
0000
0000
,  // measure 43
0010
0000
0000
0001
0000
0000
1000
0000
0000
0001
1000
0000
0001
0000
1000
0000
,  // measure 44
0000
0010
0100
0000
0001
0000
1000
0000
0100
0000
0000
0000
0000
1001
0000
0000
,  // measure 45
0001
1000
0010
0100
0000
0010
1000
0001
,  // measure 46
0000
0010
0100
1000
0000
0010
0001
0100
,  // measure 47
0000
0010
1000
0001
0000
0010
0001
0100
,  // measure 48
0000
0010
1000
0001
1000
0100
0001
0100
,  // measure 49
1000
0000
0000
0000
0001
0010
0000
0000
0100
1000
0000
0000
0001
0010
0000
0000
,  // measure 50
0100
1000
0000
0000
0001
0010
0000
0000
0100
1000
0000
0000
0001
0000
0100
0000
,  // measure 51
0010
0000
0000
0000
1000
0100
0000
0000
0010
0001
0000
0000
1000
0100
0000
0000
,  // measure 52
1000
0100
0001
0100
0010
0001
0100
0010
,  // measure 53
1000
0000
0100
0000
0010
0001
0000
0000
1000
0000
0001
0000
0010
0000
0001
0000
,  // measure 54
1000
0000
0100
0000
0010
0000
0100
0000
0000
0010
0000
0000
0001
0000
0100
0000
,  // measure 55
0010
0000
0000
0000
1000
0001
0000
0000
0010
0001
0000
0000
1000
0100
0000
0000
,  // measure 56
1010
0000
0000
0100
0000
0000
0001
0000
1001
0000
0000
0000
0110
0000
0000
0000
,  // measure 57
1001
0000
0000
0000
0001
0010
0000
0000
0010
0100
0000
0000
0100
1000
0000
0000
,  // measure 58
1000
0010
0000
0000
0010
0100
0000
0000
0100
0001
0000
0000
0001
0000
0010
0000
,  // measure 59
0100
0000
0000
0000
0010
0001
0000
0000
0001
0100
0000
0000
0100
0010
0000
0000
,  // measure 60
0010
1000
0010
0100
0001
0000
1000
0000
,  // measure 61
0100
0000
0000
0000
0010
0001
0000
0000
0001
0100
0000
0000
0100
0010
0000
0000
,  // measure 62
0010
1000
0000
0000
1000
0001
0000
0000
0001
0010
0000
0000
0100
0000
1000
0000
,  // measure 63
0001
0000
0000
0000
1000
0000
0000
0001
0010
0000
0000
0000
0001
0000
0000
1000
,  // measure 64
0010
0000
0000
0000
0000
0000
0000
0000
0000
0010
0000
0000
0100
0000
0000
0000
0000
0000
0000
0000
0000
0100
0000
0000
0001
0000
0000
0000
0010
0000
0000
0000
0100
0000
0000
0000
0010
0000
0000
0000
0001
0000
0000
0000
1000
0000
0000
0000
,  // measure 65
0010
0100
0001
0010
0000
0100
1000
0010
,  // measure 66
0000
0100
0001
0010
1000
0010
1001
0000
,  // measure 67
0010
0000
0010
0000
,  // measure 68
0010
0000
0100
0000
,  // measure 69
0010
0000
0010
0000
,  // measure 70
0010
0000
1000
0000
;

//---------------dance-single - ----------------
#NOTES:
     dance-single:
     :
     Medium:
     6:
     0.292946,0.490989,0.085120,0.000000,0.069644,265.000000,254.000000,11.000000,0.000000,0.000000,0.000000,0.292946,0.490989,0.085120,0.000000,0.069644,265.000000,254.000000,11.000000,0.000000,0.000000,0.000000:
0000
0000
0000
0000
,
0000
0000
0000
0000
,
0000
0000
0000
0000
,
0000
0000
0000
0000
,
0000
0000
0000
0000
,
1000
0000
1000
0000
,
0001
0000
0001
0000
,
0100
0000
0100
0000
,
0010
0000
0010
0000
,
1001
0000
0000
0000
0001
1000
0010
0000
,
1000
0000
0000
0000
0100
0010
0001
0000
,
0010
0000
0000
0000
0001
1000
0100
0000
,
1000
0000
0000
0000
0100
1000
0010
0000
,
0100
0010
1000
0001
,
0010
0001
0100
0010
,
1000
0010
0100
0010
,
1000
0000
0001
0000
1000
0100
0010
0001
,
1000
1001
0001
0100
,
0001
0010
0001
1000
,
0001
0100
0010
1000
,
0010
0000
0100
0000
0010
1000
0100
0000
,
1000
0010
0100
0001
,
0010
0001
1000
0100
,
1000
0000
0010
0000
0100
0100
0001
0000
,
0010
0000
0100
0000
0010
0001
1000
0010
,
0100
1001
0001
1000
,
0010
1000
0001
0010
,
0001
1000
0100
1000
,
0010
0100
0001
1000
,
0100
0000
1000
0010
,
0100
0000
0010
0100
,
0001
0000
0010
0001
,
1000
0000
0000
0000
0001
1000
0010
0100
,
0001
1001
1000
0001
,
0010
0001
0100
0010
,
1000
0010
0100
0001
,
1000
0100
1000
0010
,
0100
0000
0010
1000
,
0001
0000
0010
0001
,
1000
0000
0100
1000
,
0010
0000
0100
0010
,
1000
0000
0001
0000
,
0100
0000
0010
0000
,
1000
0000
0001
0000
,
0010
0000
0000
0000
0000
0000
0000
0000
0100
0000
0000
0000
0000
0010
0000
0000
,
0001
1000
0010
1000
,
0100
1000
0010
0100
,
0001
0010
1000
0010
,
0001
0000
0100
0000
0010
0100
0001
1000
,
1001
1000
1000
1000
,
1000
1000
1000
0001
,
1000
0010
0010
0010
,
0100
0010
1000
0001
,
0010
0100
0010
0100
,
0010
0001
0010
1000
,
0010
0100
0100
0100
,
0010
0000
0000
1000
0000
0000
0001
0000
1001
0000
0000
0000
0110
0000
0000
0000
,
1001
0000
0000
0000
0000
0000
0000
0001
0100
0000
0000
0000
0000
0000
0000
1000
,
0100
0000
0000
0000
0000
0000
0000
1000
0001
0000
0000
0000
0000
0000
0000
0000
,
0100
0000
0000
0000
0000
0000
0000
0010
1000
0000
0000
0000
0000
0000
0000
0001
,
0100
0000
0001
0010
0001
0000
0000
0000
,
1001
0000
0000
0000
0000
0000
0000
1000
0001
0000
0000
0000
0000
0000
0000
0100
,
0001
0000
0000
0000
0000
0000
0000
0010
0100
0000
0000
0000
0000
0000
0000
0000
,
1001
0000
0000
0000
0000
0000
0000
1000
0010
0000
0000
0000
0000
0000
0000
0010
,
0100
0000
0000
0000
0000
0000
0000
0000
0000
0010
0000
0000
1000
0000
0000
0000
0000
0000
0000
0000
0000
0001
0000
0000
0100
0000
0000
0000
0010
0000
0000
0000
0100
0000
0000
0000
0010
0000
0000
0000
0100
0000
0000
0000
0010
0000
0000
0000
,
0100
0010
1000
0100
0000
0010
0001
0100
,
0000
0010
1000
0100
0010
0001
0010
0100
,
1001
0000
0001
0000
,
0001
0000
0001
0000
,
1000
0000
1000
0000
,
1000
0000
1000
0000
;

//---------------dance-single - ----------------
#NOTES:
     dance-single:
     :
     Easy:
     3:
     0.185717,0.272772,0.108335,0.000000,0.000000,168.000000,154.000000,14.000000,0.000000,0.000000,0.000000,0.185717,0.272772,0.108335,0.000000,0.000000,168.000000,154.000000,14.000000,0.000000,0.000000,0.000000:
0000
0000
0000
0000
,
0000
0000
0000
0000
,
0000
0000
0000
0000
,
0000
0000
0000
0000
,
0000
0000
0000
0000
,
1000
0000
0000
0000
,
0001
0000
0000
0000
,
0100
0000
0000
0000
,
0010
0000
0100
0000
,
1001
0000
0001
0000
,
1000
0000
0010
0000
,
1000
0000
0001
0000
,
0010
0000
0001
0000
,
0000
1000
0000
1000
,
0000
0001
0000
0001
,
0000
0100
0000
0100
,
0000
0010
0100
1001
,
0110
0010
0000
0100
,
0000
0010
0000
1000
,
0001
0000
0010
0000
,
0001
0000
1000
0001
,
0100
0000
0010
0000
,
1000
0000
0010
1000
,
0100
0000
1000
0000
,
0001
0000
1000
0001
,
0110
0000
0000
0010
,
0000
1000
0000
0001
,
0000
0010
0000
0001
,
0000
1000
0000
0100
,
1000
0000
0010
0100
,
0010
0000
0100
0000
,
0001
0000
0010
0001
,
0010
0000
0001
1000
,
0010
1000
0000
0100
,
1000
0100
0010
0001
,
1000
0000
0001
0000
,
0100
0010
1000
0001
,
0010
0000
0001
1000
,
0001
0000
0100
0000
,
0010
0000
1000
0010
,
1000
0000
0001
0000
,
1001
0000
0000
0000
,
0010
0000
0000
0000
,
0100
0000
0000
0000
,
0001
0000
1000
0000
,
0001
0000
0001
0000
,
1000
0000
1000
0000
,
0010
0000
0010
0000
,
0100
0000
0100
0110
,
1001
0000
0001
0000
,
1000
0000
0010
1000
,
0100
0000
1000
0000
,
0001
0100
0001
0100
,
0010
0000
1000
0100
,
0010
0001
0010
0100
,
1000
0000
0100
0000
,
1000
0001
0100
0010
,
1001
0000
0001
0000
,
1000
0000
0010
0000
,
1000
0000
0100
0000
,
1000
0001
0100
0000
,
0010
0000
0100
0000
,
0001
0000
1000
0000
,
0100
0000
1000
0000
,
0010
0100
1001
0110
,
1001
0000
0001
0000
,
1000
0000
0110
1001
,
0110
0000
0010
0000
,
0010
0000
0010
0000
,
0100
0000
0100
0000
,
0100
0000
0100
0000
;
