#TITLE:Blue Goose;
#SUBTITLE:;
#ARTIST:Mutsuhiko Izumi;
#TITLETRANSLIT:;
#SUBTITLETRANSLIT:;
#ARTISTTRANSLIT:;
#GENRE:;
#CREDIT:;
#BANNER:[Flashback to 1999] - Blue Goose.png;
#BACKGROUND:[Flashback to 1999] - Blue Goose-bg.png;
#LYRICSPATH:;
#CDTITLE:;
#MUSIC:[Flashback to 1999] - Blue Goose.mp3;
#OFFSET:1.175000;
#SAMPLESTART:10.825000;
#SAMPLELENGTH:14.400002;
#LASTBEATHINT:0.583333;
#SELECTABLE:YES;
#BPMS:0.000000=200.000000
,240.000000=50.000000
,247.000000=100.000000
,251.000000=200.000000
;
#STOPS:
;
#BGCHANGES:;
#KEYSOUNDS:;
#ATTACKS:;

//---------------dance-single - ----------------
#NOTES:
     dance-single:
     :
     Challenge:
     10:
     1.155636,2.161281,0.804710,0.000000,0.957181,955.000000,860.000000,95.000000,0.000000,0.000000,0.000000,1.155636,2.161281,0.804710,0.000000,0.957181,955.000000,860.000000,95.000000,0.000000,0.000000,0.000000:
0000
0000
0000
0000
,
0000
0000
0000
0000
,
0000
0000
0000
0000
,
0000
0000
0000
0000
,
1100
1100
0011
0011
,
0100
0000
1000
0000
0100
0000
1000
0000
0100
0000
0001
0000
0100
0000
0001
0010
,
1000
0000
0010
0000
1000
0000
0010
0000
1000
0000
0001
0000
1000
0000
0001
0100
,
1000
0000
0010
0000
1000
0000
0010
0000
1000
0000
0100
0000
1000
0000
0100
0001
,
0010
0001
0010
0001
0010
0100
0010
0100
,
0100
0010
0100
0010
0001
1000
0001
1000
0010
0100
0010
0100
1000
0000
1000
0000
,
0100
0100
0100
1100
0000
0100
0010
0001
,
0010
0010
0010
0011
0000
0010
0100
1000
,
0010
0010
0010
1010
0000
0010
0100
0001
,
0100
1000
0100
0001
0100
1000
0100
0001
0100
1000
0100
0001
0100
0000
1010
0000
,
0010
0010
0010
1010
0000
0010
0100
0001
,
0100
0100
0100
0101
0000
0100
0010
1000
,
0100
0100
0100
1100
0000
0100
0010
0001
,
0010
1000
0010
0001
0010
1000
0010
0001
0010
1000
0010
0001
0010
0000
1100
0000
,
0100
0000
0100
0000
0100
0000
1100
0000
0000
0000
0100
1000
0010
1000
0001
1000
,
0010
0000
0010
0000
0010
0000
0011
0000
0000
0000
0010
0001
0100
0001
1000
0001
,
0010
0000
0010
0000
0010
0000
1010
0000
0000
0000
0010
1000
0100
1000
0001
0010
,
0100
1000
0100
0001
0100
1000
0100
0001
0100
1000
0100
0001
0100
0000
1010
0000
,
0010
0000
0010
0000
0010
0000
1010
0000
0000
0000
0010
1000
0100
1000
0001
1000
,
0100
0000
0100
0000
0100
0000
0101
0000
0000
0000
0100
0001
0010
0001
1000
0001
,
0100
0000
0100
0000
0100
0000
1100
0000
0000
0000
0100
1000
0010
1000
0001
0100
,
0010
1000
0010
0001
0010
1000
0010
0001
0010
1000
0010
0001
0010
0000
1100
0000
,
0011
0000
0011
0000
0011
0100
0010
0100
,
1100
0000
1100
0000
1100
0010
0100
0010
,
0011
0100
0010
0100
1100
0010
0100
0010
,
0010
0001
0010
0001
0100
1000
0100
1000
0001
0010
0001
0010
1100
0000
1100
0000
,
1010
0000
1010
0000
1010
0100
0010
0100
,
0101
0000
0101
0000
0101
0010
0100
0010
,
1010
0100
0010
0100
0101
0010
0100
0010
,
0010
1000
0010
1000
0100
0001
0100
0001
1000
0010
1000
0010
0100
0001
0100
0001
,
0010
1000
0001
0100
0010
1000
0001
0100
0010
1000
0001
0100
0010
1000
0001
0100
,
0010
0000
0010
0000
0010
0000
0011
0000
0000
0000
0100
0000
1000
0100
1000
0000
,
0100
0000
0100
0000
0100
0000
1100
0000
0000
0000
0010
0000
0001
0010
0001
0000
,
1000
0000
1000
0000
1000
0000
1010
0000
0000
0000
0001
0000
0100
0001
0100
0000
,
0001
0000
0001
0000
0001
0000
0101
0000
0000
0000
1000
0000
0010
1000
0010
0000
,
0010
0000
0010
0000
0010
0000
0011
0000
0000
0000
0100
0000
1000
0100
1000
0000
,
0100
0000
0100
0000
0100
0000
1100
0000
0000
0000
0010
0000
0001
0010
0001
0000
,
1100
1010
1100
1010
,
0001
0000
0100
0000
0001
0000
0100
0000
0010
0000
1000
0000
0010
1000
0010
1000
,
0100
0000
0010
0000
0100
0000
1000
0000
0100
0000
0010
0000
0001
0100
0010
0100
,
0010
0000
0100
0000
0010
0000
0001
0000
0010
0000
0100
0000
1000
0010
0100
0010
,
1000
0000
0100
0000
1000
0000
0001
0000
1000
0000
0100
0000
0010
1000
0100
1000
,
0100
0000
1000
0000
0100
0000
0010
0000
0100
0000
1000
0000
0010
0001
1000
0001
,
0010
0000
0100
0000
0010
0000
0001
0000
0010
0000
0100
0000
1000
0010
0100
0010
,
0100
0000
0010
0000
0100
0000
1000
0000
0100
0000
0010
0000
0001
0100
0010
0100
,
0001
0000
0010
0000
0001
0000
1000
0000
0001
0000
0010
0000
0100
0001
0010
0001
,
0010
0000
0001
0000
0010
0000
0100
0000
0010
0000
0001
0000
0100
1000
0001
1000
,
0010
0100
0001
0100
0010
1000
0100
1000
,
0010
0100
1000
0100
0010
0001
0100
0001
,
0100
0010
0001
0010
0100
1000
0010
1000
,
0100
0010
1000
0010
0100
0001
0010
0001
,
1000
0001
0010
0001
1000
0100
0001
0100
,
1000
0001
0100
0001
1000
0010
0001
0010
,
0001
1000
0010
1000
0001
0100
1000
0100
,
0001
1000
0100
1000
0001
0010
1000
0010
,
1010
0000
1010
0000
1010
0000
1010
0000
1010
0000
0100
0010
0100
0010
0100
0010
,
0100
1000
0100
0011
0010
0001
0010
1100
0001
0100
0001
1010
1000
0010
1000
0101
,
0010
0100
1000
0100
0010
0000
0101
0000
0100
0010
0001
0010
0100
0000
1010
0000
0001
1000
0010
1000
0001
0000
1100
0000
1000
0100
1000
0100
0010
0001
0010
0001
,
0100
0010
0100
0010
0001
0000
0001
0000
0001
0010
0001
0010
0100
1000
0100
1000
0010
0100
0010
0100
1000
0000
1000
0000
0100
0000
0000
0000
0100
0000
0000
0000
,
0100
1100
0000
0100
0010
0001
0010
0010
,
0010
0011
0000
0010
0100
1000
0010
0010
,
0010
0000
1010
0000
0000
0000
0010
0000
0100
0000
0001
0000
0100
1000
0100
0001
,
0100
1000
0100
0001
0100
1000
0100
0001
0100
0000
1010
0000
0010
0000
0010
0000
,
0010
1010
0000
0010
0100
0001
0100
0100
,
0100
0000
0000
0101
0000
0000
0000
0000
0000
0100
0000
0000
0010
0000
0000
1000
0000
0000
0100
0000
0000
0000
0100
0000
,
0000
0000
0000
0000
1100
0000
0000
0000
0000
0000
0000
0000
0100
0000
0000
0000
0000
0000
0000
0000
0010
0000
0000
0000
0000
0000
0000
0000
0001
0000
0000
0000
0000
0000
0000
0000
0010
0000
0000
1000
0000
0000
0010
0000
0000
0001
0000
0000
,
0010
1000
0010
0001
0010
1000
0010
0001
0010
0000
1100
0000
0100
0000
0100
0000
,
0100
0000
1100
0000
0000
0000
0100
1000
0010
1000
0001
1000
0010
0000
0010
0000
,
0010
0000
0011
0000
0000
0000
0010
0001
0100
0001
1000
0001
0010
0000
0010
0000
,
0010
0000
1010
0000
0000
0000
0010
1000
0100
1000
0001
0010
0100
1000
0100
0001
,
0100
1000
0100
0001
0100
1000
0100
0001
0100
0000
1010
0000
0010
0000
0010
0000
,
0010
0000
1010
0000
0000
0000
0010
1000
0100
1000
0001
1000
0100
0000
0100
0000
,
0100
0000
0101
0000
0000
0000
0100
0001
0010
0001
1000
0001
0100
0000
0100
0000
,
0100
0000
1100
0000
0000
0000
0100
1000
0010
1000
0001
0100
0010
1000
0010
0001
,
0010
1000
0010
0001
0010
1000
0010
0001
0010
0000
1100
0000
0011
0000
0000
0000
,
0011
0000
0011
0100
0010
0100
1100
0000
,
1100
0000
1100
0010
0100
0010
0011
0100
,
0010
0000
0100
0000
1100
0000
0010
0000
0100
0000
0010
0000
0010
0001
0010
0001
,
0100
1000
0100
1000
0001
0010
0001
0010
1100
0000
1100
0000
1010
0000
0000
0000
,
1010
0000
1010
0100
0010
0100
0101
0000
,
0101
0000
0101
0010
0100
0010
1010
0100
,
0010
0000
0100
0000
0101
0000
0010
0000
0100
0000
0010
0000
0010
1000
0010
1000
,
0100
0001
0100
0001
1000
0010
1000
0010
0100
0001
0100
0001
0010
1000
0001
0100
,
0010
1000
0001
0100
0010
1000
0001
0100
0010
1000
0001
0100
0010
0001
1000
0100
,
0010
0001
1000
0100
0010
0001
1000
0100
0010
0001
1000
0100
0010
0001
1000
0100
,
0010
0001
1000
0100
0010
0001
1000
0100
0010
0001
1000
0100
0010
0000
0000
0000
,
0000
0000
0000
0000
0000
0000
0000
0000
0010
0000
0100
0000
1000
0010
1000
0010
,
1000
0101
0000
0000
0000
0000
0000
0000
;

//---------------dance-single - ----------------
#NOTES:
     dance-single:
     :
     Hard:
     10:
     0.930559,1.775338,0.897887,0.000000,0.135530,769.000000,663.000000,106.000000,0.000000,0.000000,0.000000,0.930559,1.775338,0.897887,0.000000,0.135530,769.000000,663.000000,106.000000,0.000000,0.000000,0.000000:
0000
0000
0000
0000
,
0000
0000
0000
0000
,
0000
0000
0000
0000
,
0000
0000
0000
0000
,
1100
1100
0011
0011
,
0100
1000
0100
1000
0100
0001
0100
0001
,
1000
0010
1000
0010
1000
0001
1000
0001
,
1000
0010
1000
0010
1000
0100
1000
0100
,
0010
0001
0010
0001
0010
0100
0010
0100
,
0100
0010
0001
1000
0010
0100
1000
1000
,
0100
0100
0100
1100
0000
0100
0010
0001
,
0010
0010
0010
0011
0000
0010
0100
1000
,
0010
0010
0010
1010
0000
0010
0100
0001
,
0100
1000
0100
0001
0100
1000
0100
1010
,
0010
0010
0010
1010
0000
0010
0100
0001
,
0100
0100
0100
0101
0000
0100
0010
1000
,
0100
0100
0100
1100
0000
0100
0010
0001
,
0010
1000
0010
0001
0010
1000
0010
1100
,
0100
0100
0100
1100
0000
0100
0010
0001
,
0010
0010
0010
0011
0000
0010
0100
1000
,
0010
0010
0010
1010
0000
0010
0100
0001
,
0100
1000
0100
0001
0100
1000
0100
1010
,
0010
0010
0010
1010
0000
0010
0100
0001
,
0100
0100
0100
0101
0000
0100
0010
1000
,
0100
0100
0100
1100
0000
0100
0010
0001
,
0010
1000
0010
0001
0010
1000
0010
1100
,
0011
0000
0011
0000
0011
0100
0010
0100
,
1100
0000
1100
0000
1100
0010
0100
0010
,
0011
0100
0010
0100
1100
0010
0100
0010
,
0010
0001
0100
1000
0001
0010
1100
1100
,
1010
0000
1010
0000
1010
0100
0010
0100
,
0101
0000
0101
0000
0101
0010
0100
0010
,
1010
0100
0010
0100
0101
0010
0100
0010
,
0010
1000
0100
0001
1000
0010
0100
0001
,
0010
1000
0001
0100
0010
1000
0001
0100
,
0010
0010
0010
0011
0000
0100
1100
1100
,
0100
0100
0100
1100
0000
0010
0011
0011
,
1000
1000
1000
1010
0000
0001
0101
0101
,
0001
0001
0001
0101
0000
1000
1010
1010
,
0010
0010
0010
0011
0000
0100
1100
1100
,
0100
0100
0100
1100
0000
0010
0011
0011
,
1100
1010
1100
1010
,
0001
0100
0001
0100
0010
1000
0010
1000
,
0100
0010
0100
1000
0100
0010
0001
0100
,
0010
0100
0010
0001
0010
0100
1000
0100
,
1000
0100
1000
0001
1000
0100
0010
1000
,
0100
1000
0100
0010
0100
1000
0010
1000
,
0010
0100
0010
0001
0010
0100
1000
0010
,
0100
0010
0100
1000
0100
0010
0001
0010
,
0001
0010
0001
1000
0001
0010
0100
0001
,
0010
0001
0010
0100
0010
0001
0100
0001
,
0010
0100
0001
0100
0010
1000
0100
1000
,
0010
0100
1000
0100
0010
0001
0100
0001
,
0100
0010
0001
0010
0100
1000
0010
1000
,
0100
0010
1000
0010
0100
0001
0010
0001
,
1000
0001
0010
0001
1000
0100
0001
0100
,
1000
0001
0100
0001
1000
0010
0001
0010
,
0001
1000
0010
1000
0001
0100
1000
0100
,
0001
1000
0100
1000
0001
0010
1000
0010
,
1010
0000
1010
0000
1010
0000
0100
0010
,
0100
1000
0100
0011
0010
0001
0010
1100
0001
0100
0001
1010
1000
0010
1000
0101
,
0010
0100
1000
0100
0010
0000
0101
0000
0100
0010
0001
0010
0100
0000
1010
0000
0001
1000
0010
1000
0001
0000
1100
0000
1000
0000
0100
0000
1000
0000
0100
0000
,
0100
0010
0100
0010
0001
0010
0001
0010
0010
1000
0010
1000
0100
0000
0100
0000
,
0100
1100
0000
0100
0010
0001
0010
0010
,
0010
0011
0000
0010
0100
1000
0010
0010
,
0010
1010
0000
0010
0100
0001
0100
1000
,
0100
0001
0100
1000
0100
1010
0010
0010
,
0010
1010
0000
0010
0100
0001
0100
0100
,
0100
0000
0000
0101
0000
0000
0000
0000
0000
0100
0000
0000
0010
0000
0000
1000
0000
0000
0100
0000
0000
0000
0100
0000
,
0000
0000
1100
0000
0000
0000
0100
0000
0000
0000
0010
0000
0000
0000
0001
0000
0000
0000
0010
0000
0000
1000
0000
0000
,
0010
0001
0010
1000
0010
1100
0100
0100
,
0100
1100
0000
0100
0010
0001
0010
0010
,
0010
0011
0000
0010
0100
1000
0010
0010
,
0010
1010
0000
0010
0100
0001
0100
1000
,
0100
0001
0100
1000
0100
1010
0010
0010
,
0010
1010
0000
0010
0100
0001
0100
0100
,
0100
0101
0000
0100
0010
1000
0100
0100
,
0100
1100
0000
0100
0010
0001
0010
1000
,
0010
0001
0010
1000
0010
1100
0011
0000
,
0011
0000
0011
0100
0010
0100
1100
0000
,
1100
0000
1100
0010
0100
0010
0011
0100
,
0010
0100
1100
0010
0100
0010
0010
0001
,
0100
1000
0001
0010
1100
1100
1010
0000
,
1010
0000
1010
0100
0010
0100
0101
0000
,
0101
0000
0101
0010
0100
0010
1010
0100
,
0010
0100
0101
0010
0100
0010
0010
1000
,
0100
0001
1000
0010
0100
0001
0010
0001
,
0010
0001
0010
0001
0010
0001
0100
1000
,
0100
1000
0100
1000
0100
1000
1000
0010
,
1000
0010
1000
0010
1000
0010
0110
0000
,
0000
0000
0000
0000
0010
0100
1000
0010
,
1000
0101
0000
0000
0000
0000
0000
0000
;

//---------------dance-single - ----------------
#NOTES:
     dance-single:
     :
     Medium:
     8:
     0.827701,1.775338,0.711533,0.000000,0.135530,684.000000,600.000000,84.000000,0.000000,0.000000,0.000000,0.827701,1.775338,0.711533,0.000000,0.135530,684.000000,600.000000,84.000000,0.000000,0.000000,0.000000:
// measure 0
0000
0000
0000
0000
,  // measure 1
0000
0000
0000
0000
,  // measure 2
0000
0000
0000
0000
,  // measure 3
0000
0000
0000
0000
,  // measure 4
1100
1100
0011
0011
,  // measure 5
0100
1000
0100
1000
0100
0001
0100
0001
,  // measure 6
1000
0010
1000
0010
1000
0001
1000
0001
,  // measure 7
1000
0010
1000
0010
1000
0100
1000
0100
,  // measure 8
0010
0001
0010
0001
0010
0100
0010
0100
,  // measure 9
0100
0010
0001
1000
0010
0100
1000
1000
,  // measure 10
0100
0000
0100
1100
0000
0100
0010
0001
,  // measure 11
0010
0000
0010
0011
0000
0010
0100
1000
,  // measure 12
0010
0000
0010
1010
0000
0010
0100
0001
,  // measure 13
0100
1000
0100
0001
0100
0000
0100
1010
,  // measure 14
0010
0000
0010
1010
0000
0010
0100
0001
,  // measure 15
0100
0000
0100
0101
0000
0100
0010
1000
,  // measure 16
0100
0000
0100
1100
0000
0100
0010
0001
,  // measure 17
0010
1000
0010
0001
0010
0000
0010
1100
,  // measure 18
0100
0000
0100
1100
0000
0100
0010
0001
,  // measure 19
0010
0000
0010
0011
0000
0010
0100
1000
,  // measure 20
0010
0000
0010
1010
0000
0010
0100
0001
,  // measure 21
0100
1000
0100
0001
0100
0000
0100
1010
,  // measure 22
0010
0000
0010
1010
0000
0010
0100
0001
,  // measure 23
0100
0000
0100
0101
0000
0100
0010
1000
,  // measure 24
0100
0000
0100
1100
0000
0100
0010
0001
,  // measure 25
0010
1000
0010
0001
0010
0000
0010
1000
,  // measure 26
0001
0000
0011
0000
0011
0000
0010
0100
,  // measure 27
1000
0000
1100
0000
1100
0000
0100
0010
,  // measure 28
0001
0100
0010
0100
1000
0010
0100
0010
,  // measure 29
0010
0001
0100
0000
1100
0000
1100
0000
,  // measure 30
1010
0000
1010
0000
1010
0000
0010
0100
,  // measure 31
0001
0000
0101
0000
0101
0000
0100
0010
,  // measure 32
1000
0100
0010
0100
0001
0010
0100
0010
,  // measure 33
0010
1000
0100
0001
1000
0010
0100
0001
,  // measure 34
0010
1000
0001
0100
0010
1000
0001
0100
,  // measure 35
0010
0000
0010
0011
0000
0000
1100
0000
,  // measure 36
0100
0000
0100
1100
0000
0000
0011
0000
,  // measure 37
1000
0000
1000
1010
0000
0000
0101
0000
,  // measure 38
0001
0000
0001
0101
0000
0000
1010
0000
,  // measure 39
0010
0000
0010
0011
0000
0000
1100
0000
,  // measure 40
0100
0000
0100
1100
0000
0000
0011
0000
,  // measure 41
1100
1010
1100
1010
,  // measure 42
0001
0100
0001
0100
0010
1000
0010
1000
,  // measure 43
0100
0010
0100
1000
0100
0010
0001
0100
,  // measure 44
0010
0100
0010
0001
0010
0100
1000
0100
,  // measure 45
1000
0100
1000
0001
1000
0100
0010
1000
,  // measure 46
0100
1000
0100
0010
0100
1000
0010
1000
,  // measure 47
0010
0100
0010
0001
0010
0100
1000
0010
,  // measure 48
0100
0010
0100
1000
0100
0010
0001
0010
,  // measure 49
0001
0010
0001
1000
0001
0010
0100
0001
,  // measure 50
0010
0001
0010
0100
0010
0001
0100
0001
,  // measure 51
0010
0100
0001
0100
0010
1000
0100
1000
,  // measure 52
0010
0100
1000
0100
0010
0001
0100
0001
,  // measure 53
0100
0010
0001
0010
0100
1000
0010
1000
,  // measure 54
0100
0010
1000
0010
0100
0001
0010
0001
,  // measure 55
1000
0001
0010
0001
1000
0100
0001
0100
,  // measure 56
1000
0001
0100
0001
1000
0010
0001
0010
,  // measure 57
0001
1000
0010
1000
0001
0100
1000
0100
,  // measure 58
0001
1000
0100
1000
0001
0010
1000
0010
,  // measure 59
1010
0000
1010
0000
1010
0000
0100
0010
,  // measure 60
0100
1000
0100
0011
0010
0001
0010
1100
0001
0100
0001
1010
1000
0010
1000
0101
,  // measure 61
0010
0100
1000
0100
0010
0000
0101
0000
0100
0010
0001
0010
0100
0000
1010
0000
0001
1000
0010
1000
0001
0000
1100
0000
1000
0000
0100
0000
1000
0000
0100
0000
,  // measure 62
0100
0010
0100
0010
0001
0010
0001
0010
0010
1000
0010
1000
0100
0000
0000
0000
,  // measure 63
0100
1100
0000
0100
0010
0001
0010
0000
,  // measure 64
0010
0011
0000
0010
0100
1000
0010
0000
,  // measure 65
0010
1010
0000
0010
0100
0001
0100
1000
,  // measure 66
0100
0001
0100
0000
0100
1010
0010
0000
,  // measure 67
0010
1010
0000
0010
0100
0001
0100
0000
,  // measure 68
0100
0000
0000
0101
0000
0000
0000
0000
0000
0100
0000
0000
0010
0000
0000
1000
0000
0000
0100
0000
0000
0000
0100
0000
,  // measure 69
0000
0000
1100
0000
0000
0000
0100
0000
0000
0000
0010
0000
0000
0000
0001
0000
0000
0000
0010
0000
0000
1000
0000
0000
,  // measure 70
0010
0001
0010
0000
0010
1100
0100
0000
,  // measure 71
0100
1100
0000
0100
0010
0001
0010
0000
,  // measure 72
0010
0011
0000
0010
0100
1000
0010
0000
,  // measure 73
0010
1010
0000
0010
0100
0001
0100
1000
,  // measure 74
0100
0001
0100
0000
0100
1010
0010
0000
,  // measure 75
0010
1010
0000
0010
0100
0001
0100
0000
,  // measure 76
0100
0101
0000
0100
0010
1000
0100
0000
,  // measure 77
0100
1100
0000
0100
0010
0001
0010
1000
,  // measure 78
0010
0001
0010
0000
0010
1000
0001
0000
,  // measure 79
0011
0000
0011
0000
0010
0100
1000
0000
,  // measure 80
1100
0000
1100
0000
0100
0010
0001
0100
,  // measure 81
0010
0100
1000
0010
0100
0010
0010
0001
,  // measure 82
0100
1100
1100
1010
,  // measure 83
1010
0000
1010
0000
0010
0100
0001
0000
,  // measure 84
0101
0000
0101
0000
0100
0010
1000
0100
,  // measure 85
0010
0100
0001
0010
0100
0010
0010
1000
,  // measure 86
0100
0001
1000
0010
0100
0001
0010
1000
,  // measure 87
0001
0100
0010
1000
0001
0100
0100
1000
,  // measure 88
0100
1000
0100
1000
0100
1000
1000
0010
,  // measure 89
1000
0010
1000
0010
1000
0010
0110
0000
,  // measure 90
0000
0000
0000
0000
0010
0100
1000
0010
,  // measure 91
1000
0101
0000
0000
0000
0000
0000
0000
;
