#VERSION:0.83;
#TITLE:Addicted to You;
#SUBTITLE:[UNDERWATER MIX];
#ARTIST:宇多田ヒカル;
#TITLETRANSLIT:;
#SUBTITLETRANSLIT:;
#ARTISTTRANSLIT:Utada Hikaru;
#GENRE:R&B;
#ORIGIN:;
#CREDIT:;
#BANNER:[Flashback to 1999] - Addicted to You [UNDERWATER MIX].png;
#BACKGROUND:[Flashback to 1999] - Addicted to You [UNDERWATER MIX]-bg.png;
#PREVIEWVID:;
#JACKET:[Flashback to 1999] - Addicted to You [UNDERWATER MIX]-jacket.png;
#CDIMAGE:[Flashback to 1999] - Addicted To You [UNDERWATER MIX]-cdimage;
#DISCIMAGE:;
#LYRICSPATH:;
#CDTITLE:;
#MUSIC:[Flashback to 1999] - Addicted to You [UNDERWATER MIX].ogg;
#OFFSET:0.001803;
#SAMPLESTART:66.314835;
#SAMPLELENGTH:20.008965;
#SELECTABLE:YES;
#BPMS:0.000=95.957;
#STOPS:;
#DELAYS:;
#WARPS:;
#TIMESIGNATURES:0.000=4=4;
#TICKCOUNTS:0.000=4;
#COMBOS:0.000=1;
#SPEEDS:0.000=1.000=0.000=0;
#SCROLLS:0.000=1.000;
#FAKES:;
#LABELS:0.000=Song Start;
#BGCHANGES:;
#KEYSOUNDS:;
#ATTACKS:
;

//---------------dance-single - ----------------
#NOTEDATA:;
#CHARTNAME:;
#STEPSTYPE:dance-single;
#DESCRIPTION:;
#CHARTSTYLE:;
#DIFFICULTY:Hard;
#METER:7;
#RADARVALUES:0.380894,0.396765,0.203144,0.000000,0.110036,315.000000,291.000000,24.000000,0.000000,0.000000,0.000000,0.000000,0.000000,0.000000,0.380894,0.396765,0.203144,0.000000,0.110036,315.000000,291.000000,24.000000,0.000000,0.000000,0.000000,0.000000,0.000000,0.000000;
#CREDIT:DDRDAIKENKAI;
#NOTES:
// measure 0
0000
0000
0000
0000
,  // measure 1
0000
0000
0000
0000
,  // measure 2
0000
0000
0000
0000
,  // measure 3
0000
0000
0000
0000
,  // measure 4
0000
0000
0000
0000
,  // measure 5
1000
0000
0001
0000
0100
0001
0000
0100
0001
0000
0000
0000
1000
0000
0000
0000
,  // measure 6
0001
0000
1000
0000
0010
1000
0000
0010
1000
0000
0000
0000
0001
0000
0000
0000
,  // measure 7
1000
0100
0001
0000
0001
0100
1000
0000
,  // measure 8
1000
0100
0001
0100
1000
0001
0001
0000
,  // measure 9
1000
0000
0010
0000
1000
0100
0000
1000
0001
0000
0000
0000
0101
0000
0000
0000
,  // measure 10
0001
0000
0100
0000
0001
0010
0000
0001
1000
0000
0000
0000
1100
0000
0000
0000
,  // measure 11
1000
0010
0001
0000
0001
0010
1000
0000
,  // measure 12
1000
0010
0001
0100
1000
0001
1001
0000
,  // measure 13
0011
0000
0001
0000
0100
0000
1000
0100
,  // measure 14
0001
0000
0010
0000
0100
0000
0000
0100
1000
0000
1000
0000
0001
0000
0000
0000
,  // measure 15
1000
0001
0100
0010
1000
0000
1100
0000
,  // measure 16
0001
1000
0010
0000
0010
0100
0001
1000
,  // measure 17
0010
1000
0100
0000
0100
0001
0010
0000
,  // measure 18
0010
1000
1000
0001
0001
0100
0110
0000
,  // measure 19
0010
1000
0010
1000
0001
1000
1100
0000
,  // measure 20
0010
0001
0010
0001
1000
0001
0101
0100
,  // measure 21
0010
0000
0000
0100
0010
0000
1000
0000
0001
0000
0000
0000
0101
0000
0000
0000
,  // measure 22
0100
0010
0100
0001
1000
0001
1001
0000
,  // measure 23
0010
0001
0100
0000
0010
0001
0100
0000
,  // measure 24
0100
1000
0010
0000
0100
1000
0010
0000
,  // measure 25
0001
0010
1000
0000
1000
0100
0001
0000
,  // measure 26
0001
1000
0100
1000
0010
0100
0001
0001
,  // measure 27
1000
0010
0001
1000
0001
0010
0100
0100
,  // measure 28
0010
1000
0100
0001
0100
0010
0001
0001
,  // measure 29
1000
0001
0010
1000
0001
0100
0010
0001
,  // measure 30
1000
0000
1100
0000
0100
1000
0001
0001
,  // measure 31
1000
0010
0100
0010
0001
1000
0100
0100
,  // measure 32
0001
0010
0100
0010
1000
0001
0100
0100
,  // measure 33
1000
0000
1010
0001
0100
0000
1001
0100
,  // measure 34
0010
1000
0001
0100
0010
1000
0110
0000
,  // measure 35
1000
0000
0001
0000
0101
0000
0000
0001
1000
0000
0100
0000
1000
0000
0000
0000
,  // measure 36
0001
0000
1000
0000
1100
0000
0000
1000
0010
0000
0100
0000
0001
0000
0000
0000
,  // measure 37
0010
0000
0001
0000
0101
0000
0000
0100
0010
0000
1000
0000
0001
0000
0000
0000
,  // measure 38
0010
0000
0000
0001
0000
0000
1000
0000
0010
0100
0010
0000
1100
0000
0000
0000
,  // measure 39
0101
0000
0001
1000
0000
0001
0010
0000
0001
0000
1000
0000
1001
0000
0000
0000
,  // measure 40
1000
0000
1000
0000
0001
0000
0000
1000
0100
0000
0001
0000
0101
0000
0000
0000
,  // measure 41
0100
0000
1000
0010
0000
1000
0001
0000
0100
0000
0010
0000
0110
0000
0000
0000
,  // measure 42
0010
0000
1000
0000
0001
0000
1000
0000
0100
0010
0100
0000
0011
0000
0000
0000
,  // measure 43
1001
0000
0001
0000
0000
0000
0100
0000
0000
0000
0010
1000
0010
0000
1000
0000
,  // measure 44
0000
0000
0001
0000
0000
0000
0010
0000
0000
0000
0001
0100
0001
0000
1000
0000
,  // measure 45
0000
0000
0100
0000
0000
0000
1000
0000
0000
0000
0010
1000
0010
0000
0100
0000
,  // measure 46
0000
0000
0001
0000
0000
0000
0100
0010
0100
0010
1000
0000
0001
0000
1000
0000
;

//---------------dance-single - ----------------
#NOTEDATA:;
#CHARTNAME:;
#STEPSTYPE:dance-single;
#DESCRIPTION:;
#CHARTSTYLE:;
#DIFFICULTY:Easy;
#METER:3;
#RADARVALUES:0.193470,0.217639,0.093108,0.000000,0.000000,160.000000,149.000000,11.000000,0.000000,0.000000,0.000000,0.000000,0.000000,0.000000,0.193470,0.217639,0.093108,0.000000,0.000000,160.000000,149.000000,11.000000,0.000000,0.000000,0.000000,0.000000,0.000000,0.000000;
#CREDIT:DDRDAIKENKAI;
#NOTES:
// measure 0
0000
0000
0000
0000
,  // measure 1
0000
0000
0000
0000
,  // measure 2
0000
0000
0000
0000
,  // measure 3
0000
0000
0000
0000
,  // measure 4
0000
0000
0000
0000
,  // measure 5
1001
0000
0001
0001
,  // measure 6
0100
0010
1000
0000
,  // measure 7
0100
0000
1000
0001
,  // measure 8
1001
0000
0100
0010
,  // measure 9
0110
0000
0010
0010
,  // measure 10
1000
0001
1000
0000
,  // measure 11
0010
1000
0001
1000
,  // measure 12
0100
0010
0000
0110
,  // measure 13
0001
0010
1000
0100
,  // measure 14
0001
1000
0010
0001
,  // measure 15
0100
0000
0100
1000
,  // measure 16
0001
0000
0010
0110
,  // measure 17
0100
0100
1000
1000
,  // measure 18
0001
0001
0001
1001
,  // measure 19
1000
0010
1000
0000
,  // measure 20
1000
0100
1000
0000
,  // measure 21
0010
0010
0100
0000
,  // measure 22
0001
1000
0100
1000
,  // measure 23
0001
0001
1000
1000
,  // measure 24
0010
0010
0100
0100
,  // measure 25
0010
1000
0001
0100
,  // measure 26
0001
0000
1000
1000
,  // measure 27
0010
0100
0010
0010
,  // measure 28
1000
0001
1000
1000
,  // measure 29
0100
0001
0100
1000
,  // measure 30
0001
0000
0001
0001
,  // measure 31
1000
0010
0100
0100
,  // measure 32
0010
1000
0001
0001
,  // measure 33
1000
0010
0001
0100
,  // measure 34
1000
0001
1000
1001
,  // measure 35
0110
1000
0001
0000
,  // measure 36
0100
0001
1000
0000
,  // measure 37
0100
0010
0001
0001
,  // measure 38
0010
0100
1000
0000
,  // measure 39
0001
1001
0000
0001
,  // measure 40
0100
0110
0000
0010
,  // measure 41
1000
0100
1000
0010
,  // measure 42
0100
0001
1000
1001
,  // measure 43
1000
0100
0001
0100
,  // measure 44
1000
0010
0001
0010
,  // measure 45
1000
0100
0010
0001
,  // measure 46
0100
0010
1000
0001
;

//---------------dance-single - ----------------
#NOTEDATA:;
#CHARTNAME:;
#STEPSTYPE:dance-single;
#DESCRIPTION:;
#CHARTSTYLE:;
#DIFFICULTY:Medium;
#METER:5;
#RADARVALUES:0.275695,0.297574,0.042322,0.000000,0.000000,228.000000,223.000000,5.000000,0.000000,0.000000,0.000000,0.000000,0.000000,0.000000,0.275695,0.297574,0.042322,0.000000,0.000000,228.000000,223.000000,5.000000,0.000000,0.000000,0.000000,0.000000,0.000000,0.000000;
#CREDIT:DDRDAIKENKAI;
#NOTES:
// measure 0
0000
0000
0000
0000
,  // measure 1
0000
0000
0000
0000
,  // measure 2
0000
0000
0000
0000
,  // measure 3
0000
0000
0000
0000
,  // measure 4
0000
0000
0000
0000
,  // measure 5
1001
0000
0001
1000
0100
0000
0010
0000
,  // measure 6
0100
0000
1000
0001
1000
0000
0000
0000
,  // measure 7
0010
1000
0010
0000
0100
0001
0100
0000
,  // measure 8
1000
0000
0000
0000
0100
0001
1000
0000
,  // measure 9
0100
0000
0100
0010
0001
0000
1000
0000
,  // measure 10
0001
0000
0001
0100
0010
0000
1000
0000
,  // measure 11
0001
0100
0001
0000
1000
0010
1000
0000
,  // measure 12
0001
1000
0001
0000
0000
1000
1000
0000
,  // measure 13
0001
0000
0010
0000
1000
0000
0100
0001
,  // measure 14
0100
0000
0001
0000
0010
0001
0100
0000
,  // measure 15
0010
0010
1000
1000
,  // measure 16
0001
0000
0001
0000
0010
0001
1000
0000
,  // measure 17
0100
0001
0100
0000
1000
0010
1000
0000
,  // measure 18
0010
0001
0100
0110
,  // measure 19
0010
0001
0010
0000
0100
1000
0001
0000
,  // measure 20
1000
0010
1000
0000
0100
0010
0001
0000
,  // measure 21
1000
0010
0001
0100
,  // measure 22
1000
0010
1000
0001
0000
0100
0100
0000
,  // measure 23
0001
0000
0010
0000
0100
0100
1000
0000
,  // measure 24
0010
0000
0100
0000
0001
0001
1000
0000
,  // measure 25
0100
0001
0100
0000
0001
0010
0001
0000
,  // measure 26
0010
0000
1000
0000
0100
0100
1000
1000
,  // measure 27
0001
0100
0001
0100
0001
0000
1000
0000
,  // measure 28
0010
0100
0010
0100
0010
0000
1000
0000
,  // measure 29
0100
0010
0001
0000
0001
0100
0010
0000
,  // measure 30
1000
0000
1001
0000
0001
0100
0001
0001
,  // measure 31
1000
0010
1000
0010
1000
0000
0001
0000
,  // measure 32
0100
0010
0100
0010
0100
0000
0001
0000
,  // measure 33
0010
0000
1000
0000
0100
0000
0001
1000
,  // measure 34
0100
1000
0100
0010
0000
0001
0001
0000
,  // measure 35
1001
0000
0001
0000
0010
0001
0100
0000
,  // measure 36
0001
0000
1000
0000
0010
1000
0100
0000
,  // measure 37
1000
0000
0001
0000
0100
0001
1000
0000
,  // measure 38
0010
0000
0001
0000
0010
1000
0001
0000
,  // measure 39
1001
0000
1000
0000
0001
1000
0010
0000
,  // measure 40
0100
0000
0100
0000
0001
0010
0100
0000
,  // measure 41
1000
0000
0001
0000
1000
1000
0010
0000
,  // measure 42
0100
0001
0100
0001
1000
1000
0001
0000
,  // measure 43
1000
0000
0100
0000
0001
0100
1000
0000
,  // measure 44
0001
0000
0100
0000
1000
0100
0001
0000
,  // measure 45
1000
0000
0010
0000
0001
0010
1000
0000
,  // measure 46
0001
0000
0010
0000
1000
0100
0100
0001
;
