#TITLE:(Call Me) Super Bad Parts 1,2 & 3;
#SUBTITLE:(Gran Turismo Pop Rox Remix);
#ARTIST:James Brown;
#TITLETRANSLIT:;
#SUBTITLETRANSLIT:;
#ARTISTTRANSLIT:;
#GENRE:;
#CREDIT:;
#BANNER:;
#BACKGROUND:;
#LYRICSPATH:;
#CDTITLE:;
#MUSIC:(Call Me) Super Bad Parts 1,2 & 3 (Gran Turismo Pop Rox Remix).ogg;
#OFFSET:-0.500000;
#SAMPLESTART:54.668514;
#SAMPLELENGTH:14.436085;
#SELECTABLE:YES;
#BPMS:0.000000=133.000000
;
#STOPS:
;
#BGCHANGES:;
#KEYSOUNDS:;
#ATTACKS:;

//---------------dance-single - ----------------
#NOTES:
     dance-single:
     :
     Edit:
     8:
     0.469335,0.486231,0.292030,0.000000,0.000000,450.000000,410.000000,40.000000,0.000000,0.000000,0.000000,0.469335,0.486231,0.292030,0.000000,0.000000,450.000000,410.000000,40.000000,0.000000,0.000000,0.000000:
// measure 0
0000
0000
0000
0000
,  // measure 1
0000
0000
0000
0000
,  // measure 2
0000
0000
0000
0000
,  // measure 3
0000
0000
0000
0000
,  // measure 4
1000
0000
0000
1000
0000
0000
0000
0000
,  // measure 5
0001
0000
0000
0001
0000
0000
0000
0000
,  // measure 6
1000
0000
0000
1000
0000
0000
0000
0000
,  // measure 7
0001
0000
0001
0100
0010
0000
1001
0000
,  // measure 8
0110
0000
0100
0000
0100
0001
0010
0000
,  // measure 9
0100
0010
1000
0010
0100
1000
0001
0000
,  // measure 10
0110
0000
0010
1000
0100
0000
0001
0000
,  // measure 11
0100
1000
0010
0001
1000
0100
0010
0000
,  // measure 12
1001
0000
1000
0100
1000
0000
0100
0001
,  // measure 13
0100
0000
0001
0010
0001
0000
0010
1000
,  // measure 14
0001
0000
0010
0000
1000
0010
0100
1000
,  // measure 15
0010
0000
0001
0000
1000
0100
0010
0000
,  // measure 16
1001
0000
0001
0010
0100
0001
0000
0001
,  // measure 17
0100
0010
0001
0100
0010
0000
0001
0100
,  // measure 18
0010
0000
0010
0100
0001
0000
1000
0100
,  // measure 19
0010
0000
1000
0100
0010
0000
0110
0000
,  // measure 20
1001
0000
1000
1000
0000
0010
0100
1000
,  // measure 21
1000
0000
0100
0010
0000
0100
0010
0001
,  // measure 22
0001
0000
0010
0100
0000
0010
0100
1000
,  // measure 23
1000
0000
0100
0010
0000
0100
0001
0000
,  // measure 24
0010
0000
1000
0100
0010
0000
1000
0100
,  // measure 25
0010
0000
1000
0100
0010
1000
0001
1000
,  // measure 26
0100
0000
0001
0010
0100
0000
0001
0010
,  // measure 27
0100
0000
0001
0010
0100
0000
0110
0000
,  // measure 28
1001
0000
1000
0100
0001
0100
1000
0000
,  // measure 29
0010
0000
0001
0100
1000
0010
0100
0000
,  // measure 30
1001
1010
0011
0101
,  // measure 31
1100
0000
1000
0000
0100
0000
0001
0100
,  // measure 32
1000
0000
0001
0100
1000
0000
0001
0100
,  // measure 33
1000
0000
0001
0100
1000
0000
0001
0100
,  // measure 34
1000
0010
0001
0100
,  // measure 35
1000
0000
0010
0000
0001
0010
1000
0000
,  // measure 36
0001
0010
1000
0000
0001
0010
1000
0000
,  // measure 37
0001
0010
1000
0000
0001
0010
1000
0000
,  // measure 38
0110
1001
0110
1001
,  // measure 39
0110
1001
0110
1001
,  // measure 40
0001
0010
0100
1000
0001
0010
0100
1000
,  // measure 41
0001
0001
0010
0010
0100
0100
1000
1000
,  // measure 42
0001
1000
0001
1000
0001
0010
1000
0100
,  // measure 43
0001
1000
0001
1000
0001
0100
1000
0010
,  // measure 44
0001
1000
0001
1000
0001
0010
1000
0100
,  // measure 45
0001
1000
0001
1000
0001
0100
1000
0010
,  // measure 46
1001
0000
0001
0100
1000
0001
1000
0100
,  // measure 47
0001
0010
1000
0100
0001
0010
1000
0100
,  // measure 48
0001
0000
0000
0000
,  // measure 49
1000
1000
1000
1000
1000
1000
1000
1000
,  // measure 50
1000
0000
0100
0010
0001
0100
0010
0001
,  // measure 51
1000
0000
0100
0000
0001
0010
0100
1000
,  // measure 52
0010
1000
0100
0010
,  // measure 53
0001
0000
0100
0001
0010
0000
0010
1000
,  // measure 54
0100
0000
0100
0001
0010
0000
0010
1000
,  // measure 55
0100
0000
0001
0100
1000
0000
1000
0100
,  // measure 56
0010
0000
0001
0010
1000
0000
0001
0010
,  // measure 57
1000
0110
1001
0110
,  // measure 58
1001
0011
1010
1100
,  // measure 59
0101
0000
1000
0000
0010
0000
0001
0100
,  // measure 60
1000
0011
0101
1100
,  // measure 61
1010
0000
0001
0000
1000
0100
0001
1000
,  // measure 62
0010
1100
0101
0011
,  // measure 63
1010
0000
0100
0000
0001
0000
0010
0100
,  // measure 64
1000
0000
0010
0100
1000
0000
0010
0100
,  // measure 65
1000
0000
0010
0100
1000
0000
0010
0100
,  // measure 66
1000
0001
0100
0010
0001
1000
0100
0010
,  // measure 67
1000
0001
0010
0100
0001
1000
0010
0100
,  // measure 68
1000
0010
0001
0100
0010
0100
0001
0010
,  // measure 69
1000
0100
0001
0010
0100
0010
0001
0100
,  // measure 70
1000
0010
0001
0100
0001
0010
1000
0100
,  // measure 71
0001
0010
1000
0100
0010
0001
1000
0000
,  // measure 72
0001
0000
0001
1000
0010
0001
1001
0000
,  // measure 73
0001
1000
0100
0010
1000
0001
0010
0100
,  // measure 74
0001
0000
0000
0000
;

//---------------dance-single - ----------------
#NOTES:
     dance-single:
     :
     Challenge:
     10:
     0.650811,0.756359,0.219023,0.000000,0.558508,624.000000,594.000000,30.000000,0.000000,0.000000,0.000000,0.650811,0.756359,0.219023,0.000000,0.558508,624.000000,594.000000,30.000000,0.000000,0.000000,0.000000:
// measure 0
0000
0000
0000
0000
,  // measure 1
0000
0000
0000
0000
,  // measure 2
0000
0000
0000
0000
,  // measure 3
0000
0000
0000
0000
,  // measure 4
0001
0000
0000
0000
0001
0000
0000
0001
0000
0000
1000
0000
0010
0000
0100
0000
,  // measure 5
0110
0000
0000
0110
0000
0000
0000
0000
,  // measure 6
1000
0000
0000
0000
1000
0000
0000
1000
0000
0000
0001
0000
0010
0000
0100
0000
,  // measure 7
1000
0000
0010
0000
0100
0010
0000
1000
0000
1000
0100
0000
0010
0000
0001
0000
,  // measure 8
1001
0000
0001
0100
1000
0100
0010
1000
,  // measure 9
0100
0000
0010
0000
0001
0000
1000
0010
0000
1000
0001
0000
0000
0000
0000
0000
,  // measure 10
1001
0000
1000
0100
0001
0100
0010
0001
,  // measure 11
0100
0000
0010
0000
0001
0010
0000
1000
0000
0001
0010
0100
0000
0000
0000
0000
,  // measure 12
1001
0000
0001
0100
0001
0000
0010
0000
0100
0000
1000
0000
0001
0100
0001
0000
,  // measure 13
0010
0000
0010
0000
1000
0100
1000
0000
0010
0000
0010
0000
0001
0000
0010
0000
,  // measure 14
0001
0000
0000
0000
0011
0000
0000
1001
0000
0001
0100
0000
0010
0000
0100
0000
,  // measure 15
0010
0000
0000
0000
0110
0000
0000
1010
0000
1000
0001
0000
1001
0000
0000
0000
,  // measure 16
1000
0000
0000
0000
0100
0000
0010
0001
1000
0001
1000
0000
0000
0000
0010
0000
,  // measure 17
1000
0000
0001
0000
0010
0000
0100
0010
0001
0000
1000
0000
0010
0000
0100
0010
,  // measure 18
1000
0000
0100
0010
0000
0100
0000
1000
0001
1000
0001
0000
0010
0000
0100
0010
,  // measure 19
0100
1000
0010
0100
0001
0000
0010
0100
0010
0001
0100
0010
1000
0000
0001
0000
,  // measure 20
1001
0000
0000
0000
0001
0000
0100
0010
0000
0010
0100
0000
0010
0000
1000
0000
,  // measure 21
0001
0000
0000
0000
1000
0000
0100
0010
0000
0010
0100
0000
1000
0000
0010
0000
,  // measure 22
0100
0000
0000
0000
0010
0000
0000
0010
0100
0001
0010
0000
0000
0000
0010
0000
,  // measure 23
0100
0000
0000
0000
0010
0000
0000
0010
0001
0100
0010
0000
0100
0010
0000
0000
,  // measure 24
1001
0000
0000
0000
1000
0010
1000
0000
0100
0000
0100
0000
0001
0000
0100
0000
,  // measure 25
0001
0000
0000
0000
0101
0000
0000
1001
0000
0001
0010
0000
0001
0010
0000
0010
,  // measure 26
0100
0000
0000
0000
0001
0010
0001
0000
0100
0000
0100
0000
1000
0010
1000
0000
,  // measure 27
0100
0000
0100
0000
0001
0010
0001
0000
0100
0000
0100
0000
1000
0000
0100
0000
,  // measure 28
1000
0000
0000
0000
1100
0000
0000
1001
0000
1000
0010
0000
0100
0000
0001
0000
,  // measure 29
1000
0000
0100
0000
0010
0100
0000
1000
0000
1000
0001
0000
0100
0000
0010
0000
,  // measure 30
1001
0000
0000
0000
0001
0010
0000
0100
1000
0001
0100
0000
0010
0000
0000
0000
,  // measure 31
0010
0000
0100
0000
0001
1000
0000
0100
0000
0100
0010
0000
0100
0000
1000
0010
,  // measure 32
1000
0000
0100
0000
0010
0000
1000
0010
1000
0000
0010
0000
0100
0000
1000
0010
,  // measure 33
1000
0000
0100
0000
0010
0000
0000
1000
0000
0000
0010
0000
0100
0000
0000
0000
,  // measure 34
1000
0010
0001
0100
,  // measure 35
1000
0000
0000
0000
0100
0000
0000
0010
0000
0010
0001
0000
0100
0000
0001
0010
,  // measure 36
0001
0000
0100
0000
0010
0000
0001
0010
0001
0000
0010
0000
0100
0000
0001
0010
,  // measure 37
0001
0000
0100
0000
0010
0000
0001
0010
0001
0000
0010
0000
0100
0000
0000
0000
,  // measure 38
0001
0010
1000
0010
0001
0010
1000
0010
,  // measure 39
0001
0100
1000
0100
0001
0100
1000
0100
,  // measure 40
0001
0010
1000
0100
1000
0010
0001
0100
,  // measure 41
0010
0000
0001
0000
1000
0000
0100
0000
0010
1000
0001
0010
0100
1000
0001
0000
,  // measure 42
1000
0000
1000
0000
0001
0000
0001
0100
0000
0100
1000
0000
0010
0000
0010
0000
,  // measure 43
1000
0000
1000
0000
0001
0000
0001
0010
0000
0010
1000
0000
1001
0000
0000
0000
,  // measure 44
0001
0000
0001
0000
1000
0000
1000
0010
0000
0010
0001
0000
0100
0000
0100
0000
,  // measure 45
0001
0000
0001
0000
1000
0000
1000
0100
0000
0100
0001
1000
0100
0000
0010
0000
,  // measure 46
0110
0110
0010
0010
0011
0011
0001
0001
,  // measure 47
0011
0011
0001
0001
1001
1001
1000
1000
,  // measure 48
0001
0000
0000
0000
,  // measure 49
1000
0010
0100
0001
1000
0100
0010
0001
0100
0010
1000
0001
0010
0100
1000
0001
,  // measure 50
0100
0000
0001
0000
0010
0000
0100
1000
0000
1000
0001
0000
0100
0000
0000
0000
,  // measure 51
0010
0000
0100
0000
0001
0000
1000
0100
0000
0100
0010
0000
0001
0000
0100
0000
,  // measure 52
0010
0000
0010
0100
0001
0010
0100
0000
,  // measure 53
0010
0000
0000
0000
0100
1000
0010
0100
0000
0000
0000
0000
1000
0000
0010
0000
,  // measure 54
0100
0000
0000
0000
0010
1000
0100
0010
0000
0000
0000
0000
1000
0000
0100
0000
,  // measure 55
0010
0000
0000
0000
0100
0000
0100
1000
0010
0000
0000
0000
0010
1000
0100
0010
,  // measure 56
0000
0000
0000
0000
1000
0000
1000
0100
0010
0000
0001
0000
1000
0000
0000
0000
,  // measure 57
0001
0100
0010
1000
0001
0010
0100
1000
0001
0100
0010
1000
0001
0010
0100
1000
,  // measure 58
0001
0000
0000
0000
1000
0010
0000
0100
0001
1000
0100
0000
0010
0000
0000
0000
,  // measure 59
0010
0000
0100
0000
1000
0001
0000
0100
0000
0100
0010
0000
0010
1000
0000
1000
,  // measure 60
0001
0000
0000
0000
1000
0100
0000
0010
0001
1000
0010
0000
0100
0000
0000
0000
,  // measure 61
0100
0000
0010
0000
1000
0001
0000
0010
0000
0010
0100
0000
0110
0000
1100
0000
,  // measure 62
1001
0000
0000
0000
0001
0010
0000
0100
1000
0001
0100
0000
0010
0000
0000
0000
,  // measure 63
0010
0000
0100
0000
0001
1000
0000
0100
0000
0100
0010
0000
0100
0000
1000
0100
,  // measure 64
1000
0000
0010
0000
0100
0000
1000
0100
1000
0000
0100
0000
0010
0000
1000
0100
,  // measure 65
1000
0000
0010
0000
0100
0000
1000
0100
1000
0000
0100
0000
0010
0000
1000
0100
,  // measure 66
1000
0000
0001
0000
0010
0000
0100
0010
0000
0010
0001
0000
1000
0000
0100
0010
,  // measure 67
0001
0000
1000
0000
0100
0000
0010
0100
0000
0100
1000
0000
0001
0000
0010
0100
,  // measure 68
1000
0010
0001
1000
0001
0010
1000
0010
,  // measure 69
0001
1000
0100
0010
0001
1000
0100
0010
,  // measure 70
0001
0010
1000
0001
0010
1000
0001
0100
,  // measure 71
1000
0010
0001
1000
0100
0010
1000
0000
,  // measure 72
1010
0000
0000
0000
1000
0001
0010
0100
0010
0001
1000
0010
0100
0000
0000
0000
,  // measure 73
0010
0100
0010
0100
0010
0100
0010
0100
0010
0100
0010
0100
0010
0100
0010
0100
,  // measure 74
0010
0000
0000
0000
;
