#TITLE:infomorph;
#SUBTITLE:;
#ARTIST:kamome sano;
#TITLETRANSLIT:;
#SUBTITLETRANSLIT:;
#ARTISTTRANSLIT:;
#GENRE:;
#CREDIT:;
#BANNER:[Double Trouble] - infomorph.png;
#BACKGROUND:[Double Trouble] - infomorph-bg.png;
#LYRICSPATH:;
#CDTITLE:;
#MUSIC:[Double Trouble] - infomorph.ogg;
#OFFSET:1.348500;
#SAMPLESTART:91.816002;
#SAMPLELENGTH:16.959000;
#LASTBEATHINT:0.493708;
#SELECTABLE:YES;
#BPMS:0.000000=85.000000
,36.000000=170.000000
;
#STOPS:95.500000=1.418000
;
#BGCHANGES:;
#KEYSOUNDS:;
#ATTACKS:;

//---------------dance-single - ----------------
#NOTES:
     dance-single:
     :
     Hard:
     10:
     0.699028,1.051011,0.259242,0.232238,0.413167,906.000000,858.000000,48.000000,43.000000,0.000000,0.000000,0.699028,1.051011,0.259242,0.232238,0.413167,906.000000,858.000000,48.000000,43.000000,0.000000,0.000000:
// measure 0
0000
0000
0000
0000
,  // measure 1
0000
0000
0000
0000
,  // measure 2
0000
0000
0000
0000
,  // measure 3
0000
0000
0000
0000
,  // measure 4
0000
0000
0000
0000
,  // measure 5
1000
0000
0001
0000
0100
0010
1000
0002
0000
0010
0000
0000
0100
0000
0000
0000
,  // measure 6
0103
0010
1000
0001
0010
0100
1000
0002
0000
2003
0000
0000
0000
0000
3020
0000
,  // measure 7
0130
0010
1000
0010
0100
0001
0010
0200
0000
0320
0000
0000
0001
0000
0230
0000
,  // measure 8
1300
0000
0100
0000
0010
0000
0001
0000
1000
0000
0100
0000
0010
0000
0002
0000
0000
0000
2003
0000
0000
0000
3020
0000
0000
0000
0130
0000
0001
0000
0010
0001
,  // measure 9
0010
0010
0010
0010
,  // measure 10
0001
0001
0001
0001
,  // measure 11
1000
0000
1000
0000
1000
0100
1000
0010
,  // measure 12
0000
0110
0000
0100
0101
0000
0011
0000
,  // measure 13
1000
0100
1000
0100
0000
1100
0000
0101
,  // measure 14
0000
0011
0000
0101
0000
0001
1000
0000
,  // measure 15
0001
0000
0100
0000
0001
0000
0100
0000
0000
0000
0001
0000
0001
0010
0200
0000
,  // measure 16
0000
0001
1000
0010
,  // measure 17
1300
0000
0001
0000
0101
0000
0100
0100
,  // measure 18
0010
0000
1000
0000
1010
0000
1000
1000
,  // measure 19
0100
0000
0010
0000
0011
0001
0000
0101
,  // measure 20
0000
1100
0000
0011
0000
1010
0010
1000
,  // measure 21
0001
0010
0001
0010
0000
0010
0100
1000
,  // measure 22
0010
0000
0100
0000
0101
0000
0001
1000
,  // measure 23
0100
0000
1000
0000
0001
0000
0100
0000
0001
0000
0010
0000
0100
1000
0100
0000
,  // measure 24
1100
0000
1100
0000
1000
0010
0100
0001
,  // measure 25
0000
0001
1000
0000
0100
0000
0010
0000
,  // measure 26
0011
0000
0011
0000
0001
1000
0001
0001
,  // measure 27
0010
0100
0010
0001
1000
0000
2020
3030
,  // measure 28
1000
0010
1000
0010
0000
1000
0001
0010
,  // measure 29
0001
0010
0000
0001
1000
0000
2200
3300
,  // measure 30
0100
1000
0010
0100
0001
0010
0000
0100
,  // measure 31
0000
0000
1000
0100
1000
0000
0001
0100
0001
0000
0100
0010
1000
0001
0010
0100
,  // measure 32
1000
0000
1100
0000
0100
0010
0001
0100
,  // measure 33
0000
0010
1000
0100
0001
0010
1000
0100
,  // measure 34
2000
0000
0010
0000
0100
0100
3100
0000
,  // measure 35
1000
0010
0100
0001
0010
0001
2000
0000
,  // measure 36
3001
0001
0001
0001
1000
0001
0000
1000
,  // measure 37
0000
0010
0001
0100
1000
0001
0010
0001
,  // measure 38
0010
0010
0010
0010
0000
0001
0000
1000
,  // measure 39
0100
0000
0010
0001
0010
0000
0100
1000
0100
0000
0010
0001
0010
0100
1000
0010
,  // measure 40
0100
0010
0100
0010
0100
0010
0001
0010
,  // measure 41
1000
0100
0010
0001
0010
0100
1000
0001
,  // measure 42
0200
0000
0010
0000
0310
1010
0000
1100
,  // measure 43
0000
0100
1000
0100
1000
0000
0101
0000
,  // measure 44
0001
0001
0001
0001
0001
0010
0001
0010
,  // measure 45
0001
0010
0100
1000
0100
0010
0002
0000
,  // measure 46
1003
1000
1000
1000
0001
1000
0000
1001
,  // measure 47
0001
0100
0001
0000
1000
0100
1000
0000
0001
0010
0100
1000
0001
0100
0010
1000
,  // measure 48
0002
0000
1000
0000
1003
0001
1000
0001
,  // measure 49
0001
0001
0010
1000
0010
0001
0010
0100
,  // measure 50
2000
0000
0010
0000
0010
0010
3010
0020
,  // measure 51
0000
0130
0001
0010
0001
0000
0022
0033
,  // measure 52
1000
0001
0001
0001
1000
0010
0100
0010
,  // measure 53
1000
1000
0100
0001
0100
1000
0010
0100
,  // measure 54
0001
0001
0010
0001
1000
0001
0000
0101
,  // measure 55
0000
0000
0001
0100
0001
0000
0100
0010
0100
0000
0010
1000
0010
0100
0001
0010
,  // measure 56
0100
0000
0011
0000
0001
0010
0100
0001
,  // measure 57
0100
1000
0010
0001
0010
1000
0010
0100
,  // measure 58
0001
1000
0100
1000
0001
0010
0001
0100
,  // measure 59
0001
0001
1000
0001
0001
0000
0101
0000
,  // measure 60
0011
0000
0110
0000
0100
1000
0100
1000
,  // measure 61
0100
0000
0010
0000
0001
0000
0100
0000
0220
0330
0000
0000
2002
0000
3003
0000
,  // measure 62
1000
1000
1000
1000
0010
0100
0001
0010
,  // measure 63
0100
0010
0100
0000
1000
0100
1000
0000
0100
0010
0001
1000
0010
0100
0001
0010
,  // measure 64
0200
0000
0010
0310
0001
0010
0100
1000
,  // measure 65
0010
0100
0001
0010
0001
1000
0010
0100
,  // measure 66
0001
0001
1000
1000
0001
0001
1000
1000
,  // measure 67
0010
0100
0001
0010
0001
0000
0011
0000
,  // measure 68
0100
0100
0100
0100
1000
0010
0100
0001
,  // measure 69
0010
0000
0001
0000
0010
0000
0100
0000
2200
3300
0000
0000
0022
0000
0033
0000
,  // measure 70
0001
1000
0001
0001
0010
0100
1000
0001
,  // measure 71
0100
0000
0001
1000
0010
0100
0001
0000
0010
0100
1000
0001
0010
0100
1000
0100
,  // measure 72
2000
0000
0100
0000
3100
1000
0010
0100
,  // measure 73
0002
0010
0013
0001
0100
0001
0010
0001
,  // measure 74
0200
0000
0010
0000
1000
0000
0301
0010
,  // measure 75
0000
0001
1000
0001
1000
0000
0101
0000
,  // measure 76
0001
0001
0001
0001
0000
1000
0001
0200
,  // measure 77
0000
0310
0010
0010
1000
0001
0010
0001
,  // measure 78
1000
0010
1000
0100
0001
0100
1000
0001
,  // measure 79
0100
0010
1000
0001
0010
0100
1000
0010
0100
0001
0010
0100
1000
0010
0100
0001
,  // measure 80
0020
0000
0001
0000
1030
0010
0001
0100
,  // measure 81
0010
0100
0001
1000
0100
0010
0001
1000
,  // measure 82
0020
0000
0100
0000
0031
0010
1000
0100
,  // measure 83
1000
0010
0100
0001
1000
0000
1010
0000
,  // measure 84
1000
1000
1000
1000
0000
0001
1000
0020
,  // measure 85
0000
0130
0100
0100
0001
1000
0100
1000
,  // measure 86
0001
0100
0001
0010
1000
0010
0001
1001
,  // measure 87
0000
0000
0110
0000
0010
1000
0100
0010
0001
0100
0010
1000
0001
0010
0100
0000
,  // measure 88
0220
0000
0330
0000
0000
0000
0000
0000
1000
0000
0000
0100
0000
0010
0000
0100
,  // measure 89
0000
0000
0000
0000
1000
0000
0000
0000
0010
0000
0000
0100
0000
0000
0001
0000
,  // measure 90
1000
0000
0000
0000
0100
0000
0000
0000
0010
0000
0000
0001
0000
1000
0000
0001
,  // measure 91
0000
0000
0100
0000
0010
0000
0000
0000
1000
0000
0000
0100
0000
0000
0010
0000
,  // measure 92
0100
0000
0000
0000
1000
0000
0000
0000
0001
0000
0000
0100
0000
0010
0000
0100
,  // measure 93
0000
0000
0000
0000
0100
0000
0000
0000
0001
0000
0000
0010
0000
0000
0100
0000
,  // measure 94
1000
0000
0000
0000
0100
0000
0000
0000
0010
0000
0000
0001
0000
1000
0000
0001
,  // measure 95
0000
0000
1000
0000
0001
0000
0000
0000
0100
0000
0000
0010
0000
0000
1000
0000
,  // measure 96
0001
0000
0000
0000
0101
0000
0000
0000
0001
0000
0000
0010
0000
0100
0000
1000
,  // measure 97
0000
0000
0000
0000
1100
0000
0000
0000
0100
0000
0000
0010
0000
0000
0001
0000
,  // measure 98
1000
0000
0000
0000
1010
0000
0000
0000
0010
0000
0000
1000
0000
0010
0000
0100
,  // measure 99
0000
0000
0001
0000
0100
0000
0000
0000
0001
0000
0000
0010
0000
0000
0100
0000
,  // measure 100
0010
0000
0000
0000
0011
0000
0000
0000
0001
0000
0000
1000
0000
0010
0000
0100
,  // measure 101
0000
0000
0000
0000
0110
0000
0000
0000
0100
0000
0000
0010
0000
0000
1000
0000
,  // measure 102
0100
0000
0000
0000
0110
0000
0000
0000
0010
0000
0000
0001
0000
0100
0000
0001
,  // measure 103
0000
0000
1000
0000
0001
0000
0000
0000
0010
0000
0000
0100
0000
0000
1000
0000
,  // measure 104
0100
1000
0100
0000
0010
0000
0001
0000
0100
0001
0100
0000
0010
0000
1000
0000
,  // measure 105
0001
1000
0001
0000
0010
0000
0100
0000
1000
0100
1000
0000
0100
0000
0010
0000
,  // measure 106
0001
0010
0001
0000
0100
0000
0010
0000
1000
0010
1000
0000
0100
0000
0010
0000
,  // measure 107
0001
0100
0010
0000
1000
0100
0010
0000
0001
1000
0000
1000
0000
1000
0000
1000
,  // measure 108
0010
0100
0001
0000
0010
0000
0100
0000
1000
0100
0010
0000
0001
0000
0100
0000
,  // measure 109
0010
1000
0001
0000
0010
0000
0100
0000
1000
0001
0100
0000
0010
0000
1000
0000
,  // measure 110
0100
0010
0001
0000
0100
0000
0010
0000
1000
0010
0100
0000
0001
0000
0010
0000
,  // measure 111
0100
1000
0010
0000
0100
0001
0010
0000
0001
0100
0000
0100
0000
0100
0000
0100
,  // measure 112
0010
0001
0010
0000
1000
0000
0100
0000
0010
0001
0010
0000
0100
0000
1000
0000
,  // measure 113
0100
0001
0100
0000
1000
0000
0010
0000
0100
0001
0100
0000
0010
0000
1000
0000
,  // measure 114
0001
0010
1000
0000
0001
0000
0100
0000
1000
0010
0001
0000
1000
0000
0100
0000
,  // measure 115
0001
0010
1000
0000
0001
0100
1000
0000
0010
1000
0000
0100
0000
0010
0000
0001
,  // measure 116
1000
1000
0100
0100
0010
0010
0001
0001
,  // measure 117
0100
0100
0010
0010
1000
1000
0001
0001
,  // measure 118
0100
0001
0100
0001
0100
0001
0100
0001
0100
0010
0100
0010
0100
0010
0100
0010
,  // measure 119
1000
0010
1000
0010
1000
0010
1000
0010
1000
0001
1000
0001
1000
0001
0020
0000
,  // measure 120
0000
0000
0000
0000
,  // measure 121
0000
0000
0000
0000
0000
0030
0000
0000
;
