#TITLE:Pictured as Perfect;
#SUBTITLE:;
#ARTIST:Frums;
#TITLETRANSLIT:;
#SUBTITLETRANSLIT:;
#ARTISTTRANSLIT:;
#GENRE:Experimental requiem;
#CREDIT:tikal. requiem U talkion;
#MUSIC:A.ogg;
#BANNER:[Double Trouble] - Pictured As Perfect.png;
#BACKGROUND:[Double Trouble] - Pictured As Perfect-bg.png;
#CDTITLE:;
#SAMPLESTART:69.688;
#SAMPLELENGTH:20.211;
#SELECTABLE:YES;
#OFFSET:3.576;
#BPMS:0.000=190.000
,22.000=760.000
,23.500=190.000
,23.625=47.500
,24.000=190.000
,30.000=760.000
,31.500=190.000
,31.625=47.500
,32.000=190.000
,38.000=60000.000
,40.000=190.000
,46.000=380.000
,46.250=190.000
,46.500=95.000
,47.000=190.000
,47.250=380.000
,48.000=190.000
,62.000=760.000
,63.500=190.000
,63.625=47.500
,64.000=190.000
,70.000=60000.000
,72.000=190.000
,78.000=380.000
,78.250=190.000
,78.500=95.000
,79.000=190.000
,79.250=380.000
,80.000=190.000
,94.000=760.000
,95.500=190.000
,95.625=47.500
,96.000=190.000
,102.000=47.500
,102.042=95.000
,102.104=190.000
,102.208=380.000
,102.583=190.000
,102.667=60000.000
,104.000=190.000
,110.000=380.000
,110.250=190.000
,110.500=95.000
,111.000=190.000
,111.250=380.000
,112.000=190.000
,126.000=760.000
,127.500=190.000
,127.625=47.500
,128.000=190.000
,134.000=380.000
,135.000=190.000
,135.500=95.000
,136.000=190.000
,142.000=380.000
,142.250=190.000
,142.500=95.000
,143.000=190.000
,143.250=380.000
,144.000=190.000
,296.000=95.000
,311.000=60000.000
,312.000=190.000
,472.000=60000.000
,473.000=190.000
;
#STOPS:38.000=0.053
,38.167=0.052
,38.333=0.053
,38.500=0.052
,38.667=0.053
,38.833=0.052
,39.000=0.053
,39.167=0.052
,39.333=0.053
,39.500=0.052
,39.667=0.052
,39.833=0.052
,70.000=0.053
,70.167=0.052
,70.333=0.053
,70.500=0.052
,70.667=0.053
,70.833=0.052
,71.000=0.053
,71.167=0.052
,71.333=0.053
,71.500=0.052
,71.667=0.053
,71.833=0.052
,102.667=0.052
,102.833=0.053
,103.000=0.052
,103.167=0.052
,103.333=0.053
,103.500=0.052
,103.667=0.053
,103.833=0.052
,311.000=0.105
,311.167=0.105
,311.333=0.105
,311.500=0.105
,311.667=0.105
,311.833=0.106
,472.000=0.223
,488.000=0.211
;
#DISPLAYBPM:*;
#BGCHANGES:;
#FGCHANGES:;

//--------------- dance-single - tikal. requiem ----------------
#NOTES:
     dance-single:
     tikal. requiem:
     Hard:
     10:
     0,0,0,0,0:
0000
0000
0000
0000
,
0000
0000
0000
0000
,
0000
0000
0000
0000
,
0000
0000
0000
0000
,
0000
0000
0000
0000
,
0000
0000
0000
0000
,
1000
0100
1000
0001
1000
0010
0100
0000
0100
0000
0001
0010
,
0100
0000
0100
0000
1000
0010
0100
0000
0000
0000
0000
0000
,
0001
0100
0001
1000
0001
0010
0100
0000
0100
0000
1000
0010
,
0100
0001
0000
1000
0000
0001
0010
0000
0000
0000
0000
0000
,
0001
0010
0001
1000
0001
0100
0010
0000
0010
0000
1000
0100
,
0010
0001
0000
1000
0001
0100
0010
0000
0000
0000
0000
0000
,
1000
0010
1000
0001
1000
0100
0000
1000
0001
0000
1000
0010
,
0100
0000
0000
0000
0001
0000
0000
0000
0000
0000
0000
0000
1000
0000
0000
0000
0000
0000
0000
0000
0001
0000
0000
0000
0100
0000
0000
0000
0000
0000
0000
0000
0000
0000
0000
0000
0000
0000
0000
0010
0000
0000
0000
0000
0000
0000
0000
0000
,
1000
0100
1000
0001
1000
0010
0100
0000
0100
0000
0001
0010
,
0100
0000
0000
0000
0000
0000
0000
1000
0000
0000
0000
0000
0000
0000
0001
0000
0000
0000
0000
0000
0000
0000
0000
0000
0100
0000
0000
0000
0000
0000
0000
0000
0000
0000
0000
0000
0000
0000
0000
0000
0000
0000
0000
0000
0000
0000
0000
0000
,
0001
0100
0001
1000
0001
0010
0100
0000
0100
0000
1000
0010
,
0100
0000
0000
0000
0000
0001
0000
0000
0000
0000
0000
0000
1000
0000
0000
0000
0000
0000
0000
0000
0000
0000
0000
0000
0100
0000
0000
0000
0000
0000
0000
0000
0000
0000
0000
0000
0000
0000
0000
0000
0000
0000
0000
0000
0000
0000
0000
0000
,
1000
0010
1000
0001
1000
0100
0010
0000
0010
0000
0001
0100
,
0010
0000
0000
0000
0000
1000
0000
0000
0000
0000
0000
0000
0000
0000
0001
0000
0000
0000
0000
0000
0000
0000
0000
0000
0010
0000
0000
0000
0000
0000
0000
0000
0000
0000
0000
0000
0000
0000
0000
0000
0000
0000
0000
0000
0000
0000
0000
0000
,
0001
0010
0001
1000
0001
0100
0000
0001
1000
0000
0001
0010
,
0100
0000
1000
0000
0001
0000
1000
0000
0010
0000
0000
0000
0000
0100
0000
0000
,
0001
0100
0010
0100
1000
0100
0010
0000
0010
0000
1000
0100
,
0010
0000
0010
0000
0001
0100
0010
0000
0000
0000
0000
0000
,
1000
0100
0010
0100
0001
0100
0010
0000
0010
0000
0001
0100
,
0010
0000
0010
0000
1000
0100
0010
0000
0000
0000
0000
0000
,
0001
0010
0100
0010
1000
0010
0100
0000
0100
0000
1000
0010
,
0100
0000
0100
0000
0001
0010
0100
0000
0000
0000
0000
0000
,
1000
0010
0100
0010
0001
0010
0000
1000
0100
0000
0001
0100
,
1000
0000
0000
0000
0010
0000
0000
0000
0000
0000
0000
0000
0100
0000
0000
0000
0000
0000
0000
0000
0001
0000
0000
0000
0100
0000
0000
0000
0000
0000
0000
0000
0000
0000
0000
0000
0000
0000
0000
0010
0000
0000
0000
0000
0000
0010
0000
0000
,
1000
0100
0010
0100
0001
0100
0010
0000
0010
0000
0001
0100
,
0010
0000
0000
0000
0000
0000
0000
1000
0000
0000
0000
0000
0000
0000
0001
0000
0000
0000
0000
0000
0000
0000
0000
0000
0010
0000
0000
0000
0000
0000
0000
0000
0000
0000
0000
0000
0000
0000
0000
0000
0000
0000
0000
0000
0000
0000
0000
0000
,
0001
0100
0010
0100
1000
0100
0010
0000
0010
0000
1000
0100
,
0010
0000
0000
0000
0000
0001
0000
0000
0000
0000
0000
0000
1000
0000
0000
0000
0000
0000
0000
0000
0000
0000
0000
0000
0010
0000
0000
0000
0000
0000
0000
0000
0000
0000
0000
0000
0000
0000
0000
0000
0000
0000
0000
0000
0000
0000
0000
0000
,
1000
0010
0100
0010
0001
0010
0100
0000
0100
0000
0001
0010
,
0100
0000
0000
0000
0000
1000
0000
0000
0000
0000
0000
0000
0000
0000
0001
0000
0000
0000
0000
0000
0000
0000
0000
0000
0100
0000
0000
0000
0000
0000
0000
0000
0000
0000
0000
0000
0000
0000
0000
0000
0000
0000
0000
0000
0000
0000
0000
0000
,
0001
0010
0100
0010
1000
0010
0000
0001
0100
0000
1000
0100
,
0001
0000
0000
0000
0010
0000
0000
0000
0000
0000
0000
0000
0100
0000
0000
0000
0000
0000
0000
0000
1000
0000
0000
0000
0100
0000
0000
0000
0000
0000
0000
0000
0000
0000
0000
0000
0000
0000
0000
0010
0000
0000
0000
0000
0000
0010
0000
0000
,
0002
0000
2003
0000
,
3002
0000
2003
0000
,
3002
0000
0000
0000
0203
0000
0320
0000
0000
2030
0000
0000
,
3001
0010
0001
1000
0010
1000
0002
0000
0000
0000
0000
0000
,
2003
0000
0000
0000
0000
0000
0000
0000
3002
0000
0000
0000
0003
0102
0000
0000
,
0000
0000
0000
0000
0000
0000
0000
0000
2003
0000
0000
0000
3000
1200
0000
0000
,
0320
0000
0000
0000
0000
0000
0000
0000
0032
0000
0000
0000
0003
0012
0000
0000
,
2003
0000
0000
0000
0000
0000
0000
0000
3020
0000
0000
0000
0030
1020
0000
0000
,
0230
0000
0000
0000
0000
0000
0000
0000
0302
0000
0000
0000
0003
0102
0000
0000
,
0000
0000
0000
0000
0000
0000
0000
0000
2003
0000
0000
0000
3000
1020
0000
0000
,
0230
0000
0000
0000
0000
0000
0000
0000
0302
0000
0000
0000
0003
0102
0000
0000
,
2003
0000
0000
0000
3001
0010
0100
1000
,
0001
0000
0000
0000
1000
0000
0000
0000
0001
0000
0000
0000
1000
0000
0000
0000
0001
0000
0000
0000
1000
0000
0000
0000
0002
0000
0000
0000
0000
0000
0000
0000
0000
0000
0000
0000
0003
0000
0000
0012
0000
0000
0000
0000
0000
0000
0000
0000
,
0000
0000
0000
0000
0000
0000
0000
0000
2003
0000
0000
0000
3000
1020
0000
0000
,
0230
0000
0000
0000
0000
0000
0000
0000
0302
0000
0000
0000
0003
0102
0000
0000
,
2003
0000
0000
0000
0000
0000
0000
0000
3200
0000
0000
0000
0300
1200
0000
0000
,
0320
0000
0000
0000
0000
0000
0000
0000
0032
0000
0000
0000
0003
0012
0000
0000
,
2003
0000
0000
0000
0000
0000
0000
0000
3020
0000
0100
0000
0000
0100
0000
0000
,
0030
0000
0000
0000
,
0000
0000
0000
0000
,
0001
0010
0100
1000
0100
0010
0100
1000
0002
0000
0000
0000
0000
0000
0000
0000
,
0000
0000
0000
0000
0000
0000
0000
0000
0000
0000
0000
0000
0000
0000
0000
0000
0000
0000
0000
0000
0000
0000
0000
0000
0000
0000
0000
0000
0000
0000
0000
0000
0000
0000
0000
0000
2003
0000
0000
0000
0000
0000
0000
3200
0000
0000
0000
0000
,
0000
0000
0320
0000
0000
0000
0000
0000
0000
0000
0000
0000
0000
0000
0000
0000
0000
0000
0000
0000
0000
0000
0000
0000
0000
0000
0000
0000
0000
0000
0000
0000
0000
0230
0000
0000
0000
0000
0000
0320
0000
0000
0000
0000
0000
0032
0000
0000
,
0000
0000
0000
2003
0000
0000
3001
0100
0010
0100
0010
1000
,
0200
0000
0000
0000
0000
0000
0320
0000
0000
0000
0000
0000
0000
0032
0000
0000
0000
0000
0000
0000
0000
0000
0000
0000
,
0000
0000
0000
0000
0000
0000
0000
0000
0000
0000
0000
0000
0000
0000
0000
0000
0000
2003
0000
0000
0000
0000
0000
0000
0000
0000
0000
3002
0000
0000
0000
0000
0000
0000
0000
0000
0000
0000
0000
0000
0000
0000
0000
0000
0000
0000
0000
0000
,
2003
0000
0000
0000
0000
0000
0000
0000
0000
0000
0000
0000
0000
0000
0000
0000
0000
0000
0000
0000
0000
0000
0000
0000
3001
0000
0000
0000
0000
0100
0000
0000
0000
0000
0010
0000
0000
0000
0000
0100
0000
0000
0000
0000
0001
0000
0000
0000
,
0000
0000
0000
1000
0000
0000
0000
0000
0000
0000
0000
0200
0000
0000
0000
0000
0000
0000
0000
0000
0000
0000
0000
0000
0310
0000
0000
0000
0000
0000
0100
0000
0000
0000
0000
0000
1000
0000
0000
0000
0000
0000
0001
0000
0000
0000
0000
0000
,
0200
0000
0000
0000
0000
0000
0000
0000
0000
0000
0000
0000
0000
0000
0302
0000
0000
0000
0000
0000
0000
0000
0000
0000
0000
0000
0000
0000
0000
0000
0000
0000
0000
1003
0000
0000
0000
0000
0000
0100
0000
0000
0000
0000
0000
1000
0000
0000
,
0000
0000
0000
0001
0000
0000
0000
0000
0000
0100
0000
0000
0000
0000
0000
0010
0000
0000
0000
0000
0000
2000
0000
0000
0000
0000
0000
0000
0000
0000
0000
0000
0000
0000
3100
0000
0000
0000
0020
0000
0000
0000
0000
0000
0000
0000
0000
0000
,
0032
0000
0000
2003
0000
3020
0000
0230
0000
0302
0000
0000
,
0000
0000
0000
0000
0000
0000
0000
0000
0000
0000
0000
0000
0000
0000
0000
0000
2003
0000
0000
0000
0000
0000
0000
0000
3002
0000
0000
0000
0000
0000
0000
0000
0103
0000
0000
0010
0000
0000
0100
0000
0000
0000
0000
0000
0002
0000
0000
0000
,
0000
0000
0000
0000
0000
0000
2003
0000
0000
0000
3200
0000
,
0000
0320
0000
0000
0032
0000
0000
0000
0000
4000
0000
0000
,
0000
0003
0040
3000
,
0400
0030
0004
0300
,
1003
M00M
0000
0000
,
0000
0000
0000
0000
,
0000
0000
0000
0000
,
0000
0000
0000
M00M
,
0021
0000
0430
0000
,
0000
0000
0000
0000
0000
0000
0000
0000
0000
0000
1300
0000
,
1020
0000
0430
0000
,
0000
0000
0000
0000
0000
0000
0000
0000
0000
0000
0301
1000
,
1200
0000
0340
0000
,
0000
0000
0000
0000
0000
0000
0000
0000
0000
0000
0031
0000
,
1001
0000
0000
0000
0000
0000
0000
0110
0000
0000
0000
0000
,
2000
0000
0000
0000
0000
0000
0000
0000
0000
0000
0000
0000
3020
0000
0000
0000
0000
0000
0000
0000
0000
0000
0000
0000
0230
0000
0000
0000
0000
0000
0000
0000
0302
0000
0000
0000
0000
0000
0000
0000
2003
0000
0000
0000
0000
3000
0000
0000
,
1200
0000
0340
0000
,
0430
0000
0000
0000
0000
0000
0340
0000
0000
0000
0031
0000
,
0201
0000
0340
0000
,
0430
0000
0000
0000
0000
0000
0340
0000
0000
0000
1030
0001
,
0021
0000
0430
0000
,
0340
0000
0000
0000
0000
0000
0430
0000
0000
0000
1300
0000
,
1001
0000
0000
0000
0000
0000
0000
0110
0000
0000
0000
0000
,
0002
0000
0000
0000
0000
0000
0000
0000
0000
0000
0000
0000
0203
0000
0000
0000
0000
0000
0000
0000
0000
0000
0000
0000
0320
0000
0000
0000
0000
0000
0000
0000
2030
0000
0000
0000
0000
0000
0000
0000
3002
0000
0000
0000
0000
0003
0000
0000
,
0201
0000
0000
0000
0000
0000
0310
0000
0100
0000
0010
0000
,
1000
0000
0001
0000
1000
0000
0100
0000
0010
0000
0100
0000
,
1200
0000
0000
0000
0000
0000
0310
0000
0100
0000
0010
0000
,
0001
0000
1000
0000
0001
0000
0100
0000
0010
0000
0100
0001
,
0021
0000
0000
0000
0000
0000
0130
0000
0010
0000
0100
0000
,
1000
0000
0001
0000
1000
0000
0010
0000
0100
0000
0010
0000
,
0110
0000
0000
0000
0000
0000
0000
1001
0000
0000
0000
0000
,
2000
0000
0000
0000
0000
0000
0000
0000
0000
0000
0000
0000
3200
0000
0000
0000
0000
0000
0000
0000
0000
0000
0000
0000
0320
0000
0000
0000
0000
0000
0000
0000
0032
0000
0000
0000
0000
0000
0000
0000
2003
0000
0000
0000
0000
3000
0000
0000
,
1200
0000
0000
0000
0000
0000
0310
0100
1000
0001
0000
0001
,
0100
0010
1000
0001
0000
1000
0001
0000
1000
0010
0100
0000
,
0201
0000
0000
0000
0000
0000
0310
0100
0001
1000
0000
1000
,
0100
0010
0001
1000
0000
0001
1000
0000
0001
0010
0100
1000
,
1020
0000
0000
0000
0000
0000
1030
0010
0100
0001
1000
0100
,
0010
0001
1000
0010
0100
0010
1000
0001
0010
0100
0010
0000
,
0110
0000
0000
0000
0000
0000
0000
1001
0000
0000
0000
0000
,
0002
0000
0000
0000
0000
0000
0000
0000
0000
0000
0000
0000
0023
0000
0000
0000
0000
0000
0000
0000
0000
0000
0000
0000
0230
0000
0000
0000
0000
0000
0000
0000
2300
0000
0000
0000
0000
0000
0000
0000
3002
0000
0000
0000
0000
0003
0000
0000
,
0000
0000
2002
0000
0000
0000
0000
0000
0000
0000
0000
0000
,
0000
0000
0000
0000
,
0000
0000
0000
0000
,
0000
0000
0000
0000
,
0000
0000
0000
0000
,
0000
0000
0000
0000
,
0000
0000
0000
0000
,
0000
0000
0000
0000
,
0000
0000
3003
0000
0000
0000
0000
0000
0000
0000
0000
0000
;

//--------------- dance-single - tikal. requiem U talkion ----------------
#NOTES:
     dance-single:
     tikal. requiem U talkion:
     Challenge:
     12:
     0,0,0,0,0:
0000
0000
0000
0000
,
0000
0000
0000
0000
,
0000
0000
0000
0000
,
0000
0000
0000
0000
,
0000
0000
0000
0000
,
0000
0000
MMMM
0000
,
0001
0000
1000
0010
1000
0000
0010
0000
0100
0000
0001
0000
0020
0000
0000
0000
0100
0000
0000
0000
0031
0000
1000
0000
,
0020
0000
0100
0000
1030
0001
0010
0000
0000
0000
0000
0000
,
0100
1000
0100
0000
0010
0000
0001
0000
1000
0000
0010
0000
0200
0000
0000
0000
0001
0000
0000
0000
0310
0000
1000
0000
,
0001
0020
0000
0100
0000
0031
1000
0000
0000
0000
0000
0000
,
1000
0000
0010
0000
0100
0001
0100
0000
0010
0000
1000
0000
0002
0000
0000
0000
0010
0000
0000
0000
0103
0000
0010
0000
,
1000
0200
0000
0301
0100
0010
0001
0000
0000
0000
0000
0000
,
0100
0010
0100
0010
0100
0000
0001
0000
1000
0000
0200
0000
0000
0000
0310
0000
0002
0000
0000
0000
1003
0000
0010
0000
,
0100
0000
0000
0000
0020
0000
0000
0000
0000
0000
0000
0000
1000
0000
0000
0000
0000
0000
0000
0000
0230
0000
0000
0000
0010
0000
0000
0000
0000
0000
0000
0000
0000
0001
0000
0000
0000
0000
0000
0001
0000
0000
0000
0000
0000
0301
0000
0000
,
1000
0000
0001
0010
0001
0000
0010
0000
0100
0000
1000
0000
0020
0000
0000
0000
0100
0000
0000
0000
1030
0000
0001
0000
,
0020
0000
0000
0000
0000
0000
0000
0100
0000
0000
0000
0000
0000
0000
0130
0000
0000
0000
0000
1000
0000
0000
0000
0000
0001
0000
0000
0000
0000
0000
0000
0000
0000
0000
0000
0000
0000
0000
0000
0000
0000
0000
0000
0000
0000
0000
0000
0000
,
0100
0001
0100
0000
0010
0000
1000
0000
0001
0000
0010
0000
0200
0000
0000
0000
1000
0000
0000
0000
0310
0000
0001
0000
,
2000
0000
0000
0000
0000
0010
0000
0000
0000
0000
0000
0000
3001
0000
0000
0000
0000
0000
0000
0100
0000
0000
0000
0000
0001
0000
0000
0000
0000
0000
0000
0000
0000
0000
0000
0000
0000
0000
0000
0000
0000
0000
0000
0000
0000
0000
0000
0000
,
0001
0000
0010
0000
0100
1000
0100
0000
0010
0000
0001
0000
2000
0000
0000
0000
0010
0000
0000
0000
3100
0000
0010
0000
,
0002
0000
0000
0000
0000
0100
0000
0000
0000
1000
0000
0000
0000
0000
0013
0000
0000
0000
0000
0001
0000
0000
0000
0000
1000
0000
0000
0000
0000
0000
0000
0000
0000
0000
0000
0000
0000
0000
0000
0000
0000
0000
0000
0000
0000
0000
0000
0000
,
0100
0010
0100
0010
0100
0000
1000
0000
0001
0000
0200
0000
0000
0000
0310
0000
2000
0000
0000
0000
3001
0000
0010
0000
,
0200
0000
0000
0000
0000
0000
0320
0000
0000
0000
0000
0000
0032
0000
0000
0000
0000
0000
2003
0000
0000
0000
0000
0000
3010
0000
0000
0000
0100
0000
0000
0000
0001
0000
0000
0000
0010
0000
0000
0000
0100
0000
0000
0000
0000
0010
0000
0000
,
0001
0000
1000
0001
0100
0000
0010
0000
0100
0000
0001
0000
2000
0000
0000
3000
2000
0000
0000
3000
0100
0000
0010
0000
,
2000
0000
0000
3000
2000
0000
0000
3000
0010
0000
0100
0000
2000
0000
0000
0000
0000
0000
0000
0000
0000
0000
0000
3000
,
0001
1000
0001
0000
0010
0000
0100
0000
0010
0000
0001
0000
2000
0000
0000
3000
2000
0000
0000
3000
0010
0000
0100
0000
,
1000
0000
0000
0000
0100
0000
0000
0000
0000
0000
0000
0000
0001
0000
0000
0000
0000
0000
0000
0000
1000
0000
0000
0000
0200
0000
0000
0000
0300
0000
0000
0200
0000
0000
0000
0000
0000
0000
0000
0000
0000
0000
0000
0000
0000
0000
0000
0000
,
1300
0000
0001
0000
0010
0100
0010
0000
0001
0000
1000
0000
0002
0000
0000
0003
0002
0000
0000
0003
0100
0000
0010
0000
,
0001
0010
0000
0100
0001
1000
0002
0000
0000
0000
0000
0000
,
1003
0001
1000
0010
1000
0000
0001
0000
1000
0000
0100
0000
0000
0000
0001
0000
0100
0000
0000
0000
1000
0000
0001
0000
,
1000
0000
0000
0000
0010
0000
0000
0000
0000
0000
0000
0000
0100
0000
0000
0000
0000
0000
0000
0000
0010
0000
0000
0000
1000
0000
0000
0000
0000
0000
0000
0000
0000
0100
0000
0000
0000
0000
0000
0010
0000
0000
0000
0000
0000
0001
0000
0000
,
1000
0000
0001
0010
0100
0000
0001
0000
0100
0000
1000
0000
0002
0000
0000
0003
0002
0000
0000
0003
0100
0000
0010
0000
,
0002
0000
0000
0000
0000
0000
0003
0010
0000
0000
0000
0000
0000
0000
1000
0000
0000
0000
0000
0001
0000
0000
0000
0000
0200
0000
0000
0000
0000
0000
0000
0000
0000
0000
0000
0000
0000
0000
0000
0000
0000
0000
0000
0000
0000
0000
0000
0000
,
0301
1000
0001
0000
0010
0000
0100
0000
0001
0000
0100
0000
2000
0000
0000
3000
2000
0000
0000
3000
0010
0000
0100
0000
,
1000
0000
0000
0000
0000
0100
0000
0000
0000
0000
0000
0000
0010
0000
0000
0000
0000
0000
0000
1000
0000
0000
0000
0000
0002
0000
0000
0000
0000
0000
0000
0000
0000
0000
0000
0000
0000
0000
0000
0000
0000
0000
0000
0000
0000
0000
0000
0000
,
1003
0000
0001
0000
0100
0010
0100
0000
1000
0000
0100
0000
0002
0000
0000
0003
0002
0000
0000
0003
0010
0000
0100
0000
,
0001
0000
0000
0000
0000
0100
0000
0000
0000
1000
0000
0000
0000
0000
0001
0000
0000
0000
0000
0100
0000
0000
0000
0000
0020
0000
0000
0000
0000
0000
0000
0000
0000
0000
0000
0000
0000
0000
0000
0000
0000
0000
0000
0000
0000
0000
0000
0000
,
1030
0001
0010
0100
0010
0000
0001
0000
1000
0000
0100
0000
0000
0000
0001
0000
0100
0000
0000
0000
1000
0000
0001
0000
,
1000
0000
0000
0000
0000
0000
0001
0000
0000
0000
0000
0000
0100
0000
0000
0000
0000
0000
0010
0000
0000
0000
0000
0000
1000
0000
0000
0000
0001
0000
0000
0000
1000
0000
0000
0000
0001
0000
0000
0000
0100
0000
0000
0000
0000
0010
0000
0000
,
4000
0000
3004
0000
,
4003
0000
3004
0000
,
4003
0000
0000
0000
3400
0000
0340
0000
0000
0034
0000
0000
,
1003
0010
1000
0001
0010
0001
2000
0000
0000
0000
0000
0000
,
3002
0000
0000
0000
0000
0000
0000
0000
0403
0000
0000
0000
0000
0000
0310
1000
,
0004
0000
0000
0000
0000
0000
0013
0100
1000
0100
0040
0000
0000
0031
0000
0000
,
0100
0010
4000
0000
0000
0000
0000
0000
3040
0000
0000
0000
0000
0000
0130
0001
,
4000
0000
0000
0000
0000
0000
3100
0010
0001
0010
0400
0000
0000
1300
0000
0000
,
0001
0100
0004
0000
0000
0000
0000
0000
4003
0000
0000
0000
0000
0000
3001
0010
,
0400
0000
0000
0000
0000
0000
0310
0001
1000
0010
0400
0000
0000
0310
0000
0000
,
0100
1000
0400
0000
0000
0000
0000
0000
0340
0000
0000
0000
0000
0000
1030
0100
,
0040
0000
0000
0000
0000
0000
0130
1000
0001
0100
0010
1000
0100
0010
0001
0000
,
4000
0004
0000
0000
0000
0000
3003
0000
1040
0000
0000
0000
0000
0000
0130
0001
,
4000
0000
0000
0000
0000
0000
3100
0010
0001
1000
0040
0000
0000
0130
0000
0000
,
0010
1000
0400
0000
0000
0000
0000
0000
0340
0000
0000
0000
0000
0000
0031
0100
,
4000
0000
0000
0000
0000
0000
3100
0010
0100
0001
4000
0000
0000
3001
0000
0000
,
1000
0100
0040
0000
0000
0000
0000
0000
0430
0000
0000
0000
0000
0000
0310
0001
,
4000
0000
0000
0000
0000
0000
3010
0100
0001
0000
0011
0000
0000
1100
0000
0000
,
0000
0000
0000
0000
,
0000
0000
0000
0000
,
1000
0010
0100
0001
1000
0001
1000
0100
0010
0001
1000
0001
2000
0000
0000
0000
0000
0000
0000
0000
0000
0000
0000
0000
,
0000
0000
0000
0000
0000
0000
0000
0000
0000
0000
0000
0000
0000
0000
0000
0000
0000
0000
0000
0000
0000
0000
0000
0000
0000
0000
0000
0000
0000
0000
0000
0000
0000
0000
0000
0000
3002
0000
0000
0000
0000
0000
0000
0203
0000
0000
0000
0000
,
0000
0000
0320
0000
0000
0000
0000
0000
0000
0000
0000
0000
0000
0000
0000
0000
0000
0000
0000
0000
0000
0000
0000
0000
0000
0000
0000
0000
0000
0000
0000
0000
0000
0230
0000
0000
0000
0000
0000
0320
0000
0000
0000
0000
0000
2030
0000
0000
,
0000
0000
0000
3002
0000
0000
1003
0100
0010
0100
0010
0001
,
0200
0000
0000
0000
0000
0000
0320
0000
0000
0000
0000
0000
0000
2030
0000
0000
0000
0000
0000
0000
0000
0000
0000
0000
,
0000
0000
0000
0000
0000
0000
0000
0000
0000
0000
0000
0000
0000
0000
0000
0000
0000
3002
0000
0000
0000
0000
0000
0000
0000
0000
0000
2003
0000
0000
0000
0000
0000
0000
0000
0000
0000
0000
0000
0000
0000
0000
0000
0000
0000
0000
0000
0000
,
3002
0000
0000
0000
0000
0000
0000
0000
0000
0000
0000
0000
0000
0000
0000
0000
0000
0000
0000
0000
0000
0000
0000
0000
1003
0000
0000
0000
0000
0100
0000
0000
0000
0000
0010
0000
0000
0000
0000
0100
0000
0000
0000
0000
1000
0000
0000
0000
,
0000
0000
0000
0001
0000
0000
0000
0000
0000
0000
0000
0200
0000
0000
0000
0000
0000
0000
0000
0000
0000
0000
0000
0000
0310
0000
0000
0100
0000
0000
0001
0000
0000
1000
0000
0000
0100
0000
0000
0010
0000
0000
0001
0000
0000
1000
0000
0000
,
0200
0000
0000
0000
0000
0000
0000
0000
0000
0000
0000
0000
0000
0000
2300
0000
0000
0000
0000
0000
0000
0000
0000
0000
0000
0000
0000
3001
0000
0000
0100
0000
0000
0010
0000
0000
1000
0000
0000
0010
0000
0000
0100
0000
0000
0010
0000
0000
,
0100
0000
0000
0001
0000
0000
1000
0000
0000
0100
0000
0000
0010
0000
0000
0001
0000
0000
1000
0000
0000
0002
0000
0000
0000
0000
0000
0000
0000
0000
0000
0000
0000
0000
0103
0000
0000
0000
0020
0000
0000
0000
0000
0000
0000
0000
0000
0000
,
2030
0000
0000
3002
0000
0023
0000
0230
0000
2300
0000
0000
,
0000
0000
0000
0000
0000
0000
0000
0000
0000
0000
0000
0000
0000
0000
0000
0000
3002
0000
0000
0000
0000
0000
0000
0000
2003
0000
0000
0000
0000
0000
0000
0000
3100
0000
0000
0010
0000
0000
0100
0000
0000
0000
0000
0000
2000
0000
0000
0000
,
0000
0000
0000
0000
0000
0000
3002
0000
0000
0000
0203
0000
,
0000
0320
0000
0000
2030
0000
0000
0000
0000
0004
0000
0000
,
0000
3000
0040
0003
,
0400
0030
4000
0300
,
3001
M00M
0000
0000
,
0000
0000
0000
0000
,
0000
0000
0000
0000
,
0000
0000
0000
0000
0000
0000
0000
0000
0000
0000
0000
0000
4004
0000
0000
3003
,
0021
0000
0000
0000
0000
0000
0130
1000
0001
1000
0100
0010
,
0001
0100
0010
0100
0001
1000
0010
1000
0001
0010
0100
1000
,
1200
0000
0000
0000
0000
0000
0310
0001
1000
0010
0100
0001
,
1000
0000
0100
0000
M100
0000
0001
0000
0010
0000
001M
0000
1000
0000
0100
0000
0010
0000
0001
0000
1000
0010
1000
0010
,
0200
0000
0000
0000
0000
0000
0310
0M10
0001
1000
0100
0010
,
0001
1000
0010
1000
0100
0010
0001
0100
0010
1000
0001
0010
,
0110
0000
0100
1000
0001
0100
0010
1010
0000
1000
0100
0010
,
0022
0000
0033
0220
0000
0330
2000
0000
3002
0000
0103
000M
,
2100
0000
0000
0000
0000
0000
3001
0100
1000
0100
0001
0010
,
0100
1000
0001
0100
0010
1000
0010
0001
0010
0100
0001
1000
,
0002
0000
0000
0000
0000
0000
1003
0100
0001
1000
0010
0001
,
1000
0000
0010
0000
0100
0000
0001
0000
0100
0000
0010
0000
1000
0000
0100
0000
0010
0000
0100
0000
1000
0001
0100
0010
,
2000
0000
0000
0000
0000
0000
3100
M100
0001
0100
0010
1000
,
0001
0100
0001
1000
0100
0010
0100
1000
0001
0100
0010
1000
,
0002
0000
1003
0010
0001
0010
0000
1001
0000
M100
1000
0100
,
0002
0000
0000
2003
0000
0000
3002
0000
0023
0000
0130
1000
,
1020
0000
0000
0000
0031
0010
0100
01M0
1000
0100
0000
0010
,
0100
1000
0001
0100
010M
0000
1000
0100
0010
0001
1000
0010
,
0120
0000
0000
0000
1030
0001
0010
0M10
1000
0001
0000
0100
,
0010
1000
0010
0100
01M0
0000
1000
0001
0010
0100
1000
0001
,
0201
0000
0000
0000
1300
0100
0010
0M10
0001
0010
0000
0100
,
0010
0001
1000
0010
M010
0000
0001
0010
0100
1000
0001
0100
,
0110
0000
0010
1000
0100
0010
0001
1001
0000
0001
0100
0010
,
0220
0000
0330
2020
0000
3030
0002
0000
0023
0000
0230
0000
,
2300
0000
0000
3002
0000
0000
1003
0001
0100
0101
0000
0001
,
1000
0100
0010
0110
0000
0010
0011
0000
0001
0010
0100
1000
,
0002
0000
0000
2003
0000
0000
3001
1000
0100
1100
0000
1000
,
0001
0100
0010
0110
0000
0010
1010
0000
1000
0010
0100
0001
,
1000
0000
1001
0000
0110
0000
1000
0010
0001
1000
0100
0001
,
1000
0100
0010
1000
0010
0100
1000
0001
0100
0010
0001
0010
,
0100
0000
0000
0000
0000
0000
0000
1001
0000
0000
0000
0000
,
1010
0000
0000
0011
0000
0000
0110
0000
1001
0000
0220
0000
,
0330
0000
2002
0000
0000
0000
0000
0000
0000
3000
0000
0000
,
0013
0000
0000
0000
0000
0000
0000
0000
0000
0000
0100
0000
0000
0000
0000
0000
0000
0000
0000
0000
0010
0000
0000
0000
0000
0000
0000
0000
0100
0000
0000
0000
0000
0000
0000
1000
0000
0000
0000
0000
0000
0000
0001
0000
0000
0000
0000
0000
,
1000
0000
0000
0000
0000
0000
0010
0000
0000
0000
0000
1000
0000
0000
0000
0000
0010
0000
0000
0000
0100
0000
0000
0000
0001
0000
0000
0000
0100
0000
0000
0000
0001
0000
0000
0000
1000
0000
0000
0000
0001
0000
0000
0000
0010
0000
0000
0000
,
0001
0000
0000
0000
0010
0000
0000
0000
0100
0000
0000
0000
0010
0000
0000
0001
0000
0000
0100
0000
0000
0000
0000
0000
0010
0000
0000
0000
0000
0000
1000
0000
0000
0000
0000
0000
0001
0000
0000
0000
0000
0000
0000
0010
0000
0000
0000
0000
,
0000
0100
0000
0000
1000
0000
0000
0000
0000
0000
0020
0000
0000
0000
0000
0000
,
0200
0000
0000
0000
,
0000
0000
0000
0000
,
0000
0000
0000
0000
,
0000
0000
0330
0000
0000
0000
0000
0000
0000
0000
0000
0000
;
