#TITLE:Mr. Littleheart's Adventure;
#SUBTITLE:;
#ARTIST:Chroma;
#TITLETRANSLIT:;
#SUBTITLETRANSLIT:;
#ARTISTTRANSLIT:;
#GENRE:;
#CREDIT:;
#BANNER:banner.png;
#BACKGROUND:background.png;
#LYRICSPATH:;
#CDTITLE:;
#MUSIC:Chroma - MLHA.ogg;
#OFFSET:-0.830882;
#SAMPLESTART:60.970913;
#SAMPLELENGTH:10.322582;
#SELECTABLE:YES;
#DISPLAYBPM:93.000000:186.000000;
#BPMS:0.000000=186.000000
,287.500000=93.000000
,295.500000=186.000000
,599.000000=93.000000
,631.000000=186.000000
,638.500000=93.000000
,639.000000=186.000000
,661.000000=372.000000
,663.000000=186.000000
;
#STOPS:31.000000=0.968000,
183.062500=0.161000,
411.500000=0.968000,
467.562500=0.161000,
537.750000=0.323000,
599.000000=0.968000,
631.000000=0.806000,
661.000000=0.040000,
661.250000=0.040000,
661.500000=0.040000,
661.750000=0.040000,
662.000000=0.040000,
662.250000=0.040000,
662.500000=0.040000,
662.750000=0.040000,
720.000000=0.161000
;
#BGCHANGES:;
#KEYSOUNDS:;
#ATTACKS:;

//---------------dance-single - ----------------
#NOTES:
     dance-single:
     :
     Challenge:
     13:
     0.906449,1.843300,0.129779,0.301649,0.997895,1809.000000,1772.000000,37.000000,86.000000,12.000000,0.000000,0.906449,1.843300,0.129779,0.301649,0.997895,1809.000000,1772.000000,37.000000,86.000000,12.000000,0.000000:
// measure 0
0000
0000
0000
0000
,  // measure 1
0000
0000
0000
0000
,  // measure 2
0000
0000
0000
0000
,  // measure 3
0000
0000
0000
0000
,  // measure 4
0000
0000
0000
0000
,  // measure 5
0000
0000
0000
0000
,  // measure 6
0000
0000
0000
0000
,  // measure 7
0000
0000
0000
0000
,  // measure 8
1001
0000
1000
0200
0000
0000
0310
0001
,  // measure 9
0011
0010
1010
1100
,  // measure 10
0101
0000
0010
1000
0001
0100
0000
0020
,  // measure 11
1000
0000
0000
0000
1030
0000
1000
0100
0010
0000
0000
0010
0000
0000
0001
0000
,  // measure 12
0100
0100
0001
0010
0001
1000
0001
0100
,  // measure 13
0010
0000
1000
0000
0100
0000
1000
0000
0001
0000
0100
0010
1000
0000
0001
0000
,  // measure 14
1001
1000
0100
1000
0010
0100
0001
0100
,  // measure 15
0010
1000
0001
1000
0010
1000
0001
1000
0010
0000
1000
0100
0010
0000
0001
0010
,  // measure 16
0100
1000
0100
0001
0100
1000
0010
0001
,  // measure 17
0010
0000
1000
0000
0001
0000
0010
0100
0010
0000
0010
0001
1000
0000
0100
1000
,  // measure 18
0001
0000
0100
0000
0010
0100
0010
0000
1000
0000
0010
1000
0000
0010
1000
0000
,  // measure 19
0001
0000
0010
0000
0100
0010
0100
0000
1000
0000
0100
1000
0000
0100
1000
0000
,  // measure 20
0010
0000
0100
0000
0001
1000
0001
0000
0010
0000
0001
0100
0000
0010
0100
0000
,  // measure 21
0001
0000
1000
0000
0010
0100
0010
1000
0001
0001
0100
0000
0220
0000
0330
0000
,  // measure 22
1000
0000
0001
1000
0010
0100
0010
1000
0001
0000
1000
0100
0010
0000
0001
0000
,  // measure 23
0010
0100
0010
0000
0100
1000
0100
0000
1000
0010
1000
0000
0010
0000
0100
0001
,  // measure 24
1000
0010
1000
0000
0001
0000
0100
0000
1000
0000
0100
0000
0001
0000
0010
0001
,  // measure 25
1000
0100
1000
0000
0001
0000
0010
0000
1000
0000
0010
0000
0001
1000
0001
1000
,  // measure 26
0001
0000
1000
0001
0100
0010
0100
0001
0010
0001
1000
0100
1000
0010
0100
0001
,  // measure 27
1000
0100
0010
0100
0010
0001
0010
0001
0100
0010
1000
0001
0010
0100
1000
0010
,  // measure 28
0200
0300
0001
0100
0010
1000
0100
0010
0100
1000
0001
0010
0100
1000
0100
0010
,  // measure 29
0002
0000
0000
0000
1000
0000
0000
0000
1003
0000
0010
0100
0001
0000
0100
0000
,  // measure 30
1010
0000
0010
1000
0010
1000
0010
1000
0001
0100
0010
0100
0001
1000
0001
0010
,  // measure 31
0200
0000
2300
0000
3100
0010
0001
0010
0100
1000
0001
1000
0020
0000
0000
0000
,  // measure 32
1030
0000
0001
0100
0001
0100
0001
0100
0010
1000
0001
1000
0010
1000
0100
0010
,  // measure 33
0001
0100
0010
1000
0100
0010
0001
0100
0010
1000
0100
0010
0001
0100
0010
0000
,  // measure 34
1000
0000
0001
0010
0001
0010
0001
0010
0100
0010
0100
0010
0001
1000
0001
1000
,  // measure 35
0020
0000
2030
0000
3100
0010
0001
0010
0100
1000
0010
0100
0002
0000
0000
0000
,  // measure 36
1003
0010
0100
0010
0100
0010
0100
0010
0100
0010
0100
0010
0100
0010
0100
0010
,  // measure 37
0100
0010
0100
0010
0100
0010
0100
0010
0100
0010
0100
0010
2002
0000
3003
0000
,  // measure 38
1000
0010
1000
0100
1000
0010
0100
0001
,  // measure 39
0100
0000
0010
0000
0100
0000
0001
0010
0100
0000
0010
0100
1000
0000
0100
1000
,  // measure 40
0001
0010
0001
0100
0001
0010
0100
1000
,  // measure 41
0100
0000
0010
0000
0100
0000
1000
0100
0010
0000
0100
0010
0001
0000
1000
0001
,  // measure 42
1000
0000
0010
1000
0000
0001
1000
0000
0010
0100
0000
0010
1000
0100
0010
0001
,  // measure 43
1000
0000
0001
0010
0000
0001
0100
0000
0010
0100
0000
0001
0010
0100
1000
0010
,  // measure 44
0100
0000
0001
1000
0000
0001
0010
0000
0100
0000
1000
0001
0000
1000
0010
0000
,  // measure 45
0100
0000
0000
0000
0001
0000
1000
0000
0100
0000
0000
0000
1000
0000
0001
0000
0100
0000
0100
0000
0010
0000
0000
0000
2002
3003
0000
0000
0010
0000
1000
0000
,  // measure 46
0001
0100
0000
0001
0010
0001
1000
0100
0000
1000
0010
1000
0001
0100
0010
1000
,  // measure 47
0100
0010
0001
0000
0010
0000
0100
1000
0002
0003
0010
0001
0200
0300
0010
1000
,  // measure 48
0001
0000
0010
0000
0001
0000
1000
0000
0100
0000
1000
0000
0010
1000
0010
0100
,  // measure 49
0001
0000
1000
0000
0100
0000
0010
0000
0001
0000
0010
0000
0100
1000
0010
0100
,  // measure 50
0001
1000
0000
0001
0010
0100
1000
0001
0000
0100
0010
1000
0001
0010
0100
1000
,  // measure 51
0001
1000
0100
0000
0010
0000
0001
0100
0020
0030
1000
0010
0200
0300
0001
0010
,  // measure 52
0100
0000
1000
0000
0010
0000
1000
0000
0001
0000
0100
0000
0010
0100
0010
1000
,  // measure 53
0001
0000
0100
0000
0010
1000
0010
0000
0010
1000
0001
0000
0100
0001
1000
0000
,  // measure 54
0100
0000
0010
0000
0100
0010
0001
0000
0100
0000
0010
0000
0100
0000
0001
0000
,  // measure 55
0010
0000
0100
0000
1000
0010
1000
0000
0001
0000
0010
0000
0001
0000
0100
0000
,  // measure 56
0010
0000
0100
0000
0001
0010
0100
0000
1000
0000
0010
0000
1000
0000
0001
0000
,  // measure 57
0010
0000
0100
0000
0010
0001
0010
0000
0100
0000
1000
0000
0001
1000
0001
0000
,  // measure 58
1000
0000
0000
0000
0000
0000
0010
0000
0000
0000
0000
0000
0100
0000
0001
0000
0100
0000
0001
0000
0000
0000
0000
0000
0010
0000
0000
0000
0000
0000
0100
0000
0000
1000
0000
0000
0100
0000
0000
1000
0000
0000
0100
0000
0000
0000
0000
0000
,  // measure 59
0010
0000
0000
0001
0000
0010
0000
0001
0000
0010
0000
0000
0001
0000
0000
1000
0000
0000
1000
0000
0000
0010
0000
0000
,  // measure 60
1000
0001
1000
0010
1000
0001
1000
0010
,  // measure 61
0100
0001
0100
0010
0100
0001
0100
0010
,  // measure 62
1000
0000
0100
0000
0010
0000
0001
0000
0100
0000
0010
0000
1000
0010
1000
0100
,  // measure 63
0010
0001
1000
0001
0010
0100
2000
0000
0000
0000
0000
0000
3000
0000
1001
0000
,  // measure 64
0001
0100
0001
0010
0001
1000
0100
0000
1000
0100
0010
0000
0100
0000
1000
0100
,  // measure 65
1000
0000
0001
0100
0001
0000
1000
0100
1000
0000
0100
0000
0010
0100
0010
0001
,  // measure 66
1000
0000
0000
0000
0000
0000
0000
0000
0000
0000
0000
0000
0001
0100
0001
1000
,  // measure 67
0100
0000
0000
0000
0000
0000
0000
0000
0000
0000
1000
0001
1000
0001
0010
0000
,  // measure 68
0100
0010
0001
0010
0100
1000
0100
1000
0010
0100
0001
0010
0100
0010
0001
1000
,  // measure 69
0100
0010
0100
1000
0001
0010
0100
0010
0001
0100
0010
1000
0001
0010
0001
0000
,  // measure 70
1000
0100
1000
0100
1000
0100
0010
0001
1000
0100
0010
0001
1000
0010
0200
0000
,  // measure 71
0000
0000
0000
0000
0000
0000
0000
0000
0000
0000
0000
0000
0310
0000
0000
0000
0010
0000
1000
0000
0001
0000
0000
0000
0100
0000
0000
0000
0010
0000
1000
0010
,  // measure 72
1000
0010
1000
0010
0100
0000
0010
1000
0001
0000
0010
0100
0010
0000
0100
0000
1000
0001
1000
0100
0010
0100
1000
0010
0100
0000
0000
0000
0001
0000
0010
0001
,  // measure 73
0010
0001
0010
0001
1000
0000
0010
1000
0010
0000
0100
0000
0001
1000
0100
0010
0100
1000
0010
0100
0001
1000
0001
1000
0010
0100
0004
0000
1003
0000
0000
0000
,  // measure 74
1000
0100
1000
0100
0010
0001
0010
0001
1000
0001
1000
0010
1000
0010
1000
0000
,  // measure 75
0001
0000
0010
0100
1000
0100
0010
0100
1000
0010
0100
0000
0000
0000
0001
1000
,  // measure 76
0010
1000
0010
1000
0010
1000
0010
1000
0010
1000
0002
0000
0003
0000
0001
1000
,  // measure 77
0100
1000
0100
1000
0100
1000
0100
1000
0100
1000
0002
0000
0003
0000
0001
1000
,  // measure 78
0010
1000
0010
1000
0010
1000
0001
0010
0100
0010
0100
0010
0100
0010
0001
0100
,  // measure 79
0010
0100
0001
1000
0100
1000
0001
0000
1000
0000
1010
0000
0100
0000
0102
0000
,  // measure 80
0000
1003
1000
0001
1000
0100
0010
0000
,  // measure 81
0000
0100
0000
1000
0000
0100
0000
0010
,  // measure 82
0000
0100
1000
0000
0100
1000
0000
0000
,  // measure 83
0000
0100
0000
0010
0000
0001
0000
1000
,  // measure 84
0000
0000
0000
0000
0001
0100
0100
0001
,  // measure 85
0000
0010
0100
0000
0010
0000
0002
0000
,  // measure 86
0000
0000
0003
1000
0100
0001
0100
0000
,  // measure 87
0010
0001
2000
0000
0000
0000
3000
0000
,  // measure 88
0000
0001
0001
1000
0001
1000
0001
0010
,  // measure 89
0000
0100
0000
0010
0000
0001
0000
1000
,  // measure 90
0000
0001
0100
0000
0010
2000
0000
0000
,  // measure 91
0000
0000
3000
0000
0100
1000
0010
0100
,  // measure 92
0001
0100
0001
0000
0010
0100
1000
0000
,  // measure 93
1000
0100
0010
0000
0010
0100
1000
0002
,  // measure 94
0000
0000
0203
0000
0000
0020
0000
0000
,  // measure 95
0000
0000
0000
0000
0000
0000
0330
1001
,  // measure 96
0000
1000
1000
0001
0100
0100
0002
0000
,  // measure 97
0000
0023
0000
0032
0000
0203
0000
0320
,  // measure 98
0000
1030
0020
0000
1030
0200
0000
0000
,  // measure 99
0000
2300
0000
3002
0000
0023
0000
0230
,  // measure 100
0000
0000
0000
0300
0100
0010
0010
0001
,  // measure 101
0000
1000
0001
0000
0200
0000
0002
0000
,  // measure 102
0000
0000
0000
0000
0000
0000
0000
0303
,  // measure 103
0000
1020
0000
0000
0000
0000
0030
0000
,  // measure 104
0100
0101
0000
0001
0000
0010
0000
0001
,  // measure 105
0000
2001
0000
0000
3000
0201
0000
0000
,  // measure 106
0300
0000
1020
0000
0000
0000
0130
0000
0000
0000
0001
0000
0000
0001
0000
0000
,  // measure 107
0001
1000
1000
0001
1000
0000
0010
0000
,  // measure 108
0100
0000
0000
0000
0000
0000
0001
0000
0000
0000
1000
0000
0100
1000
0010
0000
,  // measure 109
0000
0100
0010
0100
0001
1000
0100
0010
,  // measure 110
0001
0000
1000
0001
1000
0010
1000
0001
1000
0010
1000
0000
0001
0000
0010
0000
,  // measure 111
0001
0100
0010
1000
0001
0010
0100
0010
,  // measure 112
0001
0000
0100
0010
0100
0001
0100
0010
0100
0001
0100
0000
0010
0000
1000
0000
,  // measure 113
0100
0000
0010
0001
0010
0001
0010
0001
1000
0100
0010
0100
0010
0100
0010
0001
,  // measure 114
1000
0001
1000
0001
1000
0001
0100
0001
1000
0100
0010
0100
1000
0100
0010
0001
,  // measure 115
1000
0100
1000
0010
0100
0001
1000
0010
0100
0010
1000
0001
0010
0001
0100
0010
,  // measure 116
1000
0000
0100
0000
0010
0000
0000
0000
0011
0000
0000
0000
0001
0000
0100
0000
0010
0000
1000
0000
0010
0000
0010
0000
1000
0000
0000
0000
2002
3003
0000
0000
,  // measure 117
0100
0000
0001
0100
0000
0010
1000
0000
0100
0010
0000
0100
0010
0001
1000
0010
,  // measure 118
0100
0001
0100
0001
1000
0000
0001
0000
0010
0001
0200
0000
0310
1000
0200
0000
,  // measure 119
0310
0001
1000
0000
0010
0000
0100
0000
0010
0000
1000
0000
0001
0000
0100
0001
,  // measure 120
0100
0010
1000
0000
0010
0000
1000
0000
0001
0000
1000
0000
0100
0000
0010
0001
,  // measure 121
0010
0000
0010
0100
0000
0100
1000
0000
1000
0010
0000
0100
0010
1000
0001
0010
,  // measure 122
0100
0010
0001
1000
0010
0000
1000
0000
0001
0010
0200
0000
0310
0001
0200
0000
,  // measure 123
0310
1000
0001
0000
0100
0000
0010
0000
0100
0000
0001
0000
1000
0000
0001
1000
,  // measure 124
0001
0010
0100
0000
1000
0000
0001
0100
0101
0000
1000
0010
1010
0000
0000
0000
,  // measure 125
1001
0000
0001
0100
0001
0000
0100
0010
0100
0000
0010
1000
0010
0000
1000
0100
,  // measure 126
1000
0000
0100
0010
0100
0000
0010
0001
0010
0000
0001
1000
0001
0000
0100
0010
,  // measure 127
0100
0000
0010
1000
0010
0000
0100
0001
0100
0000
0001
0010
0001
0000
0010
0100
,  // measure 128
0010
0000
0100
1000
0100
0000
1000
0001
1000
0000
0001
0100
0001
0000
0100
0010
,  // measure 129
0100
0000
0000
0000
0000
0000
0000
0000
0000
0000
0000
0000
0000
0000
0000
0000
0000
0000
0100
0000
0001
0000
0100
0000
0001
0000
0000
0000
0000
0000
0000
0000
0000
0000
0000
0000
1000
0000
0000
0001
0000
0000
1000
0000
0000
0001
0000
0000
,  // measure 130
1000
0000
0000
0000
0000
0000
0100
0000
0010
0000
0001
0000
1000
0000
0000
0000
0000
0000
0001
0000
0000
1000
0000
0000
,  // measure 131
0010
0100
0001
1000
0010
0100
0001
1000
,  // measure 132
0010
0100
0001
1000
0010
0100
0001
1000
,  // measure 133
0001
0010
0100
0010
0001
0100
0010
1000
0001
0010
0001
1000
0010
0100
0001
1000
,  // measure 134
0100
1000
0001
0100
0010
1000
0100
0010
0000
0000
0000
0000
1001
0000
0000
0000
,  // measure 135
0000
0000
0001
0100
0001
0000
0100
0000
0001
0000
0000
0000
0110
0000
0000
0000
,  // measure 136
0000
0000
0010
1000
0010
0000
1000
0000
0001
0000
0000
0000
1001
0000
0000
0000
,  // measure 137
0000
0000
0001
0010
0001
0000
1000
0000
0001
0000
0000
0000
0101
0000
0000
0000
,  // measure 138
0000
0000
0001
1000
0010
0000
0000
1000
0000
0000
0100
0000
0010
0000
0000
0000
,  // measure 139
0000
0000
0100
1000
0010
0000
0100
0000
0000
0000
0000
0000
0110
0000
0000
0000
,  // measure 140
0000
0000
0100
0010
1000
0000
0001
0000
1000
0000
0000
0000
1001
0000
0000
0000
,  // measure 141
0000
0000
0001
0010
0100
0000
0010
0000
0000
0000
0000
0000
0011
0000
0000
0000
,  // measure 142
0000
0000
1000
0010
0100
0000
0001
0000
0010
0000
0000
0000
1002
0000
0000
0000
,  // measure 143
0100
0000
0000
0000
2003
0000
0000
0000
3100
0000
1000
0010
0200
0000
0000
0000
,  // measure 144
0301
0020
0130
0020
,  // measure 145
0031
0100
0010
1000
,  // measure 146
0002
0000
0023
0000
0230
0000
0310
0001
,  // measure 147
0100
0010
1000
0100
0010
0100
1000
0010
,  // measure 148
0100
0000
0001
0000
1000
0000
0100
0000
0010
0000
0001
0000
1000
0100
1000
0100
,  // measure 149
0010
0001
0010
0001
0010
0100
1000
0010
0100
0010
1000
0001
0010
0000
0010
0000
,  // measure 150
0001
0000
0000
0000
0010
0000
0000
0000
0100
0000
0000
0000
0010
0000
0000
0000
0001
0000
0000
0000
1000
0000
0000
0000
0010
0000
0000
0000
0100
0001
0100
0000
,  // measure 151
0000
0000
0000
0000
0000
0000
0000
0000
0000
0000
0010
0100
0001
1000
0100
0000
0000
0000
0000
0000
0000
0000
0000
0000
0000
0000
0000
0000
1000
0000
0000
0000
,  // measure 152
0001
0000
0000
0000
0100
0000
0000
0000
0001
0000
0000
0000
0010
0000
0000
0000
0100
0000
0000
0000
0010
0000
0000
0000
0001
0000
0000
0000
1000
0001
0010
0000
,  // measure 153
0000
0000
0000
0000
0000
0000
0000
0000
0000
0000
0001
1000
0010
1000
0100
0000
0000
0000
0000
0000
0000
0000
0000
0000
0000
0000
0000
0000
1000
0000
0000
0000
,  // measure 154
0000
0000
0001
0100
0001
0000
0000
0000
0010
0000
0100
0000
1000
0000
0001
0000
0100
0000
0000
0000
1001
0000
0000
0000
1000
0000
0000
0000
0010
0000
0000
0000
,  // measure 155
0000
0000
0100
0001
0100
0000
0010
0000
0010
0000
0100
0010
0100
0000
0000
0000
0001
0000
1000
0100
1000
0000
0001
0000
1001
0000
0000
0000
1000
0000
0000
0010
,  // measure 156
0000
0000
0100
0000
0000
0001
0000
0000
0010
0000
0100
0000
1000
0000
0100
0000
0001
0000
0100
0000
0010
0000
0001
0000
1000
0000
0010
0000
0100
0001
0010
0000
,  // measure 157
0000
0000
0000
0000
0000
0000
0000
0000
0000
0000
0010
0001
1000
0010
0200
0000
0000
0000
0000
0000
0000
0000
0000
0000
0300
0000
0000
0000
0001
0000
0100
0000
,  // measure 158
0010
0100
0000
0001
1000
0100
0010
0100
0000
1000
0001
0010
0100
1000
0010
1000
,  // measure 159
0010
0000
0000
0000
0000
0000
0000
0000
0000
0000
0000
0000
0100
0000
0000
0000
0000
0000
0000
0000
0000
0000
0000
0000
0001
0000
0000
0000
0000
0000
0000
0000
0000
0000
0000
0000
0000
0000
0000
0000
0000
0000
0000
0000
0000
0000
0000
0000
0010
0000
0000
0000
0000
0000
0000
0000
0000
0000
0000
0000
0000
0000
0000
0000
0000
0000
0000
0000
0000
0000
0000
0000
0001
0000
0000
0000
0000
0000
0000
0000
0000
0000
0000
0000
1000
0000
0000
0000
0000
0000
0000
0000
0000
0000
0000
0000
0100
0000
0000
0000
0000
0000
0000
0000
0000
0000
0000
0000
0000
0000
0000
0000
0000
0000
0000
0000
0000
0000
0000
0000
0020
0030
0000
0000
0000
0000
0002
0003
0000
0000
0000
0000
0020
0030
0000
0000
0000
0000
0000
0000
0000
0000
0000
0000
0100
0000
0000
0000
0000
0000
0000
0000
0000
0000
0000
0000
1000
0000
0000
0000
0000
0000
0000
0000
0000
0000
0000
0000
0001
0000
0000
0000
0000
0000
0000
0000
0000
0000
0000
0000
0100
0000
0000
0000
0000
0000
0000
0000
0000
0000
0000
0000
,  // measure 160
0010
1000
0001
0010
0100
0010
0001
1000
0100
0010
0001
1000
0001
1000
0010
0100
,  // measure 161
0001
1000
0100
0010
0001
0010
0100
1000
0010
1000
0001
0100
0010
1000
0001
1000
,  // measure 162
0000
0100
0010
0001
1000
0001
0000
0100
0001
0010
0100
1000
0010
1000
0100
0010
,  // measure 163
0001
0000
0100
0000
0010
0100
0001
0000
0010
0100
1000
0000
0100
0010
0001
0100
,  // measure 164
0010
1000
0001
0010
0001
0100
0010
1000
0100
0010
0100
1000
0100
1000
0010
0100
,  // measure 165
0001
1000
0100
0010
0001
0010
0001
0010
0100
1000
0100
1000
0001
0000
0100
0010
,  // measure 166
1000
0000
0001
1000
0100
0000
0010
0100
1000
0000
0100
0010
0001
0000
0100
0001
,  // measure 167
1000
0000
0010
1000
0001
0000
0100
0010
1000
0000
0010
0100
0001
0000
0010
0001
,  // measure 168
1000
0000
0100
0010
0001
0000
0010
0001
0100
0000
0010
1000
0001
0000
0100
0010
,  // measure 169
1000
0000
0100
1000
0001
0000
0010
0001
0100
0000
0010
0100
0010
0000
1000
0000
,  // measure 170
0001
0000
0000
0000
0000
0000
0010
0000
0001
0000
0010
0000
0001
0000
0000
0000
0000
0000
1000
0000
0000
0000
0000
0000
0010
0000
0000
1000
0000
0000
0010
0000
0000
1000
0000
0000
0010
0000
0000
0000
0000
0000
1000
0000
0000
0000
0000
0000
,  // measure 171
0001
0000
0000
0000
0100
0000
0000
0000
0001
0000
0000
0000
0100
0000
0000
0000
0000
0000
0001
0000
0000
0000
0000
0000
1000
0000
0000
0000
0000
0000
1000
0000
0000
0000
0000
0000
0100
0000
0000
0000
0000
0000
0010
0000
0000
0100
0000
0000
,  // measure 172
0010
0000
0100
1000
0001
0000
1000
0001
1000
0000
0010
1000
0001
0000
0100
0001
,  // measure 173
0100
0000
0001
0010
0100
0000
1000
0100
1000
0000
0100
0010
0001
0000
1000
0000
,  // measure 174
0010
0000
0100
0000
0001
0000
1000
0000
0100
0000
0010
0001
1000
0001
0100
0010
,  // measure 175
1000
0100
0010
0001
1000
0000
0200
0000
0320
0000
0031
1000
0010
1000
0001
0100
,  // measure 176
0001
1000
0010
0100
0001
0010
0001
1000
0100
0010
0001
1000
0010
1000
0001
0100
,  // measure 177
0010
0100
0001
0010
0001
0000
1000
0001
1000
0000
0010
0100
0010
1000
0010
1000
,  // measure 178
0001
1000
0001
0100
0001
0100
0001
0010
0100
0000
0100
1000
0010
0000
0100
0001
,  // measure 179
1000
0000
0100
1000
001M
100M
001M
100M
001M
100M
001M
100M
001M
100M
001M
100M
,  // measure 180
0000
1001
0000
1000
1000
0001
1000
0100
,  // measure 181
0010
0000
0000
0100
0000
1000
0000
0010
,  // measure 182
0000
0100
0000
0001
0100
0000
0100
0020
,  // measure 183
0000
0000
0000
0230
0000
0320
0000
2030
,  // measure 184
0000
0002
0000
0000
3003
0000
0001
0010
,  // measure 185
0010
0001
0000
1000
0100
0000
0110
0000
,  // measure 186
2002
0000
0000
0000
3003
0001
0001
0010
,  // measure 187
0200
0000
0310
0001
2000
0000
0000
0000
,  // measure 188
3000
0000
0000
0001
0001
0100
0001
1000
,  // measure 189
0100
0020
0000
0230
0000
2300
0000
3020
,  // measure 190
0000
0230
0000
0301
0100
0000
0001
2000
,  // measure 191
0000
0000
0000
0000
3000
0000
0100
0010
,  // measure 192
0001
1000
1000
0001
0100
0000
0010
1000
,  // measure 193
0100
0000
0010
0001
0100
0000
0010
1000
,  // measure 194
0100
2000
0000
0000
3002
0000
0000
0200
,  // measure 195
0000
0000
0000
0000
,  // measure 196
0303
0000
0000
0000
0000
0001
0000
0000
,  // measure 197
0000
0010
0000
0000
0000
0100
0000
0000
,  // measure 198
0000
1000
0000
0000
0000
0000
0000
0000
,  // measure 199
0000
0000
0000
0000
,  // measure 200
0000
0000
0000
0000
0000
1000
0000
0000
,  // measure 201
0000
0100
0000
0000
0000
0010
0000
0000
,  // measure 202
0000
0001
0000
0000
0000
0000
0000
0000
;
