#VERSION:0.83;
#TITLE:Midnight Vacation Time;
#SUBTITLE:;
#ARTIST:Choro Q 2;
#TITLETRANSLIT:;
#SUBTITLETRANSLIT:;
#ARTISTTRANSLIT:;
#GENRE:;
#ORIGIN:;
#CREDIT:;
#BANNER:MVT-bn.png;
#BACKGROUND:MVT-bg.png;
#PREVIEWVID:;
#JACKET:;
#CDIMAGE:;
#DISCIMAGE:;
#LYRICSPATH:;
#CDTITLE:;
#MUSIC:Midnight Vacation Time.ogg;
#OFFSET:-0.587000;
#SAMPLESTART:160.147003;
#SAMPLELENGTH:21.099001;
#SELECTABLE:YES;
#DISPLAYBPM:182.000000;
#BPMS:0.000=182.000;
#STOPS:;
#DELAYS:;
#WARPS:;
#TIMESIGNATURES:0.000=4=4;
#TICKCOUNTS:0.000=4;
#COMBOS:0.000=1;
#SPEEDS:0.000=1.000=0.000=0;
#SCROLLS:0.000=1.000;
#FAKES:;
#LABELS:0.000=Song Start;
#BGCHANGES:;
#KEYSOUNDS:;
#ATTACKS:
;

//---------------dance-single - Nezemarth & Feraligatr----------------
#NOTEDATA:;
#CHARTNAME:Nezemarth & Feraligatr;
#STEPSTYPE:dance-single;
#DESCRIPTION:Nezemarth & Feraligatr;
#CHARTSTYLE:;
#DIFFICULTY:Challenge;
#METER:10;
#RADARVALUES:0.752713,0.932449,0.404499,0.493804,1.250269,1003.000000,926.000000,77.000000,94.000000,6.000000,0.000000,0.000000,0.000000,0.000000,0.752713,0.932449,0.404499,0.493804,1.250269,1003.000000,926.000000,77.000000,94.000000,6.000000,0.000000,0.000000,0.000000,0.000000;
#CREDIT:Nezemarth & Feraligatr;
#DISPLAYBPM:182.000000;
#NOTES:
// measure 0
0000
0000
0000
0000
,  // measure 1
0000
0000
0000
0000
,  // measure 2
0000
0000
0000
0000
,  // measure 3
0000
0000
0000
0000
,  // measure 4
0000
0000
0000
0000
,  // measure 5
0000
0000
0000
0000
,  // measure 6
0000
0000
0000
0000
,  // measure 7
0000
0000
0000
0000
,  // measure 8
1000
0001
0010
0100
,  // measure 9
1000
0000
0000
0010
0000
0000
0100
0000
0000
0001
0000
1000
,  // measure 10
0100
0010
0001
1000
,  // measure 11
0010
0000
0000
1000
0000
0100
0000
0010
0000
0001
0000
0100
,  // measure 12
0010
1000
0001
0010
,  // measure 13
0110
0000
0000
0000
0000
0000
0100
0000
0000
0000
0000
0000
1000
0000
0000
0000
0000
0000
0001
0000
0000
0000
1000
0001
,  // measure 14
0100
0010
0101
0010
,  // measure 15
0101
0000
1000
0010
0100
0001
1000
0100
1000
0001
0100
0001
,  // measure 16
0020
0000
0000
0130
0000
0000
1000
0000
0010
0100
0000
0000
,  // measure 17
0001
0000
0001
0010
0000
0010
0100
0000
0110
0000
0000
1200
,  // measure 18
0000
0000
1300
0001
0000
0000
0100
0000
0010
1000
0000
0000
,  // measure 19
0200
0000
0000
0302
0000
0000
0203
0000
0310
0100
1000
0001
,  // measure 20
0100
0000
0000
1020
0000
0000
0130
0000
0100
0001
0000
0000
,  // measure 21
0001
0000
0001
0010
0000
0010
0100
0000
1100
0000
0000
0120
,  // measure 22
0000
0000
0130
1000
0000
0000
0001
0000
0001
0100
0000
0000
,  // measure 23
0020
0000
0130
0001
1000
0100
0010
0100
1000
0001
0100
0001
,  // measure 24
2000
0000
0000
0000
0000
3000
2001
0000
0000
0000
3001
0000
1000
0000
0000
0000
0001
0000
0100
0000
0000
0000
0201
0000
,  // measure 25
0000
0000
0310
1000
0000
0102
0000
0000
1003
0100
0000
0010
,  // measure 26
0002
0000
0000
0000
0000
0003
0012
0000
0000
0000
0010
0003
0100
0000
0000
0000
1000
0000
0100
0000
0000
0000
2100
0000
,  // measure 27
0000
0000
3001
0100
0000
1020
0000
0000
1030
0010
0100
0001
,  // measure 28
0020
0000
0030
0021
0000
0130
1000
0000
0001
0000
0000
0002
,  // measure 29
0000
0000
0103
0001
0000
1020
0000
0000
1030
0001
0000
1000
,  // measure 30
0200
0000
0000
0000
0000
0300
1200
0000
0000
0000
0310
0000
0001
0000
0000
0000
1000
0000
0001
0000
0000
0000
0100
0000
,  // measure 31
0010
1000
0001
0010
0100
1000
0010
0100
0001
1000
0010
1000
,  // measure 32
0200
0000
1300
0100
0000
1000
0010
0000
1000
0001
0000
1000
,  // measure 33
0100
0000
0000
0100
0000
0010
0001
0000
2000
0010
0000
3000
,  // measure 34
1000
0000
0001
0100
0000
0001
0010
0000
0001
1000
0000
0010
,  // measure 35
0001
0000
0010
0001
0000
0020
0000
0000
0130
0001
0000
0000
,  // measure 36
1000
0000
0001
0100
0000
0001
0010
0000
0001
1000
0000
0001
,  // measure 37
0100
0000
0000
0100
0000
0010
1000
0000
0002
0010
0003
0001
,  // measure 38
1000
0010
0100
0001
1000
0100
1000
0010
0100
0001
1000
0100
,  // measure 39
0020
0000
0001
0000
0000
0130
0010
0000
0011
0000
0000
2010
,  // measure 40
0000
0000
3001
0100
0000
0001
0010
0000
0001
1000
0000
0001
,  // measure 41
0100
0000
0000
0100
0000
0010
1000
0000
0002
0010
0000
0003
,  // measure 42
0001
0000
1000
0100
0000
1000
0010
0000
1000
0001
0000
0010
,  // measure 43
1000
0000
0010
1000
0000
0010
0100
1000
0001
0100
0000
0010
,  // measure 44
1000
0000
0001
0100
0000
0001
0010
0000
0001
1000
0000
0001
,  // measure 45
0100
0000
0000
0100
0000
0010
1000
0000
0001
0010
0000
2000
,  // measure 46
0000
0000
3010
0100
0000
0010
0001
0000
1000
0010
0000
0100
,  // measure 47
0001
1000
0100
0010
0100
1000
0010
0100
0001
1000
0100
0010
,  // measure 48
0001
0000
1000
0001
0000
0020
0000
0000
0000
0031
0000
1000
,  // measure 49
0001
0000
0020
0000
0000
0000
0031
0000
1000
0001
0000
0100
,  // measure 50
0020
0000
0000
1000
0000
0230
0000
0000
0000
0302
0000
0010
,  // measure 51
0000
0000
0000
0000
0000
0000
0000
0000
0000
0000
1003
0000
0100
1000
0001
0000
0100
0000
0001
0000
0010
0000
0100
0000
,  // measure 52
1000
0000
0001
1000
0000
0020
0000
0000
0000
1030
0000
0001
,  // measure 53
1000
0000
0020
0000
0000
0000
1030
0000
0001
1000
0000
0000
,  // measure 54
0200
0000
0000
0000
0000
0302
0000
0000
0000
0203
0000
0010
,  // measure 55
0000
0310
0001
1000
0010
0100
0001
1000
0000
0100
0000
0010
,  // measure 56
0001
0000
0100
0001
0000
0020
0000
0000
0000
0031
0000
0100
,  // measure 57
0001
0000
0020
0000
0000
0000
0031
0000
0100
0001
1000
0100
,  // measure 58
2000
0000
0000
0000
0000
3020
0000
0000
0000
0230
0000
0301
,  // measure 59
1000
0100
0000
0000
0110
0000
0000
0000
0000
0000
0110
0000
0000
0000
0000
0000
0120
0000
0000
0000
0000
0030
0011
0000
,  // measure 60
0000
0000
1000
0001
0000
0000
0100
0000
0000
0010
0000
1000
,  // measure 61
0001
0000
1000
0100
0000
0010
0000
0000
0001
1000
0000
0010
,  // measure 62
0100
0000
0000
0000
0000
0000
0000
0000
0002
0003
0000
0000
2000
3000
0000
0000
0200
0300
0000
0000
0020
0030
0000
0000
0002
0003
0000
0000
0000
0000
0000
0000
0000
0000
0000
0000
1000
0000
0000
0000
0000
0000
0000
0000
0000
0000
0000
0000
,  // measure 63
0010
0000
0000
0100
0001
1000
0100
1000
0001
0100
0010
1000
,  // measure 64
0200
0000
1300
0100
0000
1000
0010
0000
1000
0001
0000
1000
,  // measure 65
0100
0000
0000
0100
0000
0010
0001
0000
2000
0010
0000
3000
,  // measure 66
1000
0000
0001
0100
0000
0001
0010
0000
0001
1000
0000
0010
,  // measure 67
0001
0000
0010
0001
0000
0020
0000
0000
0130
0001
1000
0100
,  // measure 68
0010
0000
0001
0100
0000
0001
0010
0000
0001
1000
0000
0001
,  // measure 69
0100
0000
0000
0100
0000
0010
1000
0000
0001
0010
0000
0001
,  // measure 70
1000
0010
0100
0001
0010
0100
1000
0010
1000
0001
0100
0001
,  // measure 71
0020
0000
0130
1000
0001
0100
0010
1000
0001
0010
0100
1000
,  // measure 72
0020
0000
1030
0100
0000
1000
0010
0000
1000
0001
0000
1000
,  // measure 73
0100
0000
0000
0100
0000
0010
0001
0000
2000
0010
0000
3000
,  // measure 74
1000
0000
0001
0100
0000
0001
0010
0000
0001
1000
0000
0010
,  // measure 75
0001
0000
0010
0001
0000
0020
0000
0000
0130
0001
1000
0001
,  // measure 76
0010
0000
0001
0100
0000
0001
0010
0000
0001
1000
0000
0001
,  // measure 77
0100
0000
0000
0100
0000
0010
1000
0000
0001
1000
0000
0100
,  // measure 78
0020
0000
0031
0100
0010
1000
0100
0010
0001
0100
0010
1000
,  // measure 79
0100
0010
0001
1000
0010
1000
0001
0100
0001
1000
0100
0010
,  // measure 80
0001
0000
0001
0000
0000
0001
0000
0000
0100
0120
0000
0000
,  // measure 81
1030
0000
0000
0000
1000
0000
0000
0000
0000
0000
0000
0000
0000
0000
0000
0000
0001
1000
0000
0000
0000
0000
0000
0000
,  // measure 82
1100
0000
1100
0000
0000
1000
0000
0000
0001
0201
0000
0300
,  // measure 83
0110
0000
1010
0000
0000
1000
1200
0000
0310
0012
0000
0003
,  // measure 84
1001
0000
1001
0000
0000
1001
0000
0000
1000
1020
0000
0030
,  // measure 85
0101
0000
1001
0000
0000
1000
0001
0010
0100
1000
0001
0100
,  // measure 86
0010
0000
1010
0000
0000
1010
0000
0000
1000
1002
0000
0000
,  // measure 87
0013
0100
1000
0001
0100
0001
0010
0100
1000
0001
0100
0001
,  // measure 88
0020
0000
0000
0130
0000
0000
0110
0000
0000
0100
0000
1000
,  // measure 89
0000
0000
1000
0010
0000
0000
0120
0000
0000
0001
0000
0031
,  // measure 90
0000
0000
0001
0010
1000
0100
1000
0000
1000
0010
0000
0010
,  // measure 91
0022
0033
0000
2020
3030
0000
2200
3300
0000
0202
0303
0000
,  // measure 92
2200
0000
0000
0000
3300
0000
0000
0000
0000
M000
0M00
00M0
000M
0000
0000
0000
0000
0000
0000
0000
0000
0000
0000
0000
0011
0000
0000
0000
0000
0000
0000
0000
0011
0000
0000
0000
0000
0000
0000
0000
0000
0000
0000
0000
0000
0000
0000
0000
,  // measure 93
1001
0000
0000
0001
0000
1000
0000
0000
2200
0000
0000
3300
,  // measure 94
1000
0100
1000
0001
0100
0010
0100
0001
1000
0100
0010
0001
,  // measure 95
0100
0010
1000
0001
1000
0100
0010
0100
1000
0001
0100
0001
,  // measure 96
0020
0130
0110
1000
,  // measure 97
0010
0000
0000
0100
0000
0001
0010
0001
0100
0010
0000
1000
,  // measure 98
0010
0000
0000
0000
1000
0000
0000
0000
0000
0000
1002
0000
0000
0000
0000
0000
0000
0000
0013
0100
0000
0000
1000
0000
,  // measure 99
0001
1000
0010
1000
,  // measure 100
0200
0001
0010
1300
,  // measure 101
1000
0010
0001
1000
0100
0001
1000
0000
1000
0010
0000
0010
,  // measure 102
0001
0000
0020
0000
0000
1030
0010
0000
0010
0001
0000
0010
,  // measure 103
0100
0000
0010
1000
0100
1000
0001
0100
0010
1000
0001
1000
,  // measure 104
0100
0000
0100
0010
0000
0010
0001
0000
0000
0001
0000
0001
,  // measure 105
0100
0000
0100
0010
0000
0000
0010
0000
0010
1000
0000
1000
,  // measure 106
0100
0000
0100
0001
0000
0000
0100
0000
0100
1000
0000
0000
,  // measure 107
0010
0000
0010
0001
0000
0000
0010
1000
0100
0001
0100
1000
,  // measure 108
0010
0000
0010
0100
0000
0100
0001
0000
0000
0001
0000
0001
,  // measure 109
0010
0000
0010
0100
0000
0000
0100
0000
0100
1000
0000
1000
,  // measure 110
0010
0000
0010
0001
0000
0001
0000
0000
0010
0100
0000
0001
,  // measure 111
0000
0000
0010
0100
1000
0010
0100
0010
0001
0010
1000
0001
,  // measure 112
1000
0000
1000
0100
0000
0010
0001
0000
0000
0001
0000
0001
,  // measure 113
0100
0000
0010
1000
0000
0000
1000
0000
1000
0100
0000
1000
,  // measure 114
0010
0000
0010
0100
0000
0000
0100
0000
0100
0010
0000
0000
,  // measure 115
0010
1000
0100
0001
0100
1000
0010
0001
0010
1000
0100
0010
,  // measure 116
0001
0000
0000
0101
0000
0000
0100
0000
0000
0010
0000
1000
,  // measure 117
0100
0000
0000
0010
0000
0001
0100
0000
0000
0010
0000
0000
,  // measure 118
1001
0000
0000
0000
0000
0000
0000
0000
2000
3000
0000
0000
0002
0003
0000
0000
0200
0300
0000
0000
0020
0030
0000
0000
2000
3000
0000
0000
0000
0000
0000
0000
0000
0000
0000
0000
0100
0000
0000
0000
0000
0000
0000
0000
0000
0000
0000
0000
,  // measure 119
0010
0000
0000
0001
0100
0001
0010
0100
1000
0010
0000
0000
,  // measure 120
0110
1001
0011
1100
,  // measure 121
1001
0000
1000
0000
0010
0000
0100
0000
0001
0000
1000
0100
0000
0000
0000
0000
1001
0000
0000
0000
0000
0000
0012
0000
,  // measure 122
0000
0000
1003
0100
0000
1000
0010
0000
1000
0001
0000
1000
,  // measure 123
0100
0000
0000
0100
0000
0010
0001
0000
1000
0000
0000
2010
,  // measure 124
0000
0000
3010
0100
0000
0100
0001
0000
0001
0010
0000
0100
,  // measure 125
1000
0000
0010
1000
0000
0001
1000
0000
0100
1000
0010
0100
,  // measure 126
0101
0000
0001
0100
0000
0100
0010
0000
0010
1000
0000
1000
,  // measure 127
0100
0000
0000
0100
0000
0001
0100
0000
1000
0001
0000
1000
,  // measure 128
0010
1000
0100
1000
0100
0001
0100
1000
0010
1000
0010
0001
,  // measure 129
0010
0001
0010
1000
0010
1000
0100
0001
0100
1000
0010
1000
,  // measure 130
0001
0000
0000
0101
0000
0100
0010
0000
0000
1010
0000
1000
,  // measure 131
0100
0000
0000
0110
0000
0010
0001
0000
0000
0101
0000
0100
,  // measure 132
0010
0000
0000
0110
0000
0010
1000
0000
0000
1100
0000
0100
,  // measure 133
0020
0000
0000
0032
0000
0000
0203
0000
1300
0100
0001
0010
,  // measure 134
0011
0000
0000
0011
0000
0010
0100
0000
0000
1100
0000
1000
,  // measure 135
0010
0000
0000
0110
0000
0100
0001
0000
0000
0011
0000
0010
,  // measure 136
0100
0000
0000
1100
0000
1000
0100
0000
0000
0110
0000
0100
,  // measure 137
1000
0000
0000
0001
0010
0001
0100
0010
1000
0100
0010
0001
,  // measure 138
0200
0000
0000
0000
,  // measure 139
0000
0000
0000
0000
,  // measure 140
0000
0000
0000
0000
,  // measure 141
0000
0000
0000
0000
0000
0000
0000
0000
0000
0000
0000
00M0
,  // measure 142
M300
0000
0000
0000
;

//---------------dance-single - Nezemarth----------------
#NOTEDATA:;
#CHARTNAME:Nezemarth;
#STEPSTYPE:dance-single;
#DESCRIPTION:Nezemarth;
#CHARTSTYLE:;
#DIFFICULTY:Medium;
#METER:6;
#RADARVALUES:0.324199,0.522171,0.147091,0.320447,0.160224,432.000000,404.000000,28.000000,61.000000,0.000000,0.000000,0.000000,0.000000,0.000000,0.324199,0.522171,0.147091,0.320447,0.160224,432.000000,404.000000,28.000000,61.000000,0.000000,0.000000,0.000000,0.000000,0.000000;
#CREDIT:Nezemarth;
#DISPLAYBPM:182.000000;
#NOTES:
0000
0000
0000
0000
,
0000
0000
0000
0000
,
0000
0000
0000
0000
,
0000
0000
0000
0000
,
0000
0000
0000
0000
,
0000
0000
0000
0000
,
0000
0000
0000
0000
,
0000
0000
0000
0000
,
2000
0000
0000
0000
,
3020
0000
0230
0000
,
0302
0000
0000
0000
,
1003
2000
0000
0000
,
3200
0000
0000
0000
,
0320
0000
0032
0000
,
0203
1300
0200
0301
,
0100
0000
0000
0200
0000
0000
0000
0000
0001
0000
0000
0001
,
0300
0100
0000
1000
,
0000
0000
0000
0100
0000
0000
0000
0000
0001
0000
0000
0001
,
0000
0010
0000
1000
,
0010
0001
0010
0100
,
1000
0010
0000
0100
,
0000
0000
0000
1000
0000
0000
0000
0000
0100
0000
0000
0100
,
0000
0001
0000
0010
,
1000
0010
0001
0100
,
0101
0101
0000
0000
,
0000
0000
0000
0000
,
0100
0100
0000
0000
,
0000
0000
0000
0000
,
0010
0010
0000
0000
,
0000
0000
0000
0000
,
1000
1000
0000
0000
,
0001
0100
0010
1000
,
0001
1000
0100
1000
,
0001
0001
0001
0000
,
0000
0001
0100
0001
,
1000
1000
0000
0000
,
1000
0001
0100
0001
,
1000
1000
1000
0000
,
0010
0100
0010
0100
,
0002
0000
0000
0000
0000
0000
0000
0000
1000
0000
0000
2000
,
3003
1000
0010
1000
,
0001
0001
0001
0000
,
0000
0001
0010
0001
,
1000
1000
0000
0000
,
0001
1000
0010
1000
,
0001
0001
0001
0000
,
0010
0001
0100
0001
,
1000
0100
0010
0100
,
1100
0000
0000
1000
0000
0001
0000
0000
0000
0100
0000
0000
,
0001
0000
1000
0000
0000
0000
0100
0000
0000
0010
0000
0000
,
0002
0000
0000
0000
0000
0203
0000
0000
0000
2300
0000
0000
,
0000
0000
3000
0000
,
1000
0000
0000
0100
0000
0001
0000
0000
0000
1000
0000
0000
,
0100
0000
0001
0000
0000
0000
0100
0000
0000
0010
0000
0000
,
0002
0000
0000
0000
0000
0023
0000
0000
0000
0230
0000
0000
,
0000
0000
0000
0000
0000
0000
1000
0000
1000
0000
1000
0000
,
1300
0000
0000
0100
0000
0020
0000
0000
0000
0031
0000
0000
,
0100
0000
0020
0000
0000
0000
1030
0000
0000
0100
0000
0000
,
0020
0000
0000
0000
0000
0230
0000
0000
0000
2300
0000
0000
,
0000
0000
0100
0000
0000
0010
0000
0000
0100
0000
0000
3020
,
0000
0100
0000
0130
,
0001
0000
0000
1000
0000
0001
0000
0000
0100
0000
0000
0020
,
0000
0000
0000
0100
,
2030
0000
0000
0000
0000
0000
0000
0000
0001
0000
0000
3001
,
0000
0010
1000
0010
,
0001
0001
0001
0000
,
0000
0010
0001
0010
,
0100
0100
0000
0000
,
0010
0100
1000
0100
,
0010
0010
0010
0000
,
0001
0100
0010
1000
,
0002
0000
0000
0000
0000
0000
0000
0000
1000
0000
0000
1003
,
0000
0001
0100
0010
,
1000
1000
1000
0000
,
0000
1000
0010
0100
,
0001
0001
0010
0001
,
1000
1000
0010
0100
,
0001
0001
0001
0000
,
0001
0001
0100
0100
,
1000
1000
0100
0100
,
0001
0000
1000
0000
0000
1000
0000
0000
0000
0010
0000
0000
,
0100
0000
0100
0000
0000
0000
0000
0000
0000
0000
0000
0000
,
0100
0000
0010
0000
0000
0010
0000
0000
0000
1000
0000
0000
,
0001
0000
0001
0000
0000
0000
1000
0000
0000
0010
0000
0000
,
1000
0000
0001
0000
0000
0001
0000
0000
0000
0010
0000
0000
,
0100
0000
0100
0000
0000
0000
0000
0000
0000
1000
0000
0000
,
0010
0000
0100
0000
0000
0100
0000
0000
0000
0001
0000
0000
,
2000
0000
3200
0000
,
0310
0000
0000
0002
0000
0000
0000
0000
0000
0103
0000
0010
,
0000
0000
0000
1000
0000
0000
1001
0000
0000
0001
0000
0100
,
0000
0000
0020
0000
0000
0000
1030
0000
0000
0100
0000
0000
,
2200
0000
0300
0020
0000
0030
0200
0000
0300
0002
0000
0003
,
0200
0000
0000
0300
0000
0000
0001
0000
3001
0000
0000
0000
,
0101
0000
0000
0100
0000
0001
0000
0000
2002
0000
0000
3003
,
2000
3200
0320
0032
,
2003
3200
1300
1000
,
1000
0000
1100
0000
,
1000
0100
0101
0000
,
0001
0001
0101
0000
,
0001
0100
1000
0100
,
1000
1000
1010
0000
,
1000
0010
0011
0011
,
0001
0001
0011
0000
,
0001
0010
1000
0100
,
1000
0000
0000
1000
0000
0001
0000
0000
0000
0001
0000
0000
,
0001
0000
1000
0000
0000
0000
1000
0000
0000
0001
0000
0000
,
0020
0000
0000
0000
0000
0230
0000
0000
0000
2300
0000
0000
,
0000
0000
0000
3000
,
1000
0000
0000
1000
0000
0010
0000
0000
0000
0001
0000
0000
,
0001
0000
0010
0000
0000
0000
1000
0000
0000
0001
0000
0000
,
0020
0000
0000
0000
0000
0032
0000
0000
0000
0203
0000
0000
,
0000
0000
1000
0001
,
1300
0000
0000
1000
0000
0100
0000
0000
0000
0001
0000
0000
,
0001
0000
0100
0000
0000
0000
0010
0000
0000
1000
0000
0000
,
0002
0000
0000
0000
0000
0023
0000
0000
0000
0230
0000
0000
,
1000
0010
0001
0010
,
2300
0000
0000
3100
,
0010
0000
0000
0100
0000
0010
0000
0000
0001
0000
0000
2000
,
0000
0000
0000
0000
0000
3000
1000
0000
0000
0010
0000
0000
,
0001
0020
0000
0030
,
1010
1100
0011
0101
,
1001
0000
0000
0000
0000
0000
0000
0000
1100
0000
0000
1001
,
0000
0001
0100
0010
,
0100
0100
0001
0000
,
0000
1000
0100
1000
,
0010
0001
0010
1000
,
0100
1000
0010
1000
,
0001
0001
0010
0000
,
0010
0001
0100
1000
,
0100
0001
0100
1000
,
0100
1001
0010
1001
,
0100
0100
0010
0000
,
0010
1001
0100
1001
,
1000
0001
0010
0001
,
0100
0110
0010
0110
,
1000
1000
0001
0000
,
0020
0000
0000
0000
,
1000
0100
0001
0130
,
2002
0000
0000
0000
,
0000
0000
0000
0000
,
0000
0000
0000
0000
,
0000
0000
0000
0000
,
3003
0000
0000
0000
;
