#TITLE:Hyper Fiber World Spectrum;
#SUBTITLE:;
#ARTIST:Crimsona;
#TITLETRANSLIT:;
#SUBTITLETRANSLIT:;
#ARTISTTRANSLIT:;
#GENRE:World Spectrum;
#CREDIT:Gameoson X DDRDAIKENKAI;
#BANNER:[Double Trouble] - Hyper Fiber World Spectrum.png;
#BACKGROUND:[Double Trouble] - Hyper Fiber World Spectrum-bg.png;
#LYRICSPATH:;
#CDTITLE:cdtitle.png;
#MUSIC:[Double Trouble] - Hyper Fiber World Spectrum.ogg;
#OFFSET:1.359552;
#SAMPLESTART:1.463977;
#SAMPLELENGTH:11.294118;
#LASTBEATHINT:1.062162;
#SELECTABLE:YES;
#BPMS:0.000000=170.000000
;
#STOPS:
;
#BGCHANGES:3.854=[Double Trouble] - Hyper Fiber World Spectrum.avi=1.000=1=0=0=StretchNoLoop==CrossFade==,
99999=-nosongbg-=1.000=0=0=0 // don't automatically add -songbackground-
;
#KEYSOUNDS:;
#ATTACKS:;

//---------------dance-single - ----------------
#NOTES:
     dance-single:
     Gameoson X DDRDAIKENKAI:
     Challenge:
     11:
     0.948907,1.154882,0.379244,0.669254,1.070807,1191.000000,1123.000000,68.000000,120.000000,10.000000,0.000000,0.948907,1.154882,0.379244,0.669254,1.070807,1191.000000,1123.000000,68.000000,120.000000,10.000000,0.000000:
// measure 0
0000
0000
0000
0000
,  // measure 1
0000
0000
0000
0000
,  // measure 2
0001
0000
0000
0010
0100
0010
0100
0000
0000
2000
0000
0000
0000
0000
0000
0000
0000
0000
0000
0000
0000
0000
0000
0000
,  // measure 3
3001
1000
0100
1000
0010
0000
0010
1000
0002
0000
0000
0000
0000
0000
0000
0000
,  // measure 4
1003
0000
0000
0000
0000
0000
0010
0000
0100
0000
0010
0000
0100
0000
0000
0000
0000
0000
0002
0000
0000
0000
0000
0000
0000
0000
0000
0000
0000
0000
0000
0000
0000
0000
0000
0000
1003
0000
0000
0010
0000
0000
1000
0000
0000
0000
0000
0000
,  // measure 5
0001
0000
0000
0020
0000
0000
0000
0000
0000
0000
0000
0000
0000
0000
0000
0000
0000
0000
0031
0010
0001
0010
0100
1000
,  // measure 6
0001
0000
0000
0000
0000
0000
1000
0000
0001
0000
1000
0000
0010
0000
0000
0000
0000
0000
2010
0000
0000
0000
0000
0000
0000
0000
0000
0000
0000
0000
3010
0000
0000
0100
0000
0000
0001
0000
0000
0000
0000
0000
1000
0000
0000
0000
0000
0000
,  // measure 7
1001
0000
0001
0000
0010
0000
0100
0010
0002
0000
0000
0103
0010
0000
1000
0000
,  // measure 8
1010
0000
0000
0000
0000
0000
0010
0000
1000
0000
0010
0000
0100
0000
0000
0000
0000
0000
0001
0000
0000
0000
0000
0000
1000
0000
0000
0000
0000
0000
0100
0000
0000
0000
0000
0000
0010
0000
0000
0001
0000
0000
0010
0000
0000
0100
0000
0000
,  // measure 9
1000
0000
0001
0000
0100
0000
0010
0000
0140
0000
0000
0000
0000
0030
0100
0001
,  // measure 10
1000
0000
0000
0000
1000
0000
0100
0010
0002
0000
0000
0103
0010
1000
0100
1000
,  // measure 11
0020
0000
0000
1030
0001
0000
0100
0000
0001
2000
0000
0000
3001
0000
0100
0000
,  // measure 12
0120
0000
0000
0000
0000
0000
0000
0000
0000
1030
0000
0000
0001
0000
0000
0010
0000
0000
0001
0000
0000
1000
0000
0000
0001
0000
0000
0100
0000
0000
0001
0000
0000
1000
0000
0000
0100
0000
0000
1000
0000
0000
0001
0000
0100
0000
0001
0000
,  // measure 13
2000
0000
0000
0000
0000
0000
3001
0000
0000
0000
0000
0000
1001
0000
0000
0000
0000
0000
0001
0000
0000
0000
0000
0000
1000
0000
0100
0000
1000
0000
0000
0000
0000
1000
0000
0000
0100
0000
0000
0000
0000
0000
1000
0000
0001
0000
1000
0000
,  // measure 14
0001
0000
1000
0000
0001
0000
1000
0010
1000
0000
0001
0100
0001
0010
0100
0010
,  // measure 15
0001
0000
1000
0010
1000
0000
0001
0000
0020
0000
0000
0000
0130
1000
0010
0100
,  // measure 16
0002
0000
0000
0000
1003
0100
1000
0001
1000
0010
0100
0001
2000
0000
3001
0000
,  // measure 17
1001
0000
0000
0000
0000
0000
0001
0000
0000
0000
0000
0000
1000
0000
0000
0010
0000
0000
0100
0000
0000
0010
0000
0000
1000
0000
0100
0000
1000
0000
0001
0000
0000
0100
0000
0000
0001
0000
0000
0010
0000
0000
0100
0000
0000
1000
0000
0000
,  // measure 18
0002
0000
1003
0010
1000
0000
0110
0000
0001
0010
0001
1000
0010
0100
0010
0000
,  // measure 19
1010
1000
0001
0011
0001
1000
1010
0001
,  // measure 20
0011
0000
0001
0000
1000
0000
0010
0000
0100
0001
1000
0100
0010
0001
1000
0010
,  // measure 21
0200
0000
0000
0000
0000
0000
2300
3000
2000
0000
0000
3200
0000
0000
0302
0103
,  // measure 22
0002
0000
0000
0000
0000
0000
0023
0030
0120
0000
0000
0000
0031
0010
0100
1000
,  // measure 23
0001
0000
0100
0000
0010
0000
0100
0000
0001
0000
0100
0000
0010
0000
0100
0001
,  // measure 24
0010
0000
0000
0000
0110
0000
1000
0100
1000
0001
0100
0001
1000
0100
0010
0001
,  // measure 25
1000
0000
0000
0000
0020
0000
0000
0030
1002
0000
0000
0003
0020
0000
0000
0030
,  // measure 26
2001
0000
0000
0000
0010
0000
0000
3000
1002
0000
0000
0000
0013
0001
1000
0010
,  // measure 27
0200
0000
0000
0000
0000
0000
0302
0000
0000
0000
0000
0000
0000
0000
0000
0000
0000
0000
0013
0000
0000
0100
0000
0000
2000
0000
0000
0000
0000
0000
0000
0000
0000
0000
0000
0000
0000
0000
0000
0000
0000
0000
3001
0000
0100
0000
0001
0000
,  // measure 28
1000
0000
0001
0000
0010
0000
0100
1000
0001
0000
0100
0000
0010
0000
1000
0001
,  // measure 29
2000
0000
3010
0001
0010
0000
1000
0000
0001
0000
0010
0000
1000
0000
0010
0000
,  // measure 30
0002
0000
0000
0000
0000
0000
0000
0000
0103
0000
0000
0000
0010
0000
0000
0000
2000
0000
0000
0000
0000
0000
3001
0100
0002
0000
0000
0000
0010
0000
0000
0000
,  // measure 31
0023
0000
0000
0000
2030
0000
3020
0000
0032
0203
0320
2030
3001
0000
2000
0000
,  // measure 32
3100
0000
0000
0001
0000
0000
0100
0000
0000
1000
0000
0000
0001
0000
0000
0100
0001
0100
0001
0000
0000
0010
0000
0000
,  // measure 33
0210
0000
1300
0000
0001
0000
0100
0010
0110
0000
1000
0010
0100
0010
1000
0000
,  // measure 34
1001
0000
1000
0000
0001
0000
0001
0000
1000
0100
0010
0000
0001
0100
0010
1000
,  // measure 35
0002
0000
0020
0003
,  // measure 36
0000
0000
0100
0000
0130
0000
0000
0000
0020
0000
0032
0000
2003
0000
3010
0100
,  // measure 37
0020
0000
0200
0000
0300
0000
1030
0000
0002
0000
0000
0000
2003
0000
3100
0010
,  // measure 38
0100
0000
0000
0100
0000
0000
0100
0000
2002
0000
0000
0000
3003
0000
0000
0000
,  // measure 39
2000
0000
3020
0000
0032
0000
0000
0000
0020
0000
0000
0000
0033
0000
0001
0010
,  // measure 40
2000
0000
0010
0000
3010
0000
0000
0000
2001
0000
0000
0000
3100
0010
0100
1000
,  // measure 41
0002
0000
0000
0000
0103
0000
0010
0100
0002
0000
0000
0000
1003
0100
0010
0001
,  // measure 42
0100
0000
0000
0100
0000
0000
0100
0000
1001
0000
0000
0000
1001
0000
0001
1000
,  // measure 43
0001
0000
0010
0000
1000
0000
0010
0000
0001
0000
0000
0100
0000
0000
1000
0000
,  // measure 44
0000
0000
1100
0000
0000
0100
0000
0100
0001
0000
0000
0110
0000
0000
0001
0100
,  // measure 45
0001
0000
1000
0000
0100
0000
0010
0000
0100
1000
0000
1000
0100
0000
0010
0000
,  // measure 46
0011
0000
0000
1001
0000
0000
1010
0000
0000
1001
0000
0000
1000
0100
0010
0001
,  // measure 47
1000
0000
0000
0010
0000
0000
0001
0000
0000
0010
0000
0000
1000
0000
0000
0001
1000
0100
0010
0000
0000
0100
0000
0000
,  // measure 48
0000
0000
0101
0000
0000
0100
0000
0100
1000
0000
0000
0110
0000
0000
1000
0001
,  // measure 49
1000
0000
0010
0100
0001
0000
0010
0000
0100
1000
0010
0000
1000
0001
0010
0000
,  // measure 50
0011
0000
0000
0011
0000
0000
1100
0000
0000
0000
1001
0000
1000
0010
0100
0001
,  // measure 51
1000
0100
1000
0000
0010
0000
0100
0000
0110
0000
0100
0001
0010
0000
0100
0000
,  // measure 52
1100
0000
0001
0000
0101
0000
1000
0010
1000
0001
0100
0000
1000
0000
0100
0000
,  // measure 53
0101
0000
0001
1000
0001
0000
1000
0001
2000
0000
0000
0000
3100
0000
0010
0000
,  // measure 54
0010
0000
0100
0010
0100
0000
0010
0000
1002
0000
0000
0000
1003
0001
1000
0001
,  // measure 55
0100
0010
0100
0000
0010
0000
0100
0000
1000
0000
0100
0001
0100
0000
0001
0000
,  // measure 56
1000
0000
0001
0100
0010
0100
0001
1000
0100
1000
0100
0000
1000
0010
1000
0010
,  // measure 57
1000
0001
1000
0100
1000
0000
0010
0000
0100
0001
0100
0010
0100
0000
0001
0000
,  // measure 58
1000
0000
1001
0000
0100
0000
0000
0000
1001
0000
0000
0000
0001
1000
0001
1000
,  // measure 59
0001
0000
0001
0010
0100
0010
0001
0000
0001
0100
0010
0100
,  // measure 60
0001
0010
0100
1000
0010
0100
0001
0000
0001
2000
0000
3100
,  // measure 61
1000
0000
0000
0000
1000
0000
0010
0000
0100
0000
0010
0000
1000
0000
0100
0010
0100
0000
0010
0000
0001
0000
0010
0000
,  // measure 62
1000
0000
0010
0000
0001
0000
0100
0000
1000
0000
0100
0000
0001
0000
0000
0000
0001
0010
0002
0000
0000
0000
1003
0010
,  // measure 63
1000
0010
0100
1000
0100
0010
1000
0100
0010
1000
0010
0100
,  // measure 64
0001
0000
0100
0000
0010
0000
0001
0000
0100
0000
0010
0000
1000
0000
0001
0010
0001
0000
1000
0000
0001
0100
0001
0000
,  // measure 65
1000
0010
MM10
0001
0010
0M1M
1000
0100
M1M0
0001
0100
01MM
,  // measure 66
1000
0010
MM10
0001
0100
0010
1000
0100
0001
0100
1000
0010
,  // measure 67
0200
0000
0320
0000
,  // measure 68
0000
1000
1030
0000
2010
0000
3002
0000
,  // measure 69
0023
0000
0000
0100
0230
0000
0000
0000
,  // measure 70
0000
0000
0010
0000
0010
0000
0000
0000
1300
0000
0000
0000
0001
1000
0001
0000
,  // measure 71
2001
0000
0000
0000
0000
0000
0000
0000
3020
0000
0000
0000
2030
0000
3001
0010
,  // measure 72
0002
0000
0000
0010
0000
0000
1003
0010
2000
0000
0000
0000
3020
0000
0000
0000
,  // measure 73
2030
0000
0000
0000
0000
0000
0000
0000
0001
0000
0000
0000
0000
0000
3100
1000
,  // measure 74
0100
0000
0000
0000
0000
0000
1000
0100
1000
0100
0010
0000
0001
0100
0010
0000
,  // measure 75
2000
0000
0000
3001
0100
0000
0010
0000
0200
0000
0000
0301
1000
0000
0100
0000
,  // measure 76
0020
0000
0000
0031
0100
0000
1000
0000
0200
0001
0000
0301
0000
0000
0001
0000
,  // measure 77
0010
0000
0100
0000
2000
0000
3010
0100
0001
0000
0010
0000
1000
0000
0010
0100
,  // measure 78
1000
0000
0010
0000
0100
0000
0010
1000
0100
1000
0100
0000
0010
0001
1000
0000
,  // measure 79
0002
0103
0010
1000
0000
0000
0001
0000
0200
0000
0000
0301
0000
0000
0001
0000
,  // measure 80
2000
0000
0000
3001
0010
0001
1000
0000
0000
0010
0000
0000
1010
0000
0000
0000
0000
0000
1100
0000
0000
0010
0000
0000
,  // measure 81
0002
0000
0000
0103
0010
0000
1000
0001
1000
0000
0010
0000
0100
0000
0010
1000
,  // measure 82
0002
0000
0000
0013
0100
0000
1000
0000
1100
0000
0000
0000
0110
0000
0000
0000
,  // measure 83
1001
2001
0000
3001
1000
0100
1000
0001
,  // measure 84
1000
0010
0100
0010
1000
0100
1000
0010
,  // measure 85
1001
0000
1002
0000
0013
0001
0020
0000
0000
0000
0130
0000
0010
0000
0001
0000
,  // measure 86
1000
0000
0010
1000
0001
0010
0001
1000
0010
0100
0001
1000
0100
0010
0100
0000
,  // measure 87
1001
0000
2001
0000
3010
1000
0020
0000
0000
0000
0130
0000
0001
0000
0010
0000
,  // measure 88
0100
0010
0100
1000
0001
0010
0001
1000
0001
0100
0010
0100
0001
1000
0100
0000
,  // measure 89
1001
0000
1002
0000
0013
0001
1000
0001
0100
0001
1000
0001
0010
0001
1000
0001
,  // measure 90
0100
0010
1000
0010
0100
0001
1000
0001
0010
0100
1000
0010
0100
0001
1000
0100
,  // measure 91
0020
0000
0000
0000
0031
0000
0100
0000
0000
0000
0001
0000
1000
0000
0000
0000
0010
0000
1000
0000
0000
0100
1000
0100
,  // measure 92
1000
0000
1000
0001
0000
0100
0010
0000
1000
0010
0000
1000
,  // measure 93
1001
0000
0000
0110
0000
1000
0000
0000
0001
0010
0000
0001
,  // measure 94
1000
0000
0000
0000
0010
0000
1000
0000
0000
0000
1000
0000
0001
0010
0001
0000
0010
0000
0100
0000
0010
0000
0100
0000
,  // measure 95
1000
0000
0000
0000
0000
0000
1100
0000
0000
0000
1000
0000
0001
0000
0000
0000
0010
0000
0001
0000
0000
1000
0010
1000
,  // measure 96
0010
0000
0000
0000
0000
0000
0000
0000
0000
0000
0000
0000
0000
0000
0000
0000
0000
0000
0000
0000
0000
0000
0000
0000
0000
0000
0000
0000
0000
0000
0000
0000
0100
0000
0000
0000
0000
0000
0000
0000
0000
0000
0000
0000
0000
0000
0000
0000
0010
0000
0000
0000
0000
0000
0000
0000
0000
0000
0000
0000
0000
0000
0000
0000
0000
0000
0000
0000
0000
0000
0000
0000
0000
0000
0000
0000
0000
0000
0000
0000
0100
0000
0000
0000
0000
0000
0000
0000
0000
0000
0000
0000
0000
0000
0000
0000
0001
0000
0000
0000
0000
0000
0000
0000
0000
0000
0000
0000
0000
0000
0000
0000
0000
0000
0000
0000
0000
0000
0000
0000
0000
0000
0000
0000
0000
0000
0000
0000
0001
0000
0000
1000
0000
0000
0000
0000
0000
0000
0000
0000
0000
0000
0000
0000
0000
0000
0000
0000
0000
0000
0000
0000
0000
0000
0000
0000
0000
0000
0000
0000
0000
0000
0000
0000
0000
0000
0000
0000
0000
0000
0000
0000
0000
0000
0000
0000
0010
0000
0000
0000
0000
0000
0000
0000
0000
0000
0000
0000
0000
0000
0000
0000
,  // measure 97
1010
0000
0000
0001
0001
0001
0010
0000
0010
0100
0000
0010
,  // measure 98
1000
0000
0010
0001
0000
0100
0010
0000
1000
0100
0010
0001
,  // measure 99
1000
0010
0001
0010
1000
0100
0001
0100
,  // measure 100
1000
0010
1000
0000
0100
0000
0001
0000
0100
0000
1000
0010
1000
0000
0100
0000
,  // measure 101
0010
0001
0010
0000
0001
0000
0100
0000
1000
0000
0100
0000
0001
0000
0010
0000
,  // measure 102
1000
0000
0010
0001
0010
0000
0001
0000
0100
0010
1000
0000
1000
0100
0010
0000
,  // measure 103
0001
0100
0010
0000
0001
0000
0010
0000
1000
0000
0100
0000
0001
0000
0100
0000
,  // measure 104
0010
0001
0100
0000
1000
0000
0100
0000
0001
0000
0010
0100
1000
0000
0001
0000
,  // measure 105
0100
0010
1000
0000
0100
0000
0001
0000
0100
0000
1000
0000
0010
0000
0001
0000
,  // measure 106
0010
0000
1000
0100
1000
0000
0001
0000
0200
0000
0000
0000
0310
1000
0001
1000
,  // measure 107
0100
0000
0100
1000
0010
0000
0100
0000
0002
0000
0000
0000
1003
0000
0001
0000
,  // measure 108
0010
0000
0010
0001
0100
0000
0010
0000
1000
0000
0001
1000
0100
1000
0010
0100
,  // measure 109
0001
0010
0001
1000
0100
1000
0010
0100
0001
1000
0001
0010
0100
0010
0001
0100
,  // measure 110
0002
1003
0100
0010
0002
0000
0103
0010
2000
3001
0010
0100
2000
3010
0100
0001
,  // measure 111
2000
0000
0000
0000
0000
0000
0000
0000
3000
0010
0000
0000
0200
0000
0000
0000
0000
0000
0000
0000
0300
0001
0000
0000
2000
0000
0000
0000
0000
0000
3010
0000
0000
0100
0000
0000
1000
0000
0000
0000
0000
0000
1000
0000
0000
0100
0000
0000
,  // measure 112
0001
0100
0010
0100
0001
1000
0010
1000
0001
0010
0100
0010
0100
1000
0001
0100
,  // measure 113
0010
1000
0010
1000
0001
0000
1001
0000
0000
0000
1000
0001
0010
0000
0001
0100
,  // measure 114
0001
1000
0010
1000
0010
0100
0010
1000
0001
0010
0100
0010
0001
1000
0001
0000
,  // measure 115
0020
0000
0000
0000
0000
0000
0000
0000
0130
0000
0010
0100
0020
0000
0034
0000
,  // measure 116
1003
0000
0010
0000
0100
0000
0010
0000
0000
0000
0000
0000
0010
0000
0000
0000
0000
0000
0010
0000
0000
1000
0000
0000
0200
0000
0000
0300
0000
0000
0002
0000
0000
0003
0000
0000
0200
0000
0000
0300
0000
0000
0210
0000
0000
0000
0000
0000
,  // measure 117
0000
1300
1000
0000
1020
0000
0130
0001
,  // measure 118
0011
0000
0000
0000
0000
0000
0010
0000
0001
0000
1000
0000
0010
0000
0000
0000
0000
0000
2020
0000
0000
0000
0000
0000
3030
0000
0000
0000
0000
0000
0000
0000
0000
0100
0000
0000
0040
0000
0000
0000
0000
0000
4030
0000
0000
0000
0000
0000
,  // measure 119
3100
0000
0000
0010
0000
0000
0100
0000
0000
0000
0000
0000
0100
0000
0000
0000
0000
0000
0000
0000
0000
0000
0000
0000
1002
0000
0000
0000
0000
0000
0000
0000
0000
0000
0000
0000
1003
0000
0010
0000
1000
0000
0010
0000
0100
0000
0001
0000
,  // measure 120
1000
0000
0100
0010
0100
0000
2001
0000
0000
0000
3001
0010
0100
1000
0010
0100
,  // measure 121
0001
0100
2000
0000
3000
0000
1000
0100
0002
0000
0000
0000
0000
0000
1003
0100
,  // measure 122
0010
0000
0000
0000
0000
0000
0000
0000
0010
0000
0000
0001
0000
0000
1000
0000
0000
0010
0000
0000
0200
0000
0000
0000
0000
0000
0000
0000
0000
0000
0000
0000
,  // measure 123
0000
0000
0000
0000
,  // measure 124
0000
0000
0000
0000
,  // measure 125
0000
0000
0300
0000
;

//---------------dance-single - ----------------
#NOTES:
     dance-single:
     DDRDAIKENKAI X Gameoson:
     Hard:
     9:
     0.708294,0.769921,0.384821,0.435015,0.320684,889.000000,820.000000,69.000000,78.000000,0.000000,0.000000,0.708294,0.769921,0.384821,0.435015,0.320684,889.000000,820.000000,69.000000,78.000000,0.000000,0.000000:
// measure 0
0000
0000
0000
0000
,  // measure 1
0000
0000
0000
0000
,  // measure 2
0001
0010
0100
2000
0000
0000
0000
0000
,  // measure 3
3010
0100
0001
0010
0002
0000
0000
0000
,  // measure 4
1003
0010
0100
0002
0000
0000
1003
0100
,  // measure 5
0100
2000
0000
0000
0000
0000
3000
0000
,  // measure 6
0001
0010
0100
2000
0000
0001
3001
0000
,  // measure 7
1000
0010
0100
0001
0020
0000
0031
0000
,  // measure 8
0100
0010
1000
0100
1000
0010
0100
0001
,  // measure 9
1000
0000
0100
0000
0010
0000
0002
0000
0100
0000
0000
0000
0013
0000
0100
0010
,  // measure 10
0100
0000
0000
0000
0100
0000
0000
0000
1001
0000
0000
1000
0100
0000
0010
0000
,  // measure 11
0002
0000
0000
0013
0001
0000
0100
0000
0020
0000
0000
0130
0010
0000
1000
0000
,  // measure 12
0200
0000
0000
0310
0001
0000
1000
0000
0001
0000
0100
0000
0001
0000
1000
0000
,  // measure 13
1100
0000
0000
0000
0002
0000
0100
0000
0103
0000
0000
0000
0001
0000
0010
0100
,  // measure 14
0020
0000
0130
0010
0100
0010
0001
1000
,  // measure 15
0001
0100
0010
0100
2000
0000
3100
0001
,  // measure 16
0020
0000
0130
1000
0001
0100
0100
0010
,  // measure 17
1001
0000
1000
0001
1000
0001
0100
1000
,  // measure 18
0001
0010
1000
0100
0010
0001
0100
0010
,  // measure 19
1000
0100
0001
1000
0010
0001
1000
0100
,  // measure 20
0001
0100
1000
0001
1000
0010
0001
0010
,  // measure 21
0200
0000
0000
0000
0000
0000
0001
0000
0301
0000
0000
0010
0000
0000
0100
0000
,  // measure 22
2000
0000
0000
0010
3020
0000
0130
0001
,  // measure 23
0001
0000
1000
0000
0100
0000
1000
0000
0001
0000
0010
0000
0001
0000
0100
0010
,  // measure 24
0100
0000
0110
0100
0001
0010
0100
1000
,  // measure 25
0002
0000
0103
0000
0110
0100
0010
0000
,  // measure 26
2000
0000
0000
3100
0010
0000
0001
1000
,  // measure 27
0001
0010
0001
0010
1000
0010
1000
0010
,  // measure 28
0001
1000
0001
0100
0001
1000
0100
1000
,  // measure 29
0020
0000
0000
1030
0010
0000
0100
0000
0001
0000
1000
0000
0100
0000
0010
0000
,  // measure 30
0002
0000
0103
0010
2000
0000
3100
0010
,  // measure 31
0001
0100
0001
0100
1000
0100
1000
0100
,  // measure 32
0001
0010
0100
0010
0001
0010
0100
1000
,  // measure 33
1001
0000
0001
0100
1001
0000
1000
0100
,  // measure 34
1001
0000
1000
0010
0001
0010
1000
0100
,  // measure 35
2000
3001
0012
0000
,  // measure 36
0000
0000
0100
0000
0103
0000
0000
0000
0120
0000
0000
0000
0000
0000
1030
0001
,  // measure 37
2000
0000
0000
0000
3010
0000
0000
0000
0120
0000
0000
0000
0000
0000
1030
0100
,  // measure 38
1000
0000
0000
1000
0000
0000
0001
0000
1001
0000
0000
0000
0000
0000
0000
0000
,  // measure 39
0200
0310
2010
0000
,  // measure 40
0000
0100
3100
0000
1200
0000
0000
1000
,  // measure 41
1300
0000
0000
0000
0001
0000
1000
0100
1000
0000
0000
0000
0010
0000
0100
0000
,  // measure 42
0100
0000
0000
0010
0000
0000
0010
0000
0110
0000
0000
0000
0100
0000
0001
1000
,  // measure 43
0001
0000
1000
0000
0100
0000
1000
0000
0001
0000
0000
0010
0000
0000
0100
0000
,  // measure 44
0000
0000
0110
0000
0000
1000
0000
0000
1001
0000
0000
1001
0000
0000
0001
0000
,  // measure 45
0010
0000
0001
0000
0100
0000
0010
0000
0000
1000
0000
0000
1100
0000
0000
0000
,  // measure 46
0110
0000
0000
0011
0000
0000
1001
0000
0000
1001
0000
0000
0001
0000
0000
1000
,  // measure 47
0100
0000
1000
0000
0001
0000
0100
0000
0010
0000
1000
0001
0000
0000
0100
0000
,  // measure 48
0000
0000
0101
0000
0000
1000
0000
0000
1010
0000
0000
1010
0000
0000
0010
1000
,  // measure 49
0010
0000
1000
0000
0100
0000
1000
0000
0001
0010
0001
0000
0100
0000
0001
0000
,  // measure 50
1001
0000
0000
1001
0000
0000
0011
0000
0000
0000
0011
0000
0010
0000
0100
0000
,  // measure 51
2000
0000
3100
0000
1000
0100
0010
0100
,  // measure 52
1000
0010
0010
0010
0100
0010
0001
0010
,  // measure 53
2000
0000
0000
3000
0101
0000
0000
0000
,  // measure 54
0100
0001
1000
0000
1100
0000
0100
0010
,  // measure 55
0002
0000
0103
0001
0010
0001
0100
0001
,  // measure 56
0010
0000
0100
0010
0100
0000
0010
0000
0001
0000
0100
0000
1000
0000
0100
0000
,  // measure 57
0002
0000
0013
0000
1100
0000
1000
0010
,  // measure 58
0200
0001
0301
0000
0110
0000
0001
1000
,  // measure 59
0001
0000
0001
1000
0010
1000
0010
0000
0010
0100
0010
0100
,  // measure 60
0001
0000
0001
0100
0000
0100
0001
0000
0001
0020
0000
0000
,  // measure 61
0031
0000
0001
1000
0100
1000
0100
0010
0100
0010
0001
0010
,  // measure 62
0001
0000
0001
0100
0000
0100
0010
0000
1000
0020
0000
1030
,  // measure 63
0001
0100
0000
0001
0100
0000
0010
0100
0000
0010
1000
0000
,  // measure 64
0100
1000
0000
0100
1000
0000
0001
1000
0100
1000
0010
0100
,  // measure 65
1000
0100
0000
0001
0010
0000
1000
0010
0000
0001
0100
0000
,  // measure 66
0010
0001
0000
1000
0100
0000
0010
1000
0001
0010
0001
1000
,  // measure 67
0200
0010
0320
0001
,  // measure 68
0031
1000
0100
0000
1200
0000
2300
0000
,  // measure 69
3002
0000
0103
0010
0210
0000
0000
0000
,  // measure 70
0000
0001
0301
0000
1001
0000
2000
0100
,  // measure 71
3200
0000
0301
0000
0201
0000
2300
0001
,  // measure 72
3002
0000
0000
0100
0000
0000
0103
0000
0102
0000
0000
0000
0023
0000
0000
0000
,  // measure 73
2030
0000
0000
0000
3010
0000
0000
0000
0012
0000
0000
0000
1003
0000
0010
0100
,  // measure 74
0010
0000
0000
0000
0000
0000
0100
0000
0001
0010
0001
0000
1000
0100
1000
0000
,  // measure 75
2001
0000
0000
3100
0000
0000
0100
0000
1002
0000
0000
0103
0000
0000
0100
0000
,  // measure 76
0002
0000
0000
0013
1000
0000
0010
0000
0002
0000
0000
1003
0000
0000
0001
0000
,  // measure 77
0100
1000
0100
0001
0100
1000
0100
0001
,  // measure 78
0010
1000
0010
0001
0010
0100
1000
0001
,  // measure 79
1002
0000
0000
0103
0000
0000
0100
0000
2001
0000
0000
3100
0000
0000
0100
0000
,  // measure 80
1000
0010
0001
0010
2000
0000
3100
0010
,  // measure 81
0011
0000
0000
0010
0001
0000
0100
0000
0010
0000
1000
0000
0001
0000
0010
0000
,  // measure 82
0200
0000
0000
0310
0100
0000
1000
0000
1100
0000
0000
0000
0011
0000
0000
0000
,  // measure 83
1001
1001
0100
0010
0100
1000
0001
0010
,  // measure 84
0001
0100
0010
1000
0001
1000
0010
0100
,  // measure 85
0110
0110
0010
0020
0000
1030
0001
1000
,  // measure 86
0100
0001
0100
1000
0001
0100
0010
1000
,  // measure 87
1001
1001
0001
0002
0000
1003
0100
1000
,  // measure 88
0001
0100
0010
0100
0001
1000
0100
0010
,  // measure 89
0110
0110
0001
0100
1000
0100
0001
0100
,  // measure 90
1001
1001
0010
1000
0001
0010
0100
1000
,  // measure 91
2010
0000
0000
3001
0000
0001
0100
0000
0100
0010
0000
0010
,  // measure 92
1000
0000
1000
0100
0000
2001
0000
3000
0001
0100
0000
0000
,  // measure 93
0001
0000
0000
1000
0000
1000
0100
0000
0100
0010
0000
0010
,  // measure 94
0001
0000
0001
0100
0000
0100
0010
1000
0001
0010
0000
0010
,  // measure 95
0100
0000
0000
0010
0000
0010
0001
0000
0001
1000
0000
1000
,  // measure 96
0001
0000
0001
0100
0000
1002
0000
0003
1000
0100
0000
0010
,  // measure 97
0001
0000
0000
1000
0010
1000
0010
0000
0010
0001
0000
0001
,  // measure 98
0010
0000
0010
1000
0000
2001
0000
0000
3100
0010
0000
0000
,  // measure 99
0001
1000
0010
1000
0001
0100
0010
0100
,  // measure 100
0001
0010
0100
0010
0001
0100
0010
1000
,  // measure 101
0010
0100
0010
1000
0001
1000
0100
0010
,  // measure 102
0001
1000
0010
1000
0200
0000
0000
1000
,  // measure 103
1300
0010
1000
0001
0100
0010
0100
0001
,  // measure 104
1000
0100
0010
0001
0100
0010
0100
0001
,  // measure 105
0010
0001
0100
1000
0100
0001
1000
0010
,  // measure 106
0100
0001
0010
0100
2000
0000
3100
1000
,  // measure 107
0001
0000
0010
0100
0010
0000
0001
0000
2000
0000
0000
0000
3100
0000
0010
0000
,  // measure 108
0001
0000
0100
0010
0100
0000
0001
0000
0010
0000
0100
0000
1000
0000
0001
0000
,  // measure 109
1000
0010
0100
0001
0010
0001
0100
0010
,  // measure 110
1000
0010
0001
0010
1000
0010
0001
0010
,  // measure 111
1000
0000
0000
1000
0100
0000
0000
0100
0010
0000
0100
0000
1000
0000
0010
0000
,  // measure 112
0100
1000
0100
0010
1000
0100
0010
0001
,  // measure 113
0100
0010
0100
0000
0010
0000
0100
0000
0000
0000
0100
0000
0010
0000
0100
0000
,  // measure 114
0001
1000
0100
0001
1000
0010
0001
0100
,  // measure 115
0020
0000
0000
0000
0130
0100
0010
1000
,  // measure 116
0002
0013
0010
0100
0010
0100
1000
2000
,  // measure 117
0000
0001
3001
0000
0011
0000
0010
0100
,  // measure 118
1000
0000
0010
0000
0100
0000
0202
0000
0303
0000
0000
0001
1000
0000
0100
0000
,  // measure 119
1000
0010
0010
0000
0110
0000
0010
0100
,  // measure 120
1001
0100
0010
2001
0000
3100
0001
0100
,  // measure 121
1000
1010
0000
0000
2100
0000
0000
3010
,  // measure 122
0210
0002
0000
0000
,  // measure 123
0000
0000
0000
0000
,  // measure 124
0000
0000
0000
0000
,  // measure 125
0000
0000
0303
0000
;

//---------------dance-single - ----------------
#NOTES:
     dance-single:
     Gameoson + DDRDAIKENKAI:
     Medium:
     8:
     0.529826,0.629936,0.373667,0.435015,0.100388,665.000000,598.000000,67.000000,78.000000,0.000000,0.000000,0.529826,0.629936,0.373667,0.435015,0.100388,665.000000,598.000000,67.000000,78.000000,0.000000,0.000000:
// measure 0
0000
0000
0000
0000
,  // measure 1
0000
0000
0000
0000
,  // measure 2
0001
0000
0000
0202
0000
0000
0300
0000
,  // measure 3
1000
0010
1003
0000
,  // measure 4
1000
0000
0000
2100
0000
0000
0010
0000
,  // measure 5
0001
0000
3000
0000
,  // measure 6
1001
0000
0000
1100
0000
0100
0010
0000
,  // measure 7
1001
0000
0000
0011
0000
0001
0100
0000
,  // measure 8
0110
0000
0010
0000
1000
0100
0010
0001
,  // measure 9
1000
0000
0001
0010
0000
0100
1000
0000
,  // measure 10
1001
0000
0000
0000
0002
0000
0103
0010
,  // measure 11
1000
0000
0100
0010
0001
0000
0100
0010
,  // measure 12
1000
0000
0100
0010
0100
0010
0100
0000
,  // measure 13
1001
0000
0000
0000
0000
0000
0001
0010
,  // measure 14
0100
0000
0010
0000
0010
0000
0100
1000
,  // measure 15
0001
0100
0010
0100
0010
0000
0100
0001
,  // measure 16
1000
0000
0100
1000
0001
0000
0100
0000
,  // measure 17
1001
0000
0000
0000
0000
0000
1000
0010
,  // measure 18
0100
0000
0001
1000
0100
0000
0010
0000
,  // measure 19
1001
0000
0001
0100
0000
1000
0100
0000
,  // measure 20
0110
0000
1000
0000
0001
0100
0010
1000
,  // measure 21
0200
0000
0310
0001
,  // measure 22
2000
0000
0000
0010
3010
0000
0100
0010
,  // measure 23
0100
0000
0010
0100
0000
0001
0100
0000
,  // measure 24
0110
0000
1001
0000
1000
0001
0100
0010
,  // measure 25
0100
0002
0023
0230
,  // measure 26
2300
0000
0000
0002
0000
0000
3003
0000
,  // measure 27
1001
0100
1001
0010
,  // measure 28
0001
0100
0010
1000
0100
0000
0010
0000
,  // measure 29
0002
0000
0013
0001
1000
0000
1000
0001
,  // measure 30
0200
0000
0310
1000
0002
0000
0013
0000
,  // measure 31
1100
0010
0101
0010
,  // measure 32
1000
0100
0001
0100
1000
0000
0010
0000
,  // measure 33
1001
0100
1001
1000
,  // measure 34
1001
0000
0001
1000
0002
0000
1003
0001
,  // measure 35
1002
0000
0000
0000
0020
0000
0000
0003
,  // measure 36
0030
0001
0010
0000
0021
0000
0230
0000
,  // measure 37
2300
0000
0000
0000
3020
0000
1030
0010
,  // measure 38
0100
0001
2000
0000
0001
0000
3000
0000
,  // measure 39
0022
0033
2020
3030
,  // measure 40
1000
0100
0010
0000
0220
0000
0330
0000
,  // measure 41
1001
0000
0001
0100
0001
0000
1000
0100
,  // measure 42
1000
0000
0010
0000
1001
0000
0001
1000
,  // measure 43
0010
1000
0010
1000
0001
0000
0010
0000
,  // measure 44
0000
0000
0001
0000
0000
0001
0000
0000
1000
0000
0000
1000
0000
0000
0001
0000
,  // measure 45
0100
0010
0100
0001
,  // measure 46
1000
0000
0000
1000
0000
0000
0100
0000
0000
0100
0000
0000
0010
0000
0000
0000
,  // measure 47
0001
0100
0010
0100
0001
0010
0000
0100
,  // measure 48
0000
0000
1000
0000
0000
1000
0000
0000
0001
0000
0000
0001
0000
0000
0010
0000
,  // measure 49
0100
0010
0001
0000
0001
1000
0000
0001
,  // measure 50
1001
0000
0000
1001
0000
0000
0110
0000
0000
0000
0110
0000
0000
0000
1000
0000
,  // measure 51
0002
0000
1003
0000
0001
1000
0100
0010
,  // measure 52
0000
0010
0100
0010
0001
1000
0001
1000
,  // measure 53
0002
0003
0101
0000
,  // measure 54
0000
1000
0100
0000
1100
0000
0001
0000
,  // measure 55
2000
0000
3010
0100
0001
0000
0001
0010
,  // measure 56
0100
0000
0010
0100
1000
0010
0100
0000
,  // measure 57
0002
0010
2003
0010
,  // measure 58
0002
0000
3003
0000
1001
0000
0001
1000
,  // measure 59
0001
0000
0010
0100
0000
0010
0100
0000
0000
0010
0000
0000
,  // measure 60
0001
0000
0001
0100
0000
0100
0010
0000
0000
0110
0000
0000
,  // measure 61
1010
0000
0000
1000
0000
0100
0010
0000
0100
0010
0000
0000
,  // measure 62
1001
0000
1000
0010
0000
0000
1001
0000
0001
0010
0000
0000
,  // measure 63
0011
0110
0011
1001
,  // measure 64
1010
0110
1010
1001
,  // measure 65
0002
0023
2030
3020
,  // measure 66
0031
0000
0000
0101
0000
1000
0010
0000
1000
0010
0000
0000
,  // measure 67
0201
0000
0320
0000
,  // measure 68
0000
0000
2030
3002
,  // measure 69
0023
0000
0000
0130
2000
0000
0000
0000
,  // measure 70
0000
0001
3001
0000
0200
0000
0302
0000
,  // measure 71
2003
0000
3020
2030
,  // measure 72
3002
0000
0000
0010
0023
0000
0230
0000
,  // measure 73
2300
0000
0000
0000
,  // measure 74
3002
0000
0000
0000
0103
0010
1000
0001
,  // measure 75
0020
0000
0000
0130
0000
0000
0100
0000
2000
0000
0000
3100
0000
0000
0100
0000
,  // measure 76
1000
0010
0100
0010
1000
0000
0001
0000
,  // measure 77
0010
1000
0010
0000
0001
0100
0001
0000
,  // measure 78
0100
1000
0100
0000
0010
1000
0001
1000
,  // measure 79
0002
0000
0000
1003
0000
0000
0001
0000
0200
0000
0000
0301
0000
0000
0100
0000
,  // measure 80
0010
1000
0100
0010
0001
0000
1001
0000
,  // measure 81
1010
0000
0010
1000
0001
0100
0001
0000
,  // measure 82
0101
0000
0001
1000
0100
0000
1001
0000
,  // measure 83
0002
0020
0000
0030
0010
0000
1003
0000
,  // measure 84
0001
0100
0001
0100
0010
0100
0010
0100
,  // measure 85
0020
2000
0030
0001
0000
0100
3100
0000
,  // measure 86
1000
0100
0010
0001
0010
0100
1000
0000
,  // measure 87
0002
2000
0003
0010
0000
3001
0010
0001
,  // measure 88
1000
0010
0100
0010
0100
0001
0010
0000
,  // measure 89
0001
1000
0010
0000
0010
1000
0001
0000
,  // measure 90
1000
0100
0010
0001
1000
0100
0010
0001
,  // measure 91
2000
0001
3001
0100
,  // measure 92
0010
0000
1000
0000
0000
0100
0000
0000
0010
0000
0000
0000
,  // measure 93
0110
0000
0000
0010
0000
0001
0000
0000
0001
1000
0000
1000
,  // measure 94
0010
0100
0110
1001
,  // measure 95
1000
0000
0000
1010
0000
0000
0001
0000
0100
0000
0000
0010
,  // measure 96
1000
0000
0000
1000
0000
0100
0000
0000
0100
0010
0000
0000
,  // measure 97
0110
0000
0000
1001
0000
0000
0001
0000
0001
0100
0000
0100
,  // measure 98
0010
0000
0010
1000
0000
0100
0000
0000
0100
1000
0000
0000
,  // measure 99
0001
0100
0010
0000
0100
0010
1000
0000
,  // measure 100
0010
1000
0100
0000
0100
1000
0010
0000
,  // measure 101
1000
0100
0010
0000
0100
0010
0001
0000
,  // measure 102
1000
0100
0010
0001
2000
0000
3001
0000
,  // measure 103
0010
0001
0100
0000
0010
1000
0100
0000
,  // measure 104
0010
0100
1000
0000
0010
0100
0001
0000
,  // measure 105
0010
0100
1000
0000
1000
0001
0100
0000
,  // measure 106
0010
1000
0001
0100
0020
0000
1030
0000
,  // measure 107
1000
0001
1000
0100
0010
0000
0001
1000
,  // measure 108
0100
0100
1000
1000
0001
0100
0001
0000
,  // measure 109
0010
0001
0010
0000
0001
0100
0001
0000
,  // measure 110
1000
0010
1000
0001
1000
0010
1000
0001
,  // measure 111
0020
2030
3020
0031
,  // measure 112
0010
0001
0100
0010
1000
0100
0010
0001
,  // measure 113
1000
0000
0010
0100
0000
0100
0010
0000
,  // measure 114
1000
0010
0100
0001
1000
0010
0100
0001
,  // measure 115
0020
0000
0030
0000
,  // measure 116
0000
1001
0000
0010
0100
0100
0010
0110
,  // measure 117
0000
0001
1000
0000
0011
0000
1000
0000
,  // measure 118
1010
0000
0000
0101
0000
0001
2000
0000
,  // measure 119
3100
0010
0001
0000
0011
0000
2000
0000
,  // measure 120
3010
0100
0000
2002
0000
0000
3003
0000
,  // measure 121
1000
0100
0000
0001
0200
0000
0000
0310
,  // measure 122
0001
2002
0000
0000
,  // measure 123
0000
0000
0000
0000
,  // measure 124
0000
0000
0000
0000
,  // measure 125
0000
0000
3003
0000
;

//---------------dance-single - ----------------
#NOTES:
     dance-single:
     DDRDAIKENKAI x Gameoson:
     Easy:
     5:
     0.383228,0.524946,0.468478,0.362513,0.000000,481.000000,397.000000,84.000000,65.000000,0.000000,0.000000,0.383228,0.524946,0.468478,0.362513,0.000000,481.000000,397.000000,84.000000,65.000000,0.000000,0.000000:
// measure 0
0000
0000
0000
0000
,  // measure 1
0000
0000
0000
0000
,  // measure 2
2000
0000
0000
0200
0000
0000
0000
0000
,  // measure 3
3300
0000
0000
0000
,  // measure 4
0002
0000
0000
0020
0000
0000
0033
0000
,  // measure 5
0000
0000
0000
0000
,  // measure 6
1000
0000
0000
1002
0000
0000
1003
0000
,  // measure 7
0001
0000
0000
2001
0000
0000
3001
0000
,  // measure 8
0100
0100
0010
1000
,  // measure 9
1001
0000
0000
0120
0000
0000
0130
0000
,  // measure 10
0110
0000
0100
0010
,  // measure 11
1001
0001
0011
1000
,  // measure 12
1010
0001
0010
0100
,  // measure 13
0220
0330
0000
0010
,  // measure 14
0001
1000
0010
0100
,  // measure 15
0010
1000
1001
0001
,  // measure 16
0101
0100
0001
0010
,  // measure 17
0110
0000
0000
1000
,  // measure 18
1001
0000
0000
0110
0000
0000
1001
0000
,  // measure 19
2000
0000
3000
0020
0000
0030
2000
3000
,  // measure 20
0020
0030
1000
0001
,  // measure 21
0020
0000
0100
0001
,  // measure 22
0230
0000
1000
0000
,  // measure 23
1300
0001
1000
0010
,  // measure 24
0100
0110
0001
1001
,  // measure 25
2000
0100
3200
0010
,  // measure 26
0320
0000
0000
0032
0000
0000
1003
0000
,  // measure 27
2002
3003
0220
0330
,  // measure 28
0001
0010
0100
1000
,  // measure 29
0001
0100
1000
0100
,  // measure 30
0010
1000
0100
0010
,  // measure 31
2002
3003
1000
0100
,  // measure 32
0001
0100
1000
0010
,  // measure 33
0110
0010
0110
0100
,  // measure 34
0110
0010
1000
1000
,  // measure 35
1002
0000
0020
0000
,  // measure 36
0030
0000
2003
3020
,  // measure 37
0230
0000
1000
0000
,  // measure 38
0002
0000
0303
0000
,  // measure 39
1000
2000
0010
3010
,  // measure 40
0200
0000
0301
0010
,  // measure 41
0020
0000
0032
1000
,  // measure 42
2003
0000
3001
0100
,  // measure 43
0001
0010
1000
0010
,  // measure 44
0000
0110
0000
0000
0011
0000
0011
0000
,  // measure 45
0001
0100
0010
1000
,  // measure 46
0101
0000
0000
1100
0000
0000
0100
0000
,  // measure 47
1000
0010
0001
0010
,  // measure 48
0000
0110
0000
0000
1010
0000
1010
0000
,  // measure 49
0001
0010
0100
1000
,  // measure 50
1001
0000
0000
0110
0000
0000
0110
0000
,  // measure 51
1010
0010
1010
0010
,  // measure 52
1010
0011
1010
0010
,  // measure 53
0200
0000
0301
0000
,  // measure 54
0000
1000
1001
0000
,  // measure 55
1100
0100
1100
0100
,  // measure 56
1100
0101
1100
1000
,  // measure 57
0002
0000
1003
0000
,  // measure 58
0200
0000
1300
1000
,  // measure 59
0001
0001
0010
0010
,  // measure 60
0100
1000
0001
0100
,  // measure 61
0010
0010
1000
1000
,  // measure 62
0010
0001
0010
1000
,  // measure 63
0010
0010
0001
0001
,  // measure 64
0100
0100
1000
1000
,  // measure 65
0010
1000
0100
0001
,  // measure 66
0010
1000
0001
1000
,  // measure 67
2001
0000
3200
0000
,  // measure 68
0000
0010
0302
0203
,  // measure 69
2300
0000
3002
0000
,  // measure 70
0000
0100
1003
0020
,  // measure 71
2030
0000
3100
0010
,  // measure 72
0002
0000
0103
0001
,  // measure 73
2000
0000
3001
0000
,  // measure 74
0002
0000
0103
0010
,  // measure 75
1010
0001
0011
1000
,  // measure 76
1010
0110
0101
1000
,  // measure 77
0100
1001
0100
1001
,  // measure 78
0010
1001
0010
1001
,  // measure 79
0101
1000
1100
0001
,  // measure 80
1001
0011
0201
0301
,  // measure 81
0020
0031
0100
0010
,  // measure 82
2000
3100
0010
0110
,  // measure 83
2002
0000
3003
0000
,  // measure 84
0001
0100
0010
1000
,  // measure 85
2002
0000
3003
0000
,  // measure 86
1000
0100
0001
0100
,  // measure 87
1000
1000
0000
0010
,  // measure 88
0010
0100
0010
1000
,  // measure 89
0001
0001
0010
0100
,  // measure 90
1000
1000
0010
0100
,  // measure 91
0002
1003
0000
1000
,  // measure 92
0001
0100
0010
0100
,  // measure 93
0001
1001
0000
1100
,  // measure 94
0100
0010
0001
0001
,  // measure 95
0010
0010
0001
1000
,  // measure 96
0010
0100
0001
1000
,  // measure 97
0000
1001
1001
0001
,  // measure 98
0010
0100
1000
0010
,  // measure 99
1000
1000
0100
0100
,  // measure 100
0001
0001
0100
0100
,  // measure 101
1000
1000
0010
0010
,  // measure 102
0001
0010
2000
3000
,  // measure 103
0001
0001
0010
0010
,  // measure 104
1000
1000
0010
0010
,  // measure 105
0001
0001
0100
0100
,  // measure 106
1000
0100
0002
1003
,  // measure 107
0001
0010
0100
0010
,  // measure 108
0001
0100
0010
0100
,  // measure 109
1000
0100
0010
1000
,  // measure 110
1001
1010
1001
0101
,  // measure 111
1000
0100
0001
0100
,  // measure 112
1000
0010
0001
0010
,  // measure 113
1000
1001
0100
1001
,  // measure 114
1000
0100
1000
0001
,  // measure 115
0020
0000
0030
0000
,  // measure 116
0000
1001
0000
0001
0000
1000
0000
2001
,  // measure 117
0000
3100
0000
0000
1001
0000
0000
0000
,  // measure 118
0011
0000
0000
2100
0000
3000
0010
0000
,  // measure 119
0100
0100
0101
0000
,  // measure 120
1001
0000
0000
1010
0000
0000
1000
0000
,  // measure 121
0000
1100
0000
0000
0110
0000
0000
0000
,  // measure 122
0002
0200
0000
0000
,  // measure 123
0000
0000
0000
0000
,  // measure 124
0000
0000
0000
0000
,  // measure 125
0000
0000
0303
0000
;

//---------------dance-single - ----------------
#NOTES:
     dance-single:
     Gameoson x DDRDAIKENKAI:
     Beginner:
     2:
     0.210337,0.314968,0.111542,0.145005,0.000000,264.000000,244.000000,20.000000,26.000000,0.000000,0.000000,0.210337,0.314968,0.111542,0.145005,0.000000,264.000000,244.000000,20.000000,26.000000,0.000000,0.000000:
// measure 0
0000
0000
0000
0000
,  // measure 1
0000
0000
0000
0000
,  // measure 2
2000
0000
0000
3000
0000
0000
0000
0000
,  // measure 3
0000
0000
0000
0000
,  // measure 4
0002
0000
0000
0003
0000
0000
0000
0000
,  // measure 5
0000
0000
0000
0000
,  // measure 6
1001
0000
0100
0000
,  // measure 7
1001
0000
0010
0000
,  // measure 8
1000
0000
0100
0000
,  // measure 9
0010
0000
0001
0000
,  // measure 10
1001
0000
0000
0000
,  // measure 11
1000
0000
0001
0000
,  // measure 12
1000
0000
0000
0000
,  // measure 13
0110
0000
0000
0000
,  // measure 14
0100
0000
0100
0000
,  // measure 15
0010
0000
0100
0000
,  // measure 16
0010
0000
0000
0000
,  // measure 17
1001
0000
0000
0000
,  // measure 18
1000
0000
1000
0000
,  // measure 19
0001
0000
1000
0000
,  // measure 20
0001
0000
1000
1000
,  // measure 21
1000
0000
0100
0000
,  // measure 22
0010
0000
0100
0000
,  // measure 23
1000
0000
0001
0000
,  // measure 24
1000
0000
0001
0001
,  // measure 25
0001
0000
0100
0000
,  // measure 26
0010
0000
1000
0000
,  // measure 27
0010
0000
0010
0000
,  // measure 28
0100
0000
0100
0000
,  // measure 29
0001
0001
0001
0000
,  // measure 30
1000
1000
1000
0000
,  // measure 31
0100
0000
0100
0000
,  // measure 32
0010
0010
0010
0000
,  // measure 33
1001
0000
1001
0000
,  // measure 34
1000
0000
0001
0000
,  // measure 35
2002
0000
3000
0000
,  // measure 36
0003
0000
0010
0000
,  // measure 37
0001
0000
1000
0000
,  // measure 38
0020
0000
0030
0000
,  // measure 39
2002
0000
3003
0000
,  // measure 40
0200
0000
0300
0000
,  // measure 41
1001
0000
0110
0000
,  // measure 42
1001
0000
1000
1000
,  // measure 43
1000
0000
1000
0000
,  // measure 44
0000
0001
0000
0001
,  // measure 45
0001
0000
1000
0000
,  // measure 46
0010
0010
0010
0000
,  // measure 47
0100
0100
0100
0000
,  // measure 48
0000
0001
0000
1000
,  // measure 49
1000
0000
0010
0000
,  // measure 50
0100
0100
0100
0000
,  // measure 51
0001
0000
0010
0000
,  // measure 52
0001
0000
0010
0010
,  // measure 53
0020
0000
0030
0000
,  // measure 54
0000
0001
0001
0000
,  // measure 55
1000
0000
0010
0000
,  // measure 56
1000
1000
1000
0000
,  // measure 57
0020
0000
0030
0000
,  // measure 58
0100
0000
0100
0100
,  // measure 59
0100
0000
0010
0000
,  // measure 60
0100
0100
0100
0000
,  // measure 61
0001
0000
1000
0000
,  // measure 62
0001
0001
0001
0000
,  // measure 63
1000
0000
1000
0000
,  // measure 64
0010
0000
0010
0000
,  // measure 65
0100
0100
0100
0100
,  // measure 66
0100
0100
0100
0000
,  // measure 67
0002
0000
0003
0000
,  // measure 68
0010
0000
0100
0000
,  // measure 69
0100
0000
2000
0000
,  // measure 70
3000
0000
1000
0000
,  // measure 71
0010
0000
0100
0000
,  // measure 72
0010
0000
0100
0000
,  // measure 73
0002
0000
0003
0000
,  // measure 74
1000
0000
0001
0000
,  // measure 75
1000
0000
0001
0000
,  // measure 76
1000
1000
1000
0000
,  // measure 77
0010
0010
0010
0000
,  // measure 78
0100
0100
0100
0000
,  // measure 79
0010
0000
1000
0000
,  // measure 80
0001
0001
0001
0000
,  // measure 81
0010
0010
0010
0000
,  // measure 82
0200
0300
0000
1001
,  // measure 83
2002
0000
3003
0000
,  // measure 84
1000
0000
0100
0000
,  // measure 85
2002
0000
3003
0000
,  // measure 86
0001
0000
0100
0000
,  // measure 87
2002
0000
3003
0000
,  // measure 88
1000
0000
0010
0000
,  // measure 89
0100
0000
0001
0000
,  // measure 90
0010
0000
0100
0100
,  // measure 91
0200
0300
0000
1000
,  // measure 92
0000
0010
0000
0100
,  // measure 93
0000
0001
0000
1000
,  // measure 94
0000
0001
0001
0001
,  // measure 95
0000
0100
0000
0010
,  // measure 96
0000
0100
0000
0001
,  // measure 97
0001
0001
0000
1000
,  // measure 98
0000
1000
0000
0001
,  // measure 99
0001
0000
0010
0000
,  // measure 100
0100
0000
0010
0000
,  // measure 101
0001
0000
0100
0000
,  // measure 102
0010
0000
1000
1000
,  // measure 103
1000
0000
0100
0000
,  // measure 104
0010
0000
0100
0000
,  // measure 105
1000
0000
0010
0000
,  // measure 106
0100
0000
0001
0000
,  // measure 107
1000
1000
1000
0000
,  // measure 108
0001
0001
0001
0000
,  // measure 109
0100
0000
0100
0000
,  // measure 110
0010
0010
0010
0010
,  // measure 111
0010
0000
0100
0000
,  // measure 112
0001
0001
0001
0000
,  // measure 113
1000
0000
0100
0000
,  // measure 114
0010
0000
0001
0000
,  // measure 115
0020
0000
0030
0000
,  // measure 116
0000
1001
0000
0000
0000
0000
0000
0110
,  // measure 117
0000
0000
1000
0000
,  // measure 118
2002
0000
0000
3003
0000
0000
0000
0000
,  // measure 119
0020
0000
0030
0000
,  // measure 120
0100
0000
1001
0000
,  // measure 121
0001
0000
1000
0000
,  // measure 122
0000
0200
0000
0000
,  // measure 123
0000
0000
0000
0000
,  // measure 124
0000
0000
0000
0000
,  // measure 125
0000
0000
0300
0000
;
