#TITLE:Frozen Flame;
#SUBTITLE:;
#ARTIST:dj VERTICAI vs Vective;
#TITLETRANSLIT:;
#SUBTITLETRANSLIT:;
#ARTISTTRANSLIT:;
#GENRE:;
#CREDIT:;
#BANNER:[Double Trouble] - Frozen Flame.png;
#BACKGROUND:[Double Trouble] - Frozen Flame-bg.png;
#LYRICSPATH:;
#CDTITLE:;
#MUSIC:[Double Trouble] - Frozen Flame.ogg;
#OFFSET:-3.158271;
#SAMPLESTART:104.712830;
#SAMPLELENGTH:12.307686;
#SELECTABLE:YES;
#DISPLAYBPM:78.000000:156.000000;
#BPMS:0.000000=156.000000
,292.000000=78.000000
,292.500000=312.000000
,293.500000=156.000000
,294.000000=78.000000
,308.000000=156.000000
,312.000000=78.000000
,324.000000=156.000000
,330.000000=78.000000
,330.500000=234.000000
,332.000000=156.000000
,356.000000=78.000000
,360.000000=156.000000
;
#STOPS:151.000000=0.385000,
182.000000=0.385000,
592.000000=0.385000,
592.500000=0.385000,
595.500000=0.385000,
613.000000=0.192000
;
#BGCHANGES:;
#KEYSOUNDS:;
#ATTACKS:;

//---------------dance-single - ----------------
#NOTES:
     dance-single:
     :
     Challenge:
     10:
     0.604030,0.940022,0.216740,0.429927,0.689305,1190.000000,1129.000000,61.000000,121.000000,0.000000,0.000000,0.604030,0.940022,0.216740,0.429927,0.689305,1190.000000,1129.000000,61.000000,121.000000,0.000000,0.000000:
0000
0000
0000
0000
,
0000
0000
0000
0000
,
0000
0000
0000
0000
,
0000
0000
0000
0000
,
0000
0000
0000
0000
,
0000
0000
0000
0000
,
0000
0000
0000
0000
,
0000
0000
0000
0000
,
0000
0000
0000
0000
,
0000
0000
0000
0000
,
2000
3002
0203
0302
,
0023
0000
0000
0000
0030
0000
0001
0010
0100
0000
0010
0000
0001
0000
0100
0000
,
0002
2003
3200
2300
,
3020
0000
0000
0000
0030
0000
1000
0010
0100
0000
0001
0000
0010
0000
0001
0000
,
2000
0000
0000
0000
3000
0000
0001
0010
0002
0000
0000
0000
0003
0000
1000
0010
,
2000
0000
3010
0100
0020
0000
0130
0001
1000
0001
1000
0000
0001
0000
0100
0000
,
0020
0000
0000
0000
0000
0000
0030
1000
,
0001
0000
0100
0000
0010
0000
1000
0000
0001
0000
0000
0010
0001
0000
0001
1000
,
0200
0000
0000
0000
,
0000
0000
0000
0000
0000
0000
0000
0000
0300
0000
0000
0000
1000
0100
1000
0001
,
0020
0001
0032
0203
,
0320
1000
0001
0100
,
1030
0010
0100
0010
1000
0001
0100
0001
,
0010
0001
0010
0100
0010
0001
1000
0001
,
0100
0001
0000
0100
0000
0000
0010
0000
1000
0000
0000
1001
0000
0000
1000
0000
,
0100
0010
0000
0100
0000
0000
1000
0000
0001
0000
0000
0011
0000
0110
0000
0100
,
1000
0000
0000
1000
0100
0000
0000
0000
1000
0000
0000
1000
0010
0000
0100
0000
,
0001
0000
0000
0001
0010
0000
0001
0000
1000
0010
0000
0010
0100
0000
0001
0000
,
0001
0000
0000
0001
0100
0000
0000
0000
0001
0000
0000
0001
0010
0000
0100
0000
,
1000
0000
0000
1000
0010
0000
1000
0000
0001
0100
0000
0010
0000
0100
0000
0001
,
2000
0000
0000
0000
,
0004
0000
0000
0000
0000
0000
0000
3003
,
1001
0000
0000
0000
0110
0000
0000
0000
1001
0000
0001
0000
0100
0010
0100
0010
,
1000
0001
0000
0001
0010
0000
0100
0000
2000
0000
3020
0000
0130
0001
1000
0001
,
0010
0000
0100
1000
0000
0100
0000
1000
0000
0100
0010
0000
0001
1000
0010
1000
,
0000
0001
0100
0001
0000
0100
0000
0001
0000
0100
0001
0000
0100
0010
1000
0001
,
0000
0010
0100
0010
0000
0100
0000
0010
0000
0100
0010
0000
0100
1000
0001
0100
,
0000
0010
0100
0010
0000
0100
0000
0010
0000
0100
0010
0000
0010
0000
0000
1000
,
0000
0010
0000
0100
0000
0100
0001
0000
1000
0010
1000
0001
0000
0100
0010
0100
,
0000
0001
0000
1000
0000
1000
0100
0000
0001
0000
0001
0000
0100
0010
0100
0010
,
0000
0010
0000
0001
0000
0001
1000
0000
0010
1000
0001
0010
0100
0000
0000
0100
,
0000
0000
0100
0000
0002
0000
0203
0000
2300
0000
3020
0000
0130
0000
0100
0001
,
0000
0100
0001
0000
0010
0000
0100
1000
0000
0100
1000
0000
0010
0000
0010
1000
,
0000
0010
1000
0000
0100
0000
0010
0001
0000
0010
0001
0000
1000
0000
0010
0100
,
0000
0010
0100
0000
0001
0000
0010
0100
0000
0010
0100
0000
1000
0000
0000
0011
,
0000
0000
0110
0000
0000
0000
0001
0010
0100
0000
0000
1000
0000
1000
0001
0000
,
0100
0000
0001
0010
0000
0010
0001
0000
0100
0000
0001
1000
0000
1000
0001
0000
,
0100
0000
0001
1000
0100
0000
0100
0000
0010
0000
0100
0001
0000
0100
1000
0000
,
0010
0000
0100
1000
0000
0100
0001
0000
2000
0000
0000
0010
0000
0000
3001
0000
,
0200
0000
0320
0030
0110
0000
0000
0200
,
0000
0000
0300
0000
2000
0000
0000
3002
,
0000
0000
0000
0000
0003
0000
0000
0000
0200
0000
0000
0000
0000
0300
0000
0000
,
0020
0000
0000
0000
0000
0030
0000
0000
2000
0000
0000
3000
0000
0000
0002
0000
,
0000
0003
0000
0000
0020
0000
0030
0000
0100
0000
1000
0000
0000
0000
1000
0000
,
0000
1000
0000
0001
0100
0000
0001
0000
1000
0000
0010
0000
0000
0000
0010
0000
,
0000
0010
0000
0100
0001
0000
0010
0000
0100
0000
0000
0100
0000
0000
0100
1000
,
0001
0000
0000
0001
0000
0000
0001
1000
0010
0000
0100
0010
0100
0000
0001
0100
,
0001
0000
1000
0001
1000
0001
1000
0000
0001
0000
0001
0000
0100
0000
0010
0000
,
0000
0010
0000
1000
0001
0000
0010
0000
0100
0000
0100
0000
1000
0000
0001
0000
,
0000
0001
0000
1000
0001
0000
0010
0000
0100
0000
0100
0000
0000
1000
0000
0001
,
0010
0000
0010
0000
0000
0001
0000
1000
0010
0000
0010
0100
0000
0000
0001
0000
,
0001
1000
0000
0000
0100
0000
0010
0100
1000
0000
1000
0000
0100
0000
0010
0000
,
0000
0010
0000
0001
1000
0000
0010
0000
0100
0000
0100
0000
0001
0000
1000
0000
,
0000
1000
0000
0001
1000
0000
0010
0000
0100
0000
0100
0000
0000
0001
0000
1000
,
0010
0000
0010
0000
0000
1000
0000
0001
0010
0000
0110
0000
0000
0000
1010
0000
,
0000
0101
0000
0110
0000
0000
1000
0000
0001
0000
0100
0000
0010
0000
0100
0000
,
0001
1000
0000
1000
0001
0000
0010
0000
0100
0000
1000
0000
0100
0000
0010
0000
,
0001
1000
0000
1000
0001
0000
0100
0000
0010
0000
0010
0000
0000
1000
0000
0001
,
0010
0000
0010
0000
0000
0100
0000
0010
0100
0000
0100
1000
0000
0000
1000
0000
,
1000
0010
0000
0000
0010
0000
0010
0100
0001
0000
1000
0000
0100
0000
1000
0000
,
0010
0100
0000
0100
0010
0000
1000
0000
0001
0000
0100
0000
0010
0000
1000
0000
,
0100
0010
0000
0010
0100
0000
1000
0000
0002
0000
0010
0000
0000
0013
0000
0001
,
2000
0000
0010
0000
0000
3010
0000
1000
0001
0000
0001
0000
0000
0000
0001
0000
,
0001
0001
0002
0000
0000
0000
0003
0000
1000
0100
0000
0100
0012
1000
0000
0103
,
0100
0000
0000
0001
0000
0000
1000
0000
0001
0000
0100
0000
0020
0100
0000
0000
0030
0000
0100
0000
0001
1000
0001
1000
0100
0000
0000
0100
0000
0010
0100
0000
,
1000
0000
1000
0000
0001
0000
0010
0000
0002
0000
0000
0100
0000
1003
0000
0000
0001
0000
0100
0000
0010
0000
1000
0000
2010
0000
0000
0000
0001
0000
3100
0000
,
0000
0000
0100
0000
0100
0000
0100
0000
1000
0000
0020
0000
0000
0000
0030
0000
0100
0000
0001
0000
1001
0000
0000
0000
1000
0000
1001
0000
0000
0001
0010
0001
,
0010
0000
0100
0000
1000
0000
0001
1000
0000
0001
0100
0000
0010
0100
0010
0100
,
0001
0000
0100
0000
0000
0000
0100
0000
2010
0000
0001
0000
0000
0000
3100
0000
0100
0000
0000
1000
0000
0000
0001
0000
0010
0000
0200
0000
0010
0000
0000
0000
,
2300
0000
3001
0000
1000
0100
0010
0100
1000
0000
0000
1000
0000
0001
0010
0000
0001
0000
0001
0000
0100
0000
0010
0000
2000
0000
0000
0010
0000
3001
0000
0000
,
1000
0000
0100
0000
0010
0000
0001
0000
0021
0000
0000
0000
0001
0000
0130
0000
0000
0000
0100
0000
0100
0000
0100
0000
1000
0000
0002
0000
0003
1000
0001
1000
,
0010
1000
0010
0000
0100
0010
0100
0000
0001
0100
0001
0000
0010
0001
0010
0000
,
0001
0000
1000
0000
1100
0000
0001
0000
0101
0000
0220
0000
0000
0330
0000
0000
,
1000
0000
0001
0100
0000
0001
0010
0001
1000
0000
0020
0000
0000
0000
0130
0000
,
0001
0020
0000
0130
1000
0010
1000
0001
,
0100
0000
0000
0101
0000
0000
1010
0000
1000
0000
0001
0000
0010
0100
0010
0100
,
1000
0000
0000
0100
0000
1000
0010
0100
0001
0000
1000
0000
0020
0000
0030
0000
,
0010
0200
0000
0301
0010
0200
0000
1300
,
0010
0000
0200
0000
0000
0000
0301
0000
0010
0000
0001
0000
1000
0000
0000
1000
,
0100
0000
0000
0000
0022
0033
0000
0000
0001
0000
0100
0000
2020
3030
0000
0000
0100
0000
0000
0000
0022
0033
0000
0000
0100
0000
0000
0000
2020
3000
0000
0000
,
0130
0000
0001
0000
1000
0000
0001
0100
0001
0000
0020
0000
0130
0000
1000
0000
,
0100
0000
0020
0000
0031
0000
0100
0000
0001
0000
0020
0000
0130
0000
0000
0100
,
1000
0000
0020
0000
0130
0000
0001
0000
1000
0000
0100
0000
0010
0001
1000
0001
,
0100
0000
0000
0100
0000
0100
0010
0100
0001
0000
2000
0000
0000
0000
3010
0000
,
0200
0000
0301
0020
0031
0100
1000
0010
,
1000
0100
0001
0010
0001
2000
3020
0230
,
0301
0100
0001
0010
0100
1000
0010
1000
,
0001
0000
1000
0000
0001
0000
1000
0000
0010
0000
0010
1000
0001
1000
0001
0010
,
0200
0010
0001
0010
,
2300
0000
0000
0001
3001
1000
0010
0100
,
0002
1000
0100
0010
,
0203
0000
0000
1000
1300
0100
0001
1000
,
0020
0000
0030
0010
0200
0000
0300
0100
,
0002
0000
0003
0001
2000
3100
1000
0010
,
0200
0000
0000
0000
0000
0000
0300
0001
,
1000
0000
0010
0000
0001
0000
0010
0000
0100
0000
0000
0001
1000
0000
0000
1000
,
0200
1000
0010
0001
,
1000
0000
0000
0000
,
0300
0100
0000
0100
0000
0100
0000
0100
,
0000
1000
0000
1000
0000
0001
0000
0001
,
0100
0100
0010
0010
1000
1000
0001
0001
,
0010
0010
0100
0100
1000
1000
0010
0010
,
0100
0001
0100
0001
1000
0010
1000
0010
,
1000
0000
0100
0000
1000
0000
0100
0000
0010
0000
0001
0000
1000
0010
0100
0000
,
0002
0000
0000
0000
0000
0000
1003
1000
0001
0001
1000
0010
,
0200
0000
0000
0000
0300
0100
1001
0000
,
0001
0000
0100
0010
0000
0100
0001
0000
1000
0000
0100
0010
0000
0100
1000
0000
,
0001
0000
0100
0010
0000
0010
0100
0010
1000
0000
0000
0010
0000
0100
0000
0001
,
1000
0000
0010
0100
0000
0010
1000
0000
0001
0000
0010
0100
0000
0010
0001
0000
,
1000
0000
0010
0100
0000
0100
0010
0100
0001
0000
0000
1000
0000
1001
0000
0001
,
1000
0000
0100
1000
0000
0001
0010
0000
0001
0000
0100
0001
0000
1000
0020
0000
,
0130
0000
0001
0100
0000
0001
1000
0010
1000
0000
0100
1000
0000
1001
0000
0001
,
0010
0000
0000
0110
0000
0000
1100
0000
0100
0000
0000
0110
0000
0000
0011
0000
,
0001
0000
1000
0100
0000
1000
0001
1000
0001
0100
0000
1010
0000
0010
0100
0001
,
1000
0000
0001
0010
0000
0010
0100
0000
1000
0000
0001
0100
0000
0100
0010
0000
,
1000
0000
0001
0010
0000
0001
0010
0100
0010
0000
0000
0110
0000
0100
0000
1000
,
0001
0000
1000
0010
0000
0010
0100
0000
0001
0000
1000
0100
0000
0100
0010
0000
,
0001
0000
1000
0010
0000
0010
1000
0001
0100
0001
0000
0100
0000
0110
0000
0010
,
1000
0000
0000
1010
0000
0000
0001
0000
0010
0000
0000
1100
0000
0000
0100
0000
,
0010
0000
0000
0011
0000
0000
1000
0010
1000
0000
0000
0101
0000
0100
0001
1000
,
0001
0000
0000
0101
0000
0000
1001
0000
0000
1100
0000
0100
0010
0000
0100
0000
,
0110
0000
0000
0011
0000
0000
1010
0000
2000
0000
0000
0000
3002
0000
0000
0000
,
0103
0010
0100
0010
0100
0000
0010
0000
1000
0000
0000
0001
0000
0000
0010
0000
,
0001
1000
0001
1000
0001
0000
1000
0100
0010
0000
0000
0010
0000
0010
0000
0001
,
1000
0100
1000
0100
1000
0000
0010
0000
0100
0000
0000
0001
0000
0000
0010
0000
,
0100
0000
1000
0100
0000
1000
0001
0100
0010
0000
0000
0010
0000
0100
0000
0001
,
1000
0010
1000
0010
1000
0000
0001
0000
0010
0000
0000
0001
0000
0000
0100
0000
,
0010
1000
0010
1000
0010
0000
0100
0000
0001
0000
0000
1000
0000
0001
0000
1000
,
0020
0000
0030
0200
0000
0300
0002
0000
2003
0000
3000
2000
0000
3000
0020
0000
,
0130
0000
0000
0100
0000
0000
0000
0001
0000
0000
1000
0000
0110
0000
0000
0000
,
1000
0010
1000
0000
0010
0100
0000
0010
0000
0100
0001
0000
1000
0001
1000
0000
,
0001
0010
0001
0000
0010
0100
0000
0010
0000
0100
1000
0000
0001
0100
0010
0100
,
0001
1000
0001
0000
1000
0010
0000
0100
0000
0010
1000
0000
0100
1000
0100
0000
,
1000
0001
1000
0000
0001
0100
0000
0010
0000
0100
0001
0000
1000
0010
0100
0010
,
1000
0100
1000
0100
1000
0100
1000
0100
,
0010
0001
0010
0001
1000
0010
0100
0001
,
1000
1000
0100
0100
0010
0010
0100
0100
,
0001
0000
0000
0100
0000
0000
0000
1000
0000
0000
0010
0000
0110
0000
0000
0000
,
0022
0033
2200
3300
0000
0000
0000
0000
0220
0330
0000
2002
3003
0000
0220
0330
,
0000
0000
0000
0000
0022
0033
0000
0202
0303
0000
2002
3003
0000
2020
3030
0000
,
2400
0000
0000
0000
0000
0000
0000
0300
,
3002
0000
0040
0000
0000
0000
0000
0030
,
1003
0100
1000
0001
0010
0000
0100
0010
0000
0100
0010
0001
1000
0100
1000
0000
,
0001
0100
0001
0000
0000
0000
0220
0000
0000
0000
0000
0000
0000
0000
0000
0000
,
0000
0000
0000
0000
,
0000
0000
0000
0000
0000
0330
0000
0000
;

//---------------dance-single - ----------------
#NOTES:
     dance-single:
     :
     Hard:
     9:
     0.467996,0.774135,0.166997,0.302015,0.408608,922.000000,875.000000,47.000000,85.000000,0.000000,0.000000,0.467996,0.774135,0.166997,0.302015,0.408608,922.000000,875.000000,47.000000,85.000000,0.000000,0.000000:
0000
0000
0000
0000
,
0000
0000
0000
0000
,
0000
0000
0000
0000
,
0000
0000
0000
0000
,
0000
0000
0000
0000
,
0000
0000
0000
0000
,
0000
0000
0000
0000
,
0000
0000
0000
0000
,
0000
0000
0000
0000
,
0000
0000
0000
0000
,
2000
3002
0203
0302
,
0023
0000
0000
0000
0030
0000
0100
1000
0100
0000
0010
0000
0100
0000
1000
0000
,
0002
2003
3200
2300
,
3020
0000
0000
0000
0030
0000
0100
0001
0100
0000
0010
0000
1000
0000
0001
0000
,
0020
0000
0000
0000
0030
0000
0001
1000
0200
0000
0000
0000
0300
0000
1000
0100
,
0010
0001
0010
0001
1000
0010
0100
0001
,
2000
0000
0000
0000
0000
0000
3000
0001
,
0010
0000
0001
0000
1000
0000
0010
0000
0100
0000
0000
0100
0001
0000
0001
0010
,
0200
0000
0000
0000
,
0000
0000
0000
0000
0300
0000
1000
0100
,
0020
0100
0001
0230
,
2300
0100
0001
0010
,
3001
1000
0100
0010
0001
1000
0100
0010
,
0001
1000
0010
0100
0001
1000
0010
0100
,
0001
0010
0100
1000
0001
0010
0100
1000
,
0001
0000
0100
0000
0010
0000
1000
0000
0001
0100
0000
0010
0000
0010
0000
1000
,
0001
0000
0000
0100
0000
0000
0010
0000
0010
0000
0000
1000
0000
0001
0000
0000
,
1000
0000
0000
0100
0000
0000
0010
0001
0010
0000
0000
0100
0000
1000
0000
1000
,
0001
0000
0000
0010
0000
0000
0100
0000
0100
0000
0000
1000
0000
0001
0000
0000
,
1000
0000
1000
0010
0000
0000
0100
0010
0100
0000
0000
0001
0000
0100
0000
0001
,
2000
0000
0000
0000
,
0002
0000
0000
0000
0000
0000
0000
3003
,
1001
0000
0000
0000
0110
0000
0000
0000
1001
0000
0001
0000
0100
0010
0100
0010
,
1000
0001
0000
0001
0100
0000
0100
0000
0020
0000
2030
0000
3002
0000
0013
0000
,
0110
0000
0100
1000
0000
1000
0000
0001
0000
1000
0001
0000
0100
0000
0010
0000
,
1000
0000
0001
1000
0000
0001
0000
0001
0000
1000
0001
0000
0010
0000
0100
0000
,
1000
0000
0100
1000
0000
0100
0000
0100
0000
1000
0100
0000
1000
0000
0010
0000
,
0100
0000
0001
0100
0000
0001
0000
0001
0000
0100
0001
0000
0010
0000
0000
1000
,
0000
0000
0010
1000
0000
0000
0001
1000
0000
0000
0100
1000
0001
0000
0100
0001
,
0000
0000
1000
0001
0000
0000
0010
0001
1000
0000
1000
0000
0100
0000
0010
0100
,
0000
0000
0100
0010
0000
0000
0010
0001
0000
0000
0001
1000
0001
0000
0000
0100
,
0000
0000
0100
0000
2000
0000
3200
0000
0302
0000
2003
0000
0000
0000
0000
0010
,
0000
0000
0010
0000
3000
0000
0100
0002
0000
0000
1000
0000
0000
0000
0000
0010
,
0000
0000
0010
0000
0003
0000
1000
0020
0000
0000
1000
0000
0000
0000
0000
0100
,
0000
0000
0100
0000
0030
0000
0001
0100
0000
0000
0200
0000
0000
0000
0000
0010
,
0000
0000
0310
0000
0000
0000
0010
0100
0000
0000
0000
1010
0000
0000
1010
0000
,
0000
0000
1000
0001
0000
0000
1001
0000
0000
0000
0000
0011
0000
0000
0011
0000
,
0000
0000
0100
1000
0000
0000
1100
0000
0000
0000
0000
0110
0000
0000
0110
0000
,
0000
0000
0001
1000
0000
0000
1001
0000
0100
0000
0000
0100
0000
0000
0100
0000
,
0010
0001
0010
1000
0020
0000
0000
0000
,
0000
0000
0230
0000
,
0000
0000
0310
0000
,
0001
0000
2000
0000
,
0010
0000
0001
0000
3100
0100
0000
1000
,
0000
0001
0000
0000
1000
0000
0010
0000
0100
0000
0100
0000
0000
0000
0001
0000
,
0000
0010
0000
0000
0001
0000
1000
0000
0010
0000
0000
0010
0000
0000
0010
0000
,
0100
0000
0000
0100
0000
0000
0100
0000
0001
0000
0000
0001
0010
0000
0000
0010
,
1000
0000
0000
1000
0100
0000
0000
0100
0001
0000
0001
0000
0100
0000
0000
0010
,
0000
0000
0010
0000
1000
0000
0001
0000
0010
0000
0010
0000
0001
0000
0000
1000
,
0000
0000
1000
0000
0100
0000
0010
0000
0100
0000
0100
0000
0000
0100
0000
0000
,
0010
0000
0010
0000
0000
0010
0000
0000
0002
0000
0000
2003
0000
0000
3200
0000
,
0000
0320
0000
0000
1030
0000
0010
0000
0001
0000
0001
0000
0000
0000
1000
0000
,
0000
0100
0000
0000
1000
0000
0010
0000
0100
0000
0100
0000
0000
0000
0001
0000
,
0000
1000
0000
0000
0001
0000
0100
0000
0010
0000
0010
0000
0000
1000
0000
0001
,
0010
0000
0010
0000
0000
0001
0000
1000
0100
0000
0100
0000
0000
0000
0011
0000
,
0000
1000
0000
0010
0000
0000
0100
0000
0002
0000
0000
0000
1003
0000
0000
0000
,
0010
0100
0110
0000
2000
0000
3100
0000
,
0001
0100
1000
0001
0020
0000
0130
0000
,
1000
0000
0001
0000
1001
0000
0000
0000
0100
0000
0000
0001
0000
0000
0100
0000
,
0000
1000
0000
0000
0100
0000
0010
0000
0110
0000
0000
0000
0001
0000
1000
0000
,
0010
0100
0001
0000
0110
0000
1000
0001
,
0010
0100
1000
0010
0200
0000
1000
0000
,
0320
0000
0001
0000
1030
1000
0000
0001
,
0100
0000
0220
0000
0000
0000
0330
0000
1000
0100
0000
0100
1000
0010
0000
0010
,
0100
0000
0000
0001
0000
0000
0001
0000
1000
0000
0010
0000
0200
0000
0000
0000
0301
0000
0100
0000
1000
0000
0100
0000
0010
0000
0000
0010
0000
0100
0010
0000
,
1000
0000
0010
0000
0001
0000
0010
0000
1000
0000
0000
0001
0000
0100
0000
0000
0001
0000
0000
0000
1000
0000
0100
0000
1000
0000
0000
0000
0001
0000
0100
0000
,
0000
0100
0100
0100
0001
0020
0000
0030
0010
0001
1000
0010
1000
0001
0010
0001
,
0100
0010
1000
0000
0100
0010
0001
1000
,
0001
0000
0100
0000
0000
0000
0100
0000
0001
0000
0010
0000
0000
0000
0010
0000
0100
0000
0000
1000
0000
0000
1000
0000
0001
0000
0010
0000
0200
0000
0000
0000
,
1300
0000
0100
0000
0001
0000
1000
0000
0010
0000
0000
0010
0000
0100
0010
0000
0001
0000
0010
0000
1000
0000
0001
0000
0100
0000
0000
1000
0000
0001
0000
0000
,
1000
0000
0001
0010
0001
0000
1000
0100
0000
0100
0100
0100
1000
0020
0000
0030
,
0010
0100
0001
0100
0010
1000
0100
0010
,
0001
0000
0100
0000
0010
0000
0100
0000
0010
0000
0220
0000
0000
0330
0000
0000
,
1001
1000
0000
1000
0100
0010
0000
0100
,
0010
0001
0000
0001
0010
0001
0200
0000
,
0301
0100
0000
0001
0100
0100
0020
0000
,
1030
0000
0000
1000
0000
0000
1000
0000
0001
0000
0010
0000
1001
0000
0000
0000
,
1000
0001
0000
0001
0100
0010
0000
0100
,
0010
1000
0000
1000
0010
1000
0002
0000
,
1003
1100
0001
0101
1000
1010
0001
0021
,
0130
0000
1000
0000
0001
0000
0000
0001
0010
0000
0100
0000
0000
0000
0100
0000
,
1000
0010
0000
0010
0100
0001
0020
0000
,
0031
0100
0000
0010
1000
0010
0200
0000
,
0301
0000
0000
0001
0000
0000
0001
0000
1000
0000
0010
0000
1001
0000
0000
0000
,
0001
1000
0000
1000
0100
0010
0000
0100
,
0010
0001
0000
0001
0100
0010
1000
0001
,
1000
1000
0100
0100
0010
0010
0001
0001
,
1000
0010
0100
0001
0100
0010
0100
0100
,
0002
0000
0000
0000
,
2003
0000
0000
0000
,
3020
0000
0000
0000
,
0230
0000
0000
0000
,
0302
0000
0000
0000
,
0023
0000
0000
0000
,
2030
0000
0000
0000
,
3002
0000
0000
0000
,
0103
1000
0001
0010
,
0100
0000
0000
0000
,
0100
1000
0001
0010
,
1100
1010
0011
0101
,
0200
0010
1000
0001
,
0320
1000
0001
0130
,
0002
0100
0100
0103
2000
0001
0001
0001
,
3020
0000
0100
0000
0100
0000
0130
0000
0010
0000
0010
0000
0100
1000
0100
0000
,
0001
0000
0000
0000
0000
0000
1000
0001
1000
0001
1000
0100
,
0020
0000
0000
0000
0030
0100
1001
0000
,
0001
0000
0000
0100
0000
0000
0010
0000
1000
0000
0000
0010
0000
0000
0100
0000
,
0001
0000
0000
1000
0000
0000
0010
0100
0010
0000
0000
0100
0000
0001
0000
0001
,
1000
0000
0000
0100
0000
0000
0010
0000
0001
0000
0000
0010
0000
0000
0100
0000
,
1000
0000
0001
0010
0000
0010
0001
1000
0010
0000
0000
1000
0000
0010
0000
0100
,
0001
0000
0000
0100
0000
0000
0010
0000
1000
0000
0000
0100
0000
0000
0010
0000
,
0100
0000
0000
1000
0000
0000
0001
0100
0001
0000
0000
0010
0000
0010
0000
0100
,
1000
0000
0000
1100
0000
0000
1000
0000
0001
0000
0000
0101
0000
0000
0100
0000
,
0010
0000
0010
1000
0000
0000
0010
0100
0010
0000
0010
0000
0110
0000
0000
0000
,
1000
0000
0000
0100
0000
0000
0001
0000
0001
0000
0000
0100
0000
0000
1000
0000
,
1000
0000
0000
0100
0000
0000
0010
0001
0010
0000
0000
0010
0000
0100
0000
1000
,
0001
0000
0000
0100
0000
0000
1000
0000
1000
0000
0000
0100
0000
0000
0001
0000
,
0001
0000
0100
0010
0000
0010
1000
0001
0010
0000
0000
0010
0000
0100
0000
1000
,
0100
0000
0000
0010
0000
0000
0001
0000
0001
0000
0000
1000
0000
0000
0001
0000
,
0100
0000
0000
0010
0000
0000
0100
0001
0100
0000
0000
0010
0000
0000
1000
0000
,
0001
0100
0001
1000
0100
1000
0001
0100
,
0020
0000
0100
1030
,
0002
0000
0000
0100
0000
0000
1003
0000
0020
0000
0000
0100
0000
0000
1030
0000
,
0002
0000
0000
0010
0000
0000
1003
0100
0010
0000
0000
0010
0000
0000
0001
0000
,
2000
0000
0000
0010
0000
0000
3001
0000
0200
0000
0000
0010
0000
0000
0301
0000
,
1000
0000
0100
0010
0000
0001
1000
0000
0010
0000
0000
0010
0000
0000
0200
0000
,
0001
0000
0000
0001
0000
0000
0302
0000
1000
0000
0000
1000
0000
0000
2003
0000
,
0100
0000
0000
0100
0000
0000
3200
0000
0010
0000
0000
0010
0000
0310
0000
0100
,
0001
0000
0000
0100
0000
0000
1000
0000
0001
0000
0000
0100
0000
0000
0010
0000
,
0001
0000
0000
0010
0000
0000
1000
0000
0100
0000
0000
0001
0000
0000
0100
0000
,
0010
0000
0000
0011
0000
0000
0001
0000
1000
0000
0000
1010
0000
0000
0010
0000
,
0100
0000
0000
0101
0000
0000
0001
0000
0100
0000
1000
0000
0100
0000
0010
0000
,
1000
0000
0000
1100
0000
0000
0100
0000
0010
0000
0000
0011
0000
0000
0001
0000
,
1000
0000
0000
1000
0010
0000
0100
0000
0001
0000
0000
1001
0000
0000
1000
0000
,
0100
0010
0001
0100
0010
0100
0001
0010
,
0100
1000
0010
1000
0100
0010
0100
1000
,
0001
0100
0010
0001
0010
1000
0001
0100
,
0010
0000
0000
0010
0000
0000
0000
1000
0000
0000
0001
0000
0100
0000
0000
0000
,
0010
0000
1001
0000
0000
0000
0000
0000
0100
0000
0000
0100
0000
0000
0110
0000
,
0000
0000
0000
0000
1010
0000
0000
0100
0000
0000
1001
0000
0000
0100
0000
0000
,
0022
0000
0000
0000
0000
0000
0000
0030
,
0200
0003
0020
0000
0000
0000
0000
0000
,
0330
0000
0100
0000
0001
0000
0000
0001
0000
0000
1000
0000
0010
0000
0100
0000
,
0001
1000
0000
0220
0000
0000
0000
0000
,
0000
0000
0000
0000
,
0000
0000
0000
0000
0000
0330
0000
0000
;

//---------------dance-single - ----------------
#NOTES:
     dance-single:
     :
     Medium:
     6:
     0.387290,0.718840,0.209634,0.241612,0.015989,763.000000,704.000000,59.000000,68.000000,0.000000,0.000000,0.387290,0.718840,0.209634,0.241612,0.015989,763.000000,704.000000,59.000000,68.000000,0.000000,0.000000:
0000
0000
0000
0000
,
0000
0000
0000
0000
,
0000
0000
0000
0000
,
0000
0000
0000
0000
,
0000
0000
0000
0000
,
0000
0000
0000
0000
,
0000
0000
0000
0000
,
0000
0000
0000
0000
,
0000
0000
0000
0000
,
0000
0000
0000
0000
,
0001
0100
0001
0010
,
0200
0000
0300
0010
0001
0100
0010
0100
,
0001
1000
0010
0100
,
0002
0000
0003
1000
0010
1000
0001
1000
,
0200
0000
0300
1000
0020
0000
0030
0000
,
1000
0100
1000
0000
0001
0100
0010
0000
,
0200
0000
0000
0300
,
0100
0000
0001
0100
0010
0000
0010
1000
,
0100
0000
0000
0000
,
0000
0000
0000
0000
0000
0000
0001
0010
,
0200
0000
0000
0320
,
0032
0000
0000
0000
,
0003
0001
0000
0001
0000
1000
0000
1000
,
0000
0010
0000
0010
0000
0100
0000
0100
,
0000
0001
0000
0010
0000
0100
0000
1000
,
0000
0010
0000
0100
0000
0010
0000
0100
,
0001
0000
0010
0100
0100
0000
1000
0001
,
1000
0000
0010
0100
0100
0000
0010
1000
,
1001
0000
0100
0010
0010
0000
0001
1000
,
0001
0000
0100
0010
0100
0000
1000
0001
,
2000
0000
0000
0000
,
3020
0000
0000
0000
0000
0000
0000
0030
,
0010
0010
0110
0110
,
0001
1000
0010
0000
0100
0001
0010
0000
,
1000
0100
1000
0001
1000
0100
1000
0000
,
0001
0100
0001
1000
0001
0100
0010
0000
,
0100
1000
0100
0010
0100
0001
1000
0000
,
0010
1000
0010
0100
0010
0001
1000
0000
,
0100
0000
0001
0100
0010
0100
0001
1000
,
0001
0000
1000
0100
0010
0100
1000
0001
,
0100
0000
0000
0000
0010
0000
1000
0000
0010
0000
0100
0000
0001
0000
0000
0001
,
0000
0001
1000
0001
1000
0000
0002
0100
,
0000
0100
0000
0010
0003
0010
0200
0001
,
0000
0001
0000
1000
0300
1000
0002
0010
,
0000
0010
0000
1000
0003
1000
0020
0100
,
0000
0100
0000
0100
0130
0000
1000
0010
,
0100
0001
0100
0000
0001
0010
0000
0010
,
0100
1000
0100
0000
1000
0001
0000
0001
,
0100
0000
0010
0000
0100
0000
0000
0000
0010
0000
0000
0010
0000
0000
0010
0000
,
0100
1000
0100
0001
0200
0000
0000
0000
,
0000
0000
0302
0000
,
0000
0000
2003
0000
,
0100
0000
3020
0000
,
0100
0000
0130
0000
0001
0002
0000
0000
,
0000
0000
0000
0000
1003
2000
0000
0000
,
0000
0000
3020
0000
,
0230
0000
0301
0100
,
0010
0000
0110
0000
1010
1000
0010
0000
,
0100
0100
0001
1000
0100
0100
1000
0000
,
0001
0001
0010
0100
0010
0010
0000
0010
,
0100
0100
0000
0100
1000
0000
0010
0000
,
0100
0000
0001
0000
1000
1000
0000
0001
,
0000
0010
0001
0100
0010
0010
0000
1000
,
0000
0001
1000
0010
0100
0100
0000
0001
,
1000
0100
0000
1000
0010
0010
0000
1001
,
0000
0100
0000
0100
0000
0000
0010
0000
2000
0000
0000
0000
3001
0000
0000
0000
,
0100
0010
0110
0000
0002
0000
0013
0000
,
1000
0010
1000
0010
0200
0000
0310
0000
,
0001
1000
1001
0000
0010
0100
0010
0000
,
1000
0001
0010
0000
0110
0000
1000
0001
,
0100
0010
1000
0000
0110
0000
0001
1000
,
0100
0010
0001
0100
0020
0000
1000
0000
,
0230
0000
0001
0000
0310
0010
0000
1000
,
0010
0220
0000
0330
0001
0010
0011
0100
,
0110
1000
1001
0020
1030
0011
0100
0110
,
0100
1100
0100
1000
1000
0001
0011
1000
,
0010
0010
1010
0200
0300
1001
0101
1000
,
1010
0000
0001
0000
0010
0100
1000
0000
,
1000
0010
1010
0100
0110
0001
1001
0120
,
0031
1010
0100
0110
1000
0101
0010
1001
,
0001
1000
1100
0001
0010
0010
0011
0200
,
0300
1000
0010
0001
,
1000
0010
0100
0010
0100
0220
0000
0330
,
1001
0000
0001
0000
0010
0100
0000
0010
,
0100
1000
0000
1000
0100
1000
0020
0000
,
1030
0000
0010
1000
0010
0010
0200
0000
,
0301
0000
0001
0001
1000
0100
0010
0000
,
0001
0000
0001
1000
0010
0100
0000
0010
,
0100
0001
0000
0001
0100
0001
2000
0000
,
3001
0100
1000
0100
0001
0100
0010
1000
,
1000
0001
1000
0000
1100
0000
0010
0000
,
0001
0100
0000
0100
0010
0000
0100
0000
,
0010
1000
0010
0000
0100
0001
0020
0000
,
0130
0000
1000
1000
0001
0100
0010
0000
,
1000
0001
0000
0001
0010
0100
0000
0010
,
0100
1000
0000
1000
0010
0100
0001
1000
,
0002
0023
0230
2300
,
3001
0100
0010
0000
1000
0001
0100
0001
,
2000
0000
0000
0000
,
3002
0000
0000
0000
,
0203
0000
0000
0000
,
0320
0000
0000
0000
,
2030
0000
0000
0000
,
3200
0000
0000
0000
,
0320
0000
0000
0000
,
0032
0000
0000
0000
,
1003
0100
0010
0001
,
1000
0000
0000
0000
,
1000
0100
0010
0001
,
0011
1001
1010
1001
,
0002
0010
1000
0103
,
2000
0100
0001
3010
,
1000
0010
1000
0010
1000
0001
1000
0001
,
0100
0010
0100
0010
0100
0100
0010
0010
,
1000
0000
0000
0000
0001
0010
1000
0010
,
0200
0000
0000
0000
0300
0010
0110
0000
,
1000
0000
0010
0100
0001
0000
0100
0010
,
1000
0000
0001
0100
0010
0000
0010
1000
,
1001
0000
0010
0100
1000
0000
0100
0010
,
0001
1000
0100
1000
0001
0000
0001
1000
,
1010
0000
0010
0100
0001
0000
0010
0100
,
0010
0000
0001
1000
0010
0000
0100
0100
,
0110
0000
1000
0001
0100
0000
0010
0100
,
0001
0000
1000
0100
0001
0100
0010
0000
,
0001
0000
1000
1000
0010
0000
0001
0001
,
0010
0000
0100
0010
0100
0000
1000
0001
,
1001
0000
0010
0100
0100
0000
0001
1000
,
1000
0001
1000
0000
0010
0000
0110
0000
,
0001
1000
0100
0000
0010
0000
0010
0000
,
1000
0001
0100
0000
0010
0000
0010
0000
,
1010
0000
0001
0100
0010
1000
0010
0000
,
0201
0010
0010
0310
,
2000
3010
0200
0310
,
2000
0000
3100
1000
0010
0000
1000
0010
,
0200
0301
0020
0130
,
2000
0000
3001
0100
0010
0000
0010
0000
,
1000
0100
1000
0000
0100
1000
0001
0000
,
0001
0100
0001
0000
0100
0001
0010
0000
,
1010
0000
0100
0000
0100
0010
0100
0000
,
0011
1000
0200
0001
,
0310
1100
0010
0101
,
0100
0000
1010
0000
0100
0010
0100
0000
,
1000
0011
1000
0101
,
0001
0100
0010
0100
1000
0000
0110
0000
,
1000
0100
1000
0000
0001
0100
0001
0000
,
1000
0010
1000
0000
0001
0010
0001
0000
,
1000
0100
1000
0100
0010
0001
0010
0001
,
1000
0000
0000
1000
0000
0000
0000
0001
0000
0000
0100
0000
0010
0000
0000
0000
,
0100
0000
0110
0000
0000
0000
0000
0000
0001
0000
0000
1000
0000
0000
1001
0000
,
0000
0000
0000
0000
1000
0000
0000
1000
0000
0000
0001
0000
0000
0000
0001
0000
,
0220
0000
0000
0000
0000
0000
0000
0330
,
2000
0002
0000
0000
,
3003
0000
1000
0000
0100
0000
0000
0100
0000
0000
0100
0000
0010
0000
0001
0000
,
0100
0010
0000
2002
0000
0000
0000
0000
,
0000
0000
0000
0000
,
0000
0000
0000
0000
0000
3003
0000
0000
;

//---------------dance-single - ----------------
#NOTES:
     dance-single:
     :
     Beginner:
     2:
     0.151769,0.303880,0.067509,0.067509,0.000000,299.000000,280.000000,19.000000,19.000000,0.000000,0.000000,0.151769,0.303880,0.067509,0.067509,0.000000,299.000000,280.000000,19.000000,19.000000,0.000000,0.000000:
// measure 0
0000
0000
0000
0000
,  // measure 1
0000
0000
0000
0000
,  // measure 2
0000
0000
0000
0000
,  // measure 3
0000
0000
0000
0000
,  // measure 4
0000
0000
0000
0000
,  // measure 5
0000
0000
0000
0000
,  // measure 6
0000
0000
0000
0000
,  // measure 7
0000
0000
0000
0000
,  // measure 8
0000
0000
0000
0000
,  // measure 9
0000
0000
0000
0000
,  // measure 10
1000
0000
1000
0000
,  // measure 11
0010
0000
0000
0000
,  // measure 12
0001
0000
0001
0000
,  // measure 13
0100
0000
0000
0000
,  // measure 14
1010
0000
0100
0000
,  // measure 15
0011
0000
0100
0000
,  // measure 16
1001
0000
0000
0000
,  // measure 17
0010
0000
0000
0000
,  // measure 18
0110
0000
0000
0000
,  // measure 19
0000
0000
0000
0000
,  // measure 20
0020
0000
0000
0000
,  // measure 21
0130
0000
0000
0000
,  // measure 22
1000
0000
1000
0000
,  // measure 23
0001
0000
0001
0000
,  // measure 24
1000
0000
0001
0000
,  // measure 25
1000
0000
0001
0000
,  // measure 26
0100
0000
0100
0000
,  // measure 27
0100
0000
0100
0000
,  // measure 28
0010
0000
0010
0000
,  // measure 29
0010
0000
0010
0000
,  // measure 30
1001
0000
0000
0000
,  // measure 31
0200
0000
0000
0000
,  // measure 32
0310
0000
0000
0000
,  // measure 33
0110
0000
0000
0000
,  // measure 34
1000
1000
0000
0000
,  // measure 35
0001
0001
0000
0000
,  // measure 36
0010
0010
0000
0000
,  // measure 37
0100
0100
0000
0010
,  // measure 38
0000
0000
1000
0001
,  // measure 39
0000
0000
0001
1000
,  // measure 40
0000
0000
0010
0200
,  // measure 41
0000
0000
0000
0310
,  // measure 42
0000
0010
0000
1000
,  // measure 43
0000
0001
0000
0010
,  // measure 44
0000
0010
0000
0001
,  // measure 45
0000
0001
0100
0000
,  // measure 46
0100
0000
0001
0000
,  // measure 47
1000
0000
0100
0000
,  // measure 48
0100
0000
0020
0000
,  // measure 49
0000
0000
0130
0000
,  // measure 50
0000
0000
0000
0000
,  // measure 51
0000
0000
0000
0000
,  // measure 52
0000
0000
0000
0000
,  // measure 53
0000
0000
1001
0000
,  // measure 54
0000
0000
0100
0000
,  // measure 55
0000
0000
0010
0000
,  // measure 56
0010
0000
0020
0000
,  // measure 57
0000
0030
1000
1000
,  // measure 58
1000
0000
0001
0001
,  // measure 59
0001
0000
1000
0000
,  // measure 60
0010
0000
0100
0100
,  // measure 61
0100
0000
0001
0001
,  // measure 62
0001
0000
1000
1000
,  // measure 63
1000
0000
0001
0000
,  // measure 64
0010
0000
0100
0000
,  // measure 65
0110
0000
1000
0001
,  // measure 66
1000
0000
0001
1000
,  // measure 67
0001
0000
0100
0100
,  // measure 68
0100
0000
0010
0000
,  // measure 69
0100
0000
0001
1000
,  // measure 70
0001
0000
1000
0001
,  // measure 71
1000
0000
0010
0010
,  // measure 72
0010
0000
0100
0000
,  // measure 73
0220
0330
1000
1100
,  // measure 74
1000
1001
0000
0101
,  // measure 75
0010
0101
0000
0100
,  // measure 76
0010
0110
0000
1001
,  // measure 77
0000
0000
0010
0000
,  // measure 78
2000
0100
0000
3100
,  // measure 79
0002
0100
0000
0103
,  // measure 80
0020
0100
0000
0130
,  // measure 81
1000
1000
1000
0000
,  // measure 82
0002
0000
1003
0000
,  // measure 83
1000
1000
0000
0000
,  // measure 84
0100
0000
0100
0000
,  // measure 85
0001
0001
0000
0000
,  // measure 86
0100
0000
0010
0000
,  // measure 87
1000
1000
0000
0000
,  // measure 88
0010
0000
0010
0000
,  // measure 89
0001
1000
0001
1000
,  // measure 90
0010
0010
0000
0000
,  // measure 91
1000
0000
0001
0000
,  // measure 92
0010
0010
0000
0000
,  // measure 93
0001
0000
1000
0000
,  // measure 94
0100
0100
0000
0000
,  // measure 95
1000
0000
0001
0000
,  // measure 96
0100
0100
0100
0000
,  // measure 97
0010
0010
0010
0000
,  // measure 98
1001
0000
0000
0000
,  // measure 99
1000
0000
0000
0000
,  // measure 100
0001
0000
0000
0000
,  // measure 101
0001
0000
0000
0000
,  // measure 102
0100
0000
0000
0000
,  // measure 103
0010
0000
0000
0000
,  // measure 104
0100
0000
0000
0000
,  // measure 105
0010
0000
0000
0000
,  // measure 106
0200
0000
0000
0000
,  // measure 107
0000
0000
0000
0000
,  // measure 108
0300
0000
0000
0000
,  // measure 109
0010
0000
0010
0000
,  // measure 110
1000
1000
1000
0000
,  // measure 111
0001
0001
0001
0000
,  // measure 112
1000
0010
1000
0000
,  // measure 113
0001
0010
0001
0000
,  // measure 114
0110
0000
0000
0000
,  // measure 115
0010
0000
0010
0000
,  // measure 116
1000
0000
0100
0000
,  // measure 117
1000
0000
0010
0000
,  // measure 118
0001
0000
0100
0000
,  // measure 119
0001
0000
0010
0000
,  // measure 120
1000
0000
0100
0000
,  // measure 121
0001
0000
0100
0000
,  // measure 122
1000
0000
0010
0000
,  // measure 123
0001
0000
0010
0100
,  // measure 124
0010
0000
0010
0000
,  // measure 125
0100
0100
0100
0000
,  // measure 126
0001
0000
0001
0000
,  // measure 127
1000
1000
1000
0000
,  // measure 128
0010
0000
0100
0000
,  // measure 129
0001
0000
1000
0000
,  // measure 130
0010
0010
0010
0000
,  // measure 131
0200
0000
0000
0300
,  // measure 132
1000
0000
0010
0000
,  // measure 133
0001
0000
0100
0000
,  // measure 134
1000
0000
0100
0000
,  // measure 135
0001
0000
0010
0000
,  // measure 136
1000
1000
1000
0000
,  // measure 137
0001
0001
0001
0000
,  // measure 138
0100
0100
0100
0000
,  // measure 139
0020
0000
0000
0030
,  // measure 140
0001
0000
0100
0000
,  // measure 141
0010
0000
1000
0000
,  // measure 142
0001
0000
0010
0000
,  // measure 143
0100
0000
1000
0000
,  // measure 144
0001
0100
0001
0000
,  // measure 145
1000
0100
1000
0000
,  // measure 146
0010
0000
0100
0000
,  // measure 147
0020
0000
0000
0030
,  // measure 148
0110
0000
0000
0000
1000
0000
0000
0001
,  // measure 149
0000
0000
0100
0000
0000
0100
0000
0000
,  // measure 150
0020
0000
0000
0000
,  // measure 151
0000
0200
0000
0000
,  // measure 152
0000
0330
0000
0100
,  // measure 153
0100
0000
0000
2002
0000
0000
0000
0000
,  // measure 154
0000
0000
0000
0000
,  // measure 155
0000
0000
3003
0000
;

//---------------dance-single - ----------------
#NOTES:
     dance-single:
     :
     Easy:
     3:
     0.185270,0.248829,0.014212,0.156337,0.000000,365.000000,361.000000,4.000000,44.000000,0.000000,0.000000,0.185270,0.248829,0.014212,0.156337,0.000000,365.000000,361.000000,4.000000,44.000000,0.000000,0.000000:
0000
0000
0000
0000
,
0000
0000
0000
0000
,
0000
0000
0000
0000
,
0000
0000
0000
0000
,
0000
0000
0000
0000
,
0000
0000
0000
0000
,
0000
0000
0000
0000
,
0000
0000
0000
0000
,
0000
0000
0000
0000
,
0000
0000
0000
0000
,
1000
0000
1000
0001
,
0100
0000
0000
0000
,
0001
0000
0001
1000
,
0100
0000
0100
1000
,
0010
0000
0010
0000
,
1000
0010
0100
0001
,
0010
0000
0000
0000
,
0001
0001
1000
1000
,
0200
0000
0000
0000
,
0000
0000
0300
0100
,
2000
0000
3000
0001
,
0020
0000
0000
0030
,
0000
0001
0000
0001
,
0000
0100
0000
0100
,
0000
0010
0000
0010
,
0000
1000
0000
1000
,
0001
0000
1000
0000
,
1000
0000
0001
0000
,
0001
0000
1000
0100
,
0001
0000
0001
0100
,
2000
0000
0000
0000
,
0002
0000
0000
3003
,
2002
0000
0000
3003
,
0110
0000
0000
0000
,
0000
1000
0000
0001
,
0000
1000
0000
0100
,
0000
1000
0000
0001
,
0000
1000
0000
0010
,
0001
0000
1000
0000
,
0001
0000
0100
0000
,
0001
0000
1000
0020
,
0000
0000
0030
0000
,
1000
0000
1000
0000
,
0100
0000
0100
0000
,
0010
0000
0010
0000
,
0001
0000
0001
1000
,
0000
1000
0000
0010
,
0000
0010
0000
0100
,
0000
0100
0002
0000
,
1003
1000
0100
0000
,
0000
0000
0000
0000
,
0000
0000
0000
0000
,
0000
0000
0000
0000
,
0000
0000
1000
0000
,
1000
1000
0001
0000
,
0001
0001
1000
0000
,
0001
0000
0020
0000
,
0000
0030
0001
1000
,
0001
1000
0001
0100
,
0001
0100
0010
0100
,
0010
1000
0100
1000
,
0100
0010
0001
0010
,
0001
0010
0100
1000
,
0100
1000
0010
1000
,
0001
1000
0001
0100
,
0010
1000
0001
0001
,
0100
0010
1000
1000
,
0100
0010
0001
0010
,
0100
0010
0001
1000
,
0010
0100
0001
0100
,
0001
0001
0100
0010
,
1000
1000
0100
0010
,
0001
0100
1000
0100
,
0002
0000
1003
0000
,
0100
0100
1000
0000
,
0001
0001
0100
0000
,
0010
0010
1000
0001
,
1000
0001
1000
0000
,
0001
0000
0010
0010
,
0100
0000
1000
1000
,
0010
0000
0100
0100
,
0001
0100
0010
1000
,
0001
0001
0002
0000
,
1003
0100
0000
0100
,
0000
0010
0000
0010
,
0000
0100
0000
0100
,
2000
3000
0002
0003
,
0001
0100
0000
0100
,
0000
0010
0000
0010
,
0000
0100
0000
0100
0000
0100
0000
0200
,
0310
1000
0000
1000
,
0000
0001
0000
0001
,
0000
0010
0000
0010
,
0000
0100
0000
0100
,
1000
0010
0000
0010
,
0000
0100
0000
0100
,
0001
1000
0001
1000
,
0010
0010
0020
0000
,
1030
0000
0000
0000
,
0001
0000
0000
0000
,
1000
0000
0000
0000
,
0010
0000
0000
0000
,
0100
0000
0000
0000
,
0001
0000
0000
0000
,
0010
0000
0000
0000
,
0100
0100
0100
0000
,
2002
0000
0000
0000
,
0000
0000
0000
3003
,
0000
1000
0000
1000
,
0000
0001
0000
0001
,
0000
1000
0000
0001
,
0000
1000
0000
0001
,
1000
0001
1000
0001
,
1000
0010
0100
0001
,
0020
0000
0000
0000
,
0030
0000
0000
0000
,
0001
0100
0001
0000
,
0100
0010
1000
0000
,
1000
0100
1000
0000
,
0100
0010
0001
0000
,
0001
0100
0010
0000
,
1000
0100
0010
0000
,
0002
0003
2000
3000
,
0001
0010
0100
1000
,
1000
0001
0100
0000
,
0001
1000
0010
0000
,
1000
0010
0100
0000
,
0001
0010
0100
0000
,
1000
0100
1000
0001
,
0100
0001
1000
0100
,
0010
0010
0001
1000
,
0020
0000
0000
0030
,
2000
3000
2000
3000
,
1000
0010
0100
0000
,
0002
0003
0002
0003
,
0010
0100
0010
0000
,
0002
0003
2000
3000
,
0010
0100
0001
0000
,
2000
3000
0002
0003
,
0010
0010
0100
0100
,
2000
3100
2000
3100
,
0010
0001
0020
0030
,
0002
0103
0002
0103
,
0010
1000
0010
0010
,
2000
3100
2000
3010
,
0002
0103
0002
0013
,
0100
0100
1000
0001
,
0200
0000
0000
0300
,
0001
0001
0000
0000
1000
0000
0000
1000
,
0000
0000
0001
0000
0000
0100
0000
0000
,
0020
0000
0000
0000
,
0000
0200
0000
0000
,
0330
1000
0100
0010
,
0001
0000
0000
2002
0000
0000
0000
0000
,
0000
0000
0000
0000
,
0000
0000
0000
0000
0000
3003
0000
0000
;
